#VERSION:0.83;
#TITLE:Meimetsu, fragments;
#SUBTITLE:;
#ARTIST:Masato Nakayama(Elements Garden) feat. Megu Sakuragawa;
#TITLETRANSLIT:;
#SUBTITLETRANSLIT:;
#ARTISTTRANSLIT:;
#GENRE:;
#ORIGIN:;
#CREDIT:from pop n music 21 Sunny Park;
#BANNER:20160605182746!SP_CYBER_SYMPHONIC_POP.png;
#BACKGROUND:;
#PREVIEWVID:;
#JACKET:;
#CDIMAGE:;
#DISCIMAGE:;
#LYRICSPATH:;
#CDTITLE:;
#MUSIC:Meimetsu,_fragments.ogg;
#OFFSET:-0.058000;
#SAMPLESTART:54.320999;
#SAMPLELENGTH:17.000000;
#SELECTABLE:YES;
#BPMS:0.000=157.000;
#STOPS:;
#DELAYS:;
#WARPS:;
#TIMESIGNATURES:0.000=4=4;
#TICKCOUNTS:0.000=4;
#COMBOS:0.000=1;
#SPEEDS:0.000=1.000=0.000=0;
#SCROLLS:0.000=1.000;
#FAKES:;
#LABELS:0.000=Song Start;
#BGCHANGES:;
#KEYSOUNDS:;
#ATTACKS:
;

//---------------dance-single - ----------------
#NOTEDATA:;
#CHARTNAME:;
#STEPSTYPE:dance-single;
#DESCRIPTION:;
#CHARTSTYLE:;
#DIFFICULTY:Beginner;
#METER:4;
#RADARVALUES:0.198954,0.244449,0.087651,0.136346,0.000000,143.000000,134.000000,9.000000,14.000000,0.000000,0.000000,0.000000,0.000000,0.000000,0.198954,0.244449,0.087651,0.136346,0.000000,143.000000,134.000000,9.000000,14.000000,0.000000,0.000000,0.000000,0.000000,0.000000;
#CREDIT:;
#NOTES:
0000
0000
0000
0000
,
0000
0000
0000
0000
,
0000
0000
0000
0000
,
0000
0000
0000
0000
,
0000
0000
0000
0001
,
0000
0000
0000
0000
,
0000
0000
0000
0110
,
0000
0001
0000
1000
,
0000
1100
0000
0011
,
0000
0001
0000
0100
,
0000
1000
0000
0101
,
0000
0001
0000
1000
,
0010
1000
0000
0001
,
0100
0001
0000
0010
,
0010
0100
0000
0001
,
1000
0010
0000
0010
,
1000
0001
0000
2000
,
0000
3001
0001
0001
,
0000
0100
0100
0010
,
0000
0010
1000
0001
,
0000
1001
0000
0001
,
0100
0001
0000
1000
,
0010
0100
0000
0001
,
0001
1000
0000
0001
,
0000
0100
0000
0020
,
0000
1030
0000
1000
,
0000
0001
0000
0100
,
0000
0010
0000
0101
,
0000
0000
0000
0001
,
0010
0100
0000
0100
,
1000
0001
0000
2000
,
0000
3001
0000
0001
,
0000
0100
0000
0020
,
0000
0130
0000
0002
,
0000
1000
0000
1003
,
0000
0000
0000
0001
,
0000
0101
0000
0010
,
0000
1000
0000
1010
,
0000
0100
0000
0002
,
0000
0103
0000
0010
,
0010
0010
0000
1000
,
1000
1000
0000
0001
,
0001
0001
0000
0200
,
0000
0310
0000
0110
,
0000
1000
0000
0001
,
0100
0001
0000
1000
,
0001
1000
0001
1000
,
0000
0002
0000
1003
,
0000
1000
0001
0100
,
0000
0100
0001
1000
,
0000
1000
0100
0010
,
0000
0001
0010
0100
,
0000
1000
0000
0002
,
0000
0003
0000
0200
,
0000
0310
0000
0002
,
0000
1003
0000
2000
,
0000
3010
0000
0100
,
0000
0100
0000
0100
,
0010
0100
0000
0001
,
0000
1000
0000
0001
,
0001
0100
0000
0020
,
0000
0000
0030
0200
,
0000
0000
0300
0010
;

//---------------dance-single - ----------------
#NOTEDATA:;
#CHARTNAME:;
#STEPSTYPE:dance-single;
#DESCRIPTION:;
#CHARTSTYLE:;
#DIFFICULTY:Easy;
#METER:7;
#RADARVALUES:0.318604,0.431194,0.233736,0.311648,0.000000,229.000000,205.000000,24.000000,32.000000,0.000000,0.000000,0.000000,0.000000,0.000000,0.318604,0.431194,0.233736,0.311648,0.000000,229.000000,205.000000,24.000000,32.000000,0.000000,0.000000,0.000000,0.000000,0.000000;
#CREDIT:;
#NOTES:
0000
0000
0000
0000
,
0000
0000
0000
0000
,
0000
0000
0000
1000
,
0000
0001
0000
0200
,
0300
0020
0030
2000
,
0000
0002
0000
0000
,
0000
0000
3003
0000
0000
0000
1000
0001
,
0100
0000
0020
0000
0130
0000
0001
1000
,
0001
0000
1000
0000
0000
0000
0100
0010
,
0001
2000
3001
0100
,
0101
0020
0030
1000
,
0001
0000
0100
0010
0100
0000
0001
0010
,
0001
0010
0001
0000
1000
0000
0002
0000
,
1000
1003
0001
0100
,
0110
1001
1001
2000
,
0000
3002
0000
0203
,
0000
0310
0000
0100
,
0001
0100
0001
0000
1001
0000
1000
0000
,
0010
1000
0010
0000
0100
0000
0101
0000
,
0001
0100
0010
0000
1000
0000
1001
0000
,
1001
2001
0000
3001
,
0100
0010
0000
0100
0000
0010
0100
0000
,
0001
0100
0000
0001
0000
1000
0001
0000
,
0100
0010
1000
0002
,
0003
0200
0300
0020
,
0000
1000
0030
1000
,
1000
0001
0000
2000
,
0000
0010
3000
0010
,
0100
0000
0001
0000
0000
0000
1000
0001
,
1000
0000
0001
0000
0100
0000
0010
1000
,
0100
0010
0001
2000
,
3000
0020
0030
0200
,
0300
0001
0001
0001
,
0100
0100
0000
0100
,
0100
0001
0001
1000
,
0000
0001
0000
0110
,
0100
0000
0010
0000
1000
0001
1000
0000
,
0001
0010
0100
2000
,
0000
3010
0100
0001
,
0001
0100
0010
0020
,
0000
0030
0000
0200
,
0000
0300
0000
0001
,
0001
1000
1000
0010
,
0100
0001
0100
0110
,
0000
0010
1000
1000
,
0001
0010
0100
1000
,
1001
0000
0001
0202
,
0000
0000
0303
0001
,
1000
0000
0010
0100
0010
0000
0100
0000
,
0001
1100
1000
1020
,
0000
1030
0001
0201
,
0000
0000
0301
0000
0000
0000
0100
0010
,
0100
0000
0010
0000
0000
0000
0100
0010
,
0100
0001
0000
1100
,
0000
0000
0110
0000
0000
0001
0000
1000
,
0001
0000
2000
0000
3000
0000
0010
0100
,
0010
0000
0100
0000
0000
0001
0000
0001
,
0000
1000
0000
1000
0000
0000
0001
0100
,
0010
0000
2000
0000
3000
0001
0000
0001
,
0100
0000
0010
0000
0000
0000
1000
0001
,
1000
0001
0000
0101
,
1010
0101
1010
0202
,
0303
0202
0000
0000
,
0000
0303
0000
0000
;

//---------------dance-single - ----------------
#NOTEDATA:;
#CHARTNAME:;
#STEPSTYPE:dance-single;
#DESCRIPTION:;
#CHARTSTYLE:;
#DIFFICULTY:Medium;
#METER:11;
#RADARVALUES:0.506428,0.611122,0.457733,0.418777,0.185041,364.000000,317.000000,47.000000,43.000000,0.000000,0.000000,0.000000,0.000000,0.000000,0.506428,0.611122,0.457733,0.418777,0.185041,364.000000,317.000000,47.000000,43.000000,0.000000,0.000000,0.000000,0.000000,0.000000;
#CREDIT:;
#NOTES:
// measure 0
0000
0000
0000
0000
,  // measure 1
0000
0000
0000
0000
,  // measure 2
0000
0000
0000
0000
0000
0000
0000
0000
0000
0000
0000
0000
1000
0000
0000
0001
,  // measure 3
0000
0000
0010
0000
0001
0000
0000
1000
0000
0000
0100
0000
0010
0000
0000
0000
,  // measure 4
0001
0020
0230
2300
,  // measure 5
3000
0002
0000
0203
,  // measure 6
0000
0000
0320
0000
0000
0000
1030
0001
,  // measure 7
0100
0000
0010
0000
0100
0001
1000
0010
,  // measure 8
0110
0000
1010
0000
0100
0000
0001
1000
,  // measure 9
1001
0000
1000
0000
0001
0010
0100
1000
,  // measure 10
0001
0000
0000
0000
0100
0000
0000
0010
0000
0000
0100
0000
0200
0000
0000
0000
,  // measure 11
0001
0000
0301
0010
0100
0000
1000
0010
,  // measure 12
0001
0000
0010
0000
1000
0000
0000
0001
0000
0000
1000
0000
0002
0000
0000
0000
,  // measure 13
0203
0000
0000
0000
0310
0000
0000
0100
0000
0000
0010
0000
0100
0000
0000
0110
,  // measure 14
0000
0000
1001
0000
1001
0000
0000
0110
0000
0000
0110
0000
0220
0000
0000
0000
,  // measure 15
0330
0002
0003
2000
,  // measure 16
3010
0010
0000
0100
,  // measure 17
0001
0000
0100
0001
0000
0000
1000
0000
0001
0000
1000
0000
1010
0000
0000
0000
,  // measure 18
0010
0000
1000
0100
0000
0000
0010
0000
0100
0000
0010
0000
0001
0000
0000
0000
,  // measure 19
0001
0000
0100
0010
0000
0000
1000
0000
0100
0000
0010
0000
0011
0000
0000
0000
,  // measure 20
1001
0201
0000
0301
,  // measure 21
0100
0000
0010
0100
0000
0000
0010
0000
0100
0000
0001
0000
0100
0000
0000
0000
,  // measure 22
0001
0000
1000
0001
0000
0000
0001
0000
0010
0000
0100
0000
1100
0000
0000
0000
,  // measure 23
2000
0000
3000
0000
0020
0000
0030
0000
2000
0000
3000
0000
0001
0000
0000
0100
,  // measure 24
0000
0000
0001
0000
0100
0000
0000
0000
0001
0000
0010
0000
0200
0000
0000
1300
,  // measure 25
0000
0000
1000
0000
0200
0000
0000
0000
0320
0000
0000
0000
0031
0000
0000
1000
,  // measure 26
0000
0000
0001
0000
0100
0000
0000
0000
0010
0000
0000
0000
1000
0000
0000
1010
,  // measure 27
0000
0100
0101
0000
0002
0000
1003
0000
,  // measure 28
0001
0000
0100
0000
0000
0000
0100
0000
0001
0000
0000
0000
1000
0000
0000
0010
,  // measure 29
0000
0000
0010
0000
1010
0000
0000
0000
0200
0000
0300
0000
0020
0000
0030
0100
,  // measure 30
0000
0000
0001
0000
0010
0000
0000
0000
0100
0000
1000
0000
1001
0000
0000
1001
,  // measure 31
0000
0000
0101
0000
0101
0000
0000
1010
0000
0000
1010
0000
2020
0000
0000
0000
,  // measure 32
3030
0000
0001
0000
0100
0000
0000
0000
0101
0000
0000
0000
0001
0000
0000
1000
,  // measure 33
0000
0000
0010
0000
0110
0000
0000
0100
0000
0000
0001
0000
0200
0000
0000
0000
,  // measure 34
0000
0000
0301
1000
0001
0000
1000
0000
,  // measure 35
0000
0000
0000
0000
0010
0000
0000
0000
0100
0000
0010
0000
0110
0000
0000
0010
,  // measure 36
0000
0000
1000
0000
0010
0000
0100
0000
0001
0000
1000
0000
0002
0000
0003
0100
,  // measure 37
0000
0000
0010
0000
2000
0000
0000
0000
3100
0000
0000
0000
0001
0000
0000
0010
,  // measure 38
0000
0010
0100
1000
0100
0010
0020
0000
,  // measure 39
0031
0000
0100
0000
0010
0000
0000
0000
0100
0000
0010
0000
0100
0000
0000
0110
,  // measure 40
0000
0000
0100
0000
0001
0000
1000
0000
1010
0000
0000
0000
0002
0000
0003
0100
,  // measure 41
0000
0000
0010
0000
0100
0000
0010
0000
0110
0000
0000
0000
0001
0000
0000
1001
,  // measure 42
0000
1000
0010
0100
0001
1000
0002
0000
,  // measure 43
0103
0000
0010
0000
0200
0000
0000
0000
0310
0000
1000
0000
1001
0000
0000
0001
,  // measure 44
0000
0000
0100
0000
0010
0000
1000
0000
0001
0000
0100
0000
0010
0000
0000
0100
,  // measure 45
0000
0000
0001
0000
0101
0000
0000
0000
1010
0000
0000
0000
0011
0000
0000
0011
,  // measure 46
0000
0001
1000
0001
1000
0010
0200
0000
,  // measure 47
0010
0000
0010
0000
0310
0000
0000
0000
0010
0000
0100
0000
0001
0000
0000
1001
,  // measure 48
0000
0000
1000
0000
1001
0000
0000
0001
0000
0000
0010
0000
0011
0000
0000
0000
,  // measure 49
0001
0000
0100
0000
0010
0000
0100
0010
0000
0000
0000
0000
1000
0000
0000
0001
,  // measure 50
0000
0000
0100
0000
0110
0000
0000
0010
0000
0000
0010
0000
0101
0000
0000
0000
,  // measure 51
0000
0000
0001
0000
1000
0000
0000
0010
0000
0000
0100
0000
0200
0000
0000
0000
,  // measure 52
0000
0000
0310
0100
0001
0000
1000
0100
,  // measure 53
0010
0000
0100
0000
0010
0000
0000
0010
0000
0000
0001
0000
0001
0000
0000
0000
,  // measure 54
1000
0000
1100
0000
0000
0010
0000
0100
,  // measure 55
0010
0100
0010
0000
0100
0000
0001
1000
,  // measure 56
1010
0000
0200
0000
0300
0010
0000
0010
,  // measure 57
0000
0010
0000
0100
0020
0030
0110
0100
,  // measure 58
0010
0000
2000
0000
3000
0001
0000
0001
,  // measure 59
0100
0000
0020
0000
0030
0000
1000
0010
,  // measure 60
0100
0001
0200
0000
0300
0000
0020
0030
,  // measure 61
0200
0300
0002
0003
2000
3000
0010
0000
,  // measure 62
1010
0101
0011
0001
;

//---------------dance-single - ----------------
#NOTEDATA:;
#CHARTNAME:;
#STEPSTYPE:dance-single;
#DESCRIPTION:;
#CHARTSTYLE:;
#DIFFICULTY:Hard;
#METER:15;
#RADARVALUES:0.748511,0.831588,0.457733,0.350604,0.657382,538.000000,491.000000,47.000000,36.000000,0.000000,0.000000,0.000000,0.000000,0.000000,0.748511,0.831588,0.457733,0.350604,0.657382,538.000000,491.000000,47.000000,36.000000,0.000000,0.000000,0.000000,0.000000,0.000000;
#CREDIT:;
#NOTES:
0000
0000
0000
0000
,
0000
0000
0000
0000
,
0000
0000
0000
0000
0000
0000
0000
0000
0000
0000
0000
0000
1000
0000
0000
0001
,
0000
0000
0100
0000
0001
0000
0000
1000
0000
0000
0100
0000
0010
0000
0000
0000
,
0000
0000
0001
0010
0100
0000
0000
0020
0000
0000
0230
0000
2300
0000
0000
0000
,
3001
0100
0001
0100
0002
0000
0000
0000
1003
0100
1000
0100
0020
0000
0000
0000
,
0031
0010
0001
0010
0200
0000
0000
0000
0300
0000
0000
0000
1000
0000
0001
0000
,
0101
0000
0010
0000
0100
0001
1001
0010
,
0101
0000
0000
0000
1000
0000
0010
0000
0100
0000
0001
0100
0001
0000
1000
0000
,
1001
0000
2000
3000
0001
0100
0010
1000
,
0001
0000
0100
0000
0010
0000
0000
0100
0000
0000
0010
0000
0200
0000
0000
0000
,
0001
0000
0000
0000
0301
0000
0010
0000
0100
0000
0010
0000
0001
0000
1000
0010
,
0100
0000
0010
1000
0010
0000
0000
0101
0000
0000
1010
0000
0020
0000
0000
0000
,
1030
0000
0010
0000
0100
0000
0000
0100
0000
0000
0010
0000
0101
0000
0000
0110
,
0000
0000
1000
0000
1100
0000
0000
0110
0000
0000
0001
0010
0002
0000
0000
0000
,
0103
0000
0010
0100
0010
0000
1000
0000
0001
0000
1000
0100
0020
0000
0000
0000
,
0030
0000
0000
0001
0100
0010
0100
0000
0000
0110
0000
0000
,
0001
0000
0100
0001
0000
0001
1000
0000
0001
0000
0100
0000
1010
0000
0100
0001
,
0100
0000
0010
0100
0000
0100
0010
0000
0100
0000
0010
0100
0010
0000
1000
0000
,
0001
0000
1000
0010
0000
0100
0001
0000
0100
0000
0001
0000
0002
0000
0000
0000
,
2003
0000
0000
0000
3001
0000
1000
0100
0010
0000
0000
0000
0001
0000
0100
0000
,
0010
0000
0010
0100
0000
0100
0010
0000
0100
0000
0001
0010
0100
0010
0001
0000
,
1000
0000
1000
0001
0000
1000
0001
0000
0010
0100
1000
0100
0010
0001
1000
0000
,
0001
0000
0100
0000
0010
0000
0100
0010
0100
0000
0010
1000
0001
0000
0100
0010
,
0000
0100
0001
0000
1000
0100
1000
0100
0010
0000
0001
0000
1000
0000
0000
0100
,
0000
0000
1000
0100
0010
0000
0001
0000
0010
0000
1000
0000
0010
0000
0001
1000
,
0000
1000
0001
0100
0010
0000
0000
0000
0200
0000
0300
0000
1010
0000
0000
1010
,
0000
0000
0100
0000
0101
0000
0000
0000
0001
0010
0100
0010
0001
0000
0000
0000
,
1000
0000
0100
0000
0000
0000
0100
0000
0020
0000
0030
0000
0011
0000
0000
0011
,
0000
0000
1010
0000
0110
0000
0000
0000
0100
0000
0010
0000
0100
0000
0001
0100
,
0000
0000
0001
1000
0001
0000
0000
0000
1000
0000
0010
0000
1001
0000
0000
1001
,
0000
0000
0100
0001
0100
0000
0000
1010
0000
0000
0010
0100
0002
0000
0000
0000
,
0103
0000
0010
0000
0110
0000
0000
0010
0100
0000
0101
0000
0001
0100
0001
0100
,
0001
0000
1000
0000
0110
0000
0000
0101
0000
0000
0001
0100
0010
0000
0010
1000
,
0100
0000
0000
1000
0000
0000
0100
0000
0000
0010
0000
0000
0001
0000
0000
0000
0000
0000
1000
0000
0000
0100
0000
0000
0010
0000
0000
0001
0000
0000
1000
0000
0000
0100
0000
0000
1000
0000
0000
0000
0100
0000
0000
0000
0010
0000
0000
0000
,
0001
0000
0000
0000
0100
0000
0000
0000
0010
0000
0000
0000
0100
0000
0000
0000
0001
0000
0000
0000
0010
0000
0000
0000
0001
0000
0000
0000
0000
0000
0010
0000
0000
0000
0000
0000
0110
0000
0000
0000
0000
0000
0000
0000
0000
1000
0000
0000
,
0000
0000
1000
0010
1000
0000
0100
0000
0010
0000
0001
0000
0200
0000
0300
0010
,
0000
0000
1010
0000
2020
0000
3030
0000
0100
0000
0000
0000
0001
0000
0000
1001
,
0000
0000
0010
0000
0100
0000
0001
0000
0100
0000
0010
0100
0020
0000
0000
0000
,
1030
0000
0001
0000
0010
0000
0100
0000
1000
0000
0010
0100
0010
0000
0000
0101
,
0000
0000
0100
0000
0001
0000
0100
0000
1010
0000
0001
0100
0001
0000
0000
0101
,
0000
0000
0010
0100
0010
0000
0100
0000
0110
0000
0000
0000
1000
0000
0001
1000
,
0000
0000
1000
0010
0100
0000
0001
0100
0001
0000
1000
0000
0020
0000
0000
0000
,
1030
0000
0010
0100
0002
0000
0000
0000
1003
0100
0010
0001
1000
0000
0000
0101
,
0000
0000
0100
0000
0110
0000
1000
0100
0010
0000
0100
0010
0001
0000
0000
0101
,
0000
0000
0001
0000
0200
0000
0300
0000
0020
0000
0030
0000
1001
0000
0000
1100
,
0000
1000
1000
0010
0010
0100
0200
0000
,
0310
0000
0100
0000
0020
0000
0000
0000
0130
0000
0001
0010
0100
0000
0000
1100
,
0000
0000
0001
0000
2000
0000
0000
3002
0000
0000
0103
0000
0101
0000
0000
0000
,
0001
0000
0100
0000
0010
0000
0100
0010
0000
0000
0100
0010
0100
0000
0000
0011
,
0000
0000
0001
0000
0010
0000
0100
1000
0000
0100
0010
0000
0002
0000
0000
0000
,
0003
0000
1000
0100
1000
0000
0010
0100
0010
0000
0100
0000
0001
0010
0001
0010
,
0001
0000
1000
0000
0100
1000
0100
1000
0100
0000
1000
0000
0001
0100
0010
0100
,
0001
0100
0010
0000
0100
0000
0000
0110
0000
0000
1010
0000
0001
0000
0001
0000
,
1100
0000
1000
0010
0100
0020
0030
0100
,
0010
0000
0100
0000
0001
0000
0100
0001
0000
0001
0100
0000
0001
0000
1000
0000
,
1010
0000
0001
0100
0010
0200
0300
0020
,
0030
0000
0220
0000
0330
0000
0100
0000
0010
0000
0100
0000
0001
0000
0100
0001
,
0100
0010
1000
1000
0001
0002
0003
1000
,
0100
0000
0010
0000
0001
0000
1000
0001
0000
0001
1000
0000
0010
0100
0010
0100
,
0010
0000
0100
0000
0001
0100
0001
0100
0001
0000
0100
0000
0001
0000
0100
0010
,
0100
0010
0100
0000
0100
0000
0010
1000
0010
0100
0010
0000
0100
0000
0001
0010
,
0001
0010
0001
0000
0100
0000
0001
0010
0100
0010
0002
0000
0000
0000
0000
0000
,
0000
0003
0000
0000
;
