#TITLE:Massugu OK!;
#SUBTITLE:;
#ARTIST:Jimmy Weckl feat. Taro Iwashi;
#TITLETRANSLIT:;
#SUBTITLETRANSLIT:;
#ARTISTTRANSLIT:;
#GENRE:;
#CREDIT:from pop n music 9;
#BANNER:Jimmy Weckl feat. Taro Iwashi - Massugu OK!.png;
#BACKGROUND:;
#LYRICSPATH:;
#CDTITLE:Popn_music_9_logo_small.png;
#MUSIC:Jimmy Weckl feat. Taro Iwashi - Massugu OK!.ogg;
#OFFSET:-0.066000;
#SAMPLESTART:16.937000;
#SAMPLELENGTH:15.700000;
#SELECTABLE:YES;
#BPMS:0.000000=130.000000
;
#STOPS:
;
#BGCHANGES:;
#KEYSOUNDS:;
#ATTACKS:;

//---------------dance-single - ----------------
#NOTES:
     dance-single:
     :
     Beginner:
     3:
     0.125646,0.153667,0.029984,0.069962,0.000000,88.000000,85.000000,3.000000,7.000000,0.000000,0.000000,0.125646,0.153667,0.029984,0.069962,0.000000,88.000000,85.000000,3.000000,7.000000,0.000000,0.000000:
0000
0000
0000
0000
,
0000
0001
0000
1000
,
0000
0010
0000
0100
,
0000
0010
0000
0100
,
0000
0001
0000
1000
,
0000
1001
0000
0100
,
0000
0010
0000
0100
,
0000
0001
0000
0000
,
0000
0001
0000
0000
,
0001
0000
1000
0100
,
0100
0000
0100
0000
,
1000
0000
0001
0000
,
0100
0000
0010
0000
,
0000
0100
0000
0010
,
0000
0100
0000
0001
,
0000
1000
0000
0100
,
0000
0010
0000
0000
,
0000
0002
0000
0003
,
0000
1000
0000
0000
,
0000
1000
0000
0100
,
0000
0010
0000
0001
,
0000
0000
0000
1000
,
0000
0100
0000
1000
,
0000
0100
0000
0000
,
0000
0001
0000
0100
,
0000
0110
0000
0000
,
0000
0100
0000
0100
,
0000
0100
0000
0000
,
0000
0010
0000
0010
,
0000
0010
0000
0000
,
0000
0001
0000
0001
,
0000
0001
0000
0000
,
0000
1000
0000
1000
,
0000
1000
0000
0000
,
0000
0001
0010
0001
,
0000
0100
0000
0010
,
0000
0100
0000
0010
,
0000
1000
0000
0000
,
0000
1000
0100
1000
,
0000
0010
0000
0100
,
0000
0001
0000
0100
,
0000
0102
0000
0003
,
0000
0100
0000
0010
,
0000
0200
0000
0300
,
0000
0001
0000
1000
,
0000
0002
0000
0003
,
0000
1000
0000
0010
,
0000
2000
0000
3000
,
0000
0010
0000
0010
,
0000
0200
0000
0300
,
0010
0000
0000
0200
,
0000
0300
0000
0000
;

//---------------dance-single - ----------------
#NOTES:
     dance-single:
     :
     Easy:
     7:
     0.279849,0.332133,0.139924,0.159914,0.000000,196.000000,182.000000,14.000000,16.000000,0.000000,0.000000,0.279849,0.332133,0.139924,0.159914,0.000000,196.000000,182.000000,14.000000,16.000000,0.000000,0.000000:
0000
0000
0000
0000
,
0000
0001
0100
1000
,
0000
0010
0000
0100
0000
0010
0000
0100
,
0000
0010
0000
0100
,
0000
0000
1000
0000
0000
0001
0000
0001
,
0000
2001
0100
3001
,
0000
0010
0000
0100
0000
0010
0000
0100
,
0000
0001
0000
1001
,
0000
1000
0000
1000
0000
2002
0000
3003
,
0000
0001
0000
0000
0000
1000
0000
0100
,
0010
0002
0000
0003
0100
0010
0000
0100
,
0000
0010
0000
1000
0000
0000
0001
0100
,
0001
0200
0000
0300
0001
0000
0000
0000
,
0000
0110
0000
0000
0000
0100
0010
0100
,
0010
0200
0000
0300
0001
1000
0000
1000
,
0001
1000
0000
0001
1000
0001
0000
0100
,
0010
0100
0000
0000
0100
0000
0010
0100
,
0000
0000
0200
0000
0000
0001
0300
0001
,
0000
0001
0000
0000
1000
0001
1000
0001
,
0000
1000
0000
0010
0000
0000
0100
0010
,
0100
0020
0000
0030
0000
0000
0100
0010
,
0000
0110
0000
0000
0000
0010
0100
0010
,
0100
0020
0000
0030
0000
1000
0000
0001
,
1000
0010
0000
0010
1000
0001
0000
0010
,
0001
0100
0000
0010
0000
0000
0000
0000
,
0000
0000
0110
0000
0000
0100
0000
0100
,
0000
0001
0000
1000
0000
0010
0000
0100
,
0010
0100
0010
0000
0100
0010
0000
0010
,
0000
1000
0000
0001
0000
2000
0000
3000
,
0000
0000
0011
0000
0000
0001
0000
1000
,
0000
0010
0000
0100
0000
0010
0000
1000
,
0000
0001
0000
0000
0000
0100
0000
0010
,
0000
0100
0000
0010
0000
0200
0000
0000
,
0300
0000
0110
0000
0000
0010
0000
1000
,
0000
0010
0000
0010
0000
1000
0000
0001
,
0000
0000
0100
0000
0010
0100
0000
0001
,
0000
0010
0000
0100
0000
0010
0000
0001
,
0000
0000
1001
0000
0000
1000
0000
0100
,
0000
0010
0000
0100
0000
1000
0000
0000
,
0000
0001
0100
0000
0001
0100
0000
0001
,
0000
1000
0000
1000
0000
0020
0000
0030
,
0200
0000
0300
0000
0000
0010
0000
0100
,
0000
0010
0000
0000
0000
1000
0000
0001
,
0000
1001
0000
0000
0000
0001
0000
0010
,
0000
0110
0000
0000
0000
1000
0000
0100
,
0000
0110
0000
0000
0000
0000
1000
0000
,
0010
0100
0000
0100
0000
0010
0000
0000
,
0000
0110
0000
0010
0000
0010
0000
0000
,
0000
0110
0000
0100
0000
0100
0000
0000
,
0000
0000
0002
0000
0003
0200
0000
0300
,
0020
0000
0030
1000
0000
0000
0010
0100
,
0010
0100
0000
0000
0000
0000
0000
0000
;

//---------------dance-single - ----------------
#NOTES:
     dance-single:
     :
     Medium:
     10:
     0.405495,0.408779,0.199892,0.239870,0.014992,284.000000,264.000000,20.000000,24.000000,0.000000,0.000000,0.405495,0.408779,0.199892,0.239870,0.014992,284.000000,264.000000,20.000000,24.000000,0.000000,0.000000:
// measure 0
0000
0000
0000
0000
,  // measure 1
0000
0000
0001
0010
0100
1000
0100
0010
,  // measure 2
0000
0010
0000
0101
0000
0010
0000
0100
,  // measure 3
0000
0010
0100
0000
0010
0000
0000
0000
0100
0000
0020
0000
0000
0000
0030
0000
,  // measure 4
1000
0002
0000
0003
0001
0200
0000
0301
,  // measure 5
0000
0001
1001
0000
0001
0010
1000
0010
,  // measure 6
0001
0010
0100
0010
0000
0001
0000
0101
,  // measure 7
0000
0001
0100
0000
0100
0010
0000
0010
,  // measure 8
1000
1001
0000
0010
0000
2002
0000
3003
,  // measure 9
0000
0022
0000
0033
0000
1000
0000
0100
,  // measure 10
0010
0200
0000
0300
0010
0110
0000
0100
,  // measure 11
0010
0001
0000
0100
0000
0000
0001
0100
,  // measure 12
0010
1000
0000
0100
0000
0000
0010
0010
,  // measure 13
0000
0010
0000
0000
0000
0001
0010
0100
,  // measure 14
1000
0200
0000
0300
0010
0001
0000
1000
,  // measure 15
0001
0100
0000
0010
1000
0100
0000
0010
,  // measure 16
0001
0000
1000
0000
0000
0010
0000
0000
0100
0000
0000
0000
0010
0000
0110
0000
,  // measure 17
0000
0000
0200
0000
0300
0001
0001
1000
,  // measure 18
0000
0002
0000
0003
1000
0010
1000
0100
,  // measure 19
0000
1000
0000
0010
0000
0000
0100
0010
,  // measure 20
0000
0120
0000
0130
0000
0000
0100
0010
,  // measure 21
0000
0110
0000
0010
0000
0010
1000
0001
,  // measure 22
0100
0020
0000
0030
0010
1010
0000
0010
,  // measure 23
1000
0001
0100
0010
1000
0001
0100
0010
,  // measure 24
0100
0010
1000
0000
0010
0000
0010
0010
,  // measure 25
0000
0100
0110
0000
0010
0100
0000
0001
,  // measure 26
1000
0001
0000
1000
0100
0010
0000
0100
,  // measure 27
0010
0001
0010
0000
0100
1000
0000
0100
,  // measure 28
0000
0001
0000
0100
0000
1000
0000
0010
,  // measure 29
1000
0010
0100
0000
0001
0100
0000
1000
,  // measure 30
0000
0100
0000
0001
0000
0010
0000
0100
,  // measure 31
0010
0100
1000
0000
0100
0100
0000
0010
,  // measure 32
0001
0011
0000
0010
0000
0200
0000
0000
,  // measure 33
0310
0000
0011
0000
0001
0010
0000
1000
,  // measure 34
0000
0010
0000
0010
0001
1000
0000
0010
,  // measure 35
0001
1000
0110
0000
0010
0100
0000
0010
,  // measure 36
0000
1000
0100
0010
0000
0010
0000
0001
,  // measure 37
0010
0001
0010
0000
0001
1000
0000
0100
,  // measure 38
0010
0011
0000
0100
0010
1000
0000
0100
,  // measure 39
0010
0100
0010
0000
0001
0100
0000
0001
,  // measure 40
0000
1001
0000
0100
0000
0010
0000
0100
,  // measure 41
0010
0200
0000
0300
0000
0010
1000
0100
,  // measure 42
1000
0020
0000
0130
0000
0100
0001
0100
,  // measure 43
0010
0200
0000
0300
0000
0001
0010
0100
,  // measure 44
1000
0020
0000
0030
1000
0100
0010
0100
,  // measure 45
0010
0000
0002
0000
0000
0000
0003
1000
0100
0000
1000
0000
1000
0000
0010
0000
,  // measure 46
0100
0010
0000
0100
0010
0100
0010
0000
,  // measure 47
0110
0110
0000
0010
1000
0001
0100
0010
,  // measure 48
1000
0010
0000
0100
0000
0200
0300
0010
,  // measure 49
0000
0100
0002
0000
0103
0200
0000
0301
,  // measure 50
0002
0000
1003
2000
0000
3000
0010
0100
,  // measure 51
0010
0110
0000
0000
0000
0000
0000
0000
;

//---------------dance-single - ----------------
#NOTES:
     dance-single:
     :
     Hard:
     12:
     0.532570,0.587620,0.189897,0.209887,0.244868,373.000000,354.000000,19.000000,21.000000,0.000000,0.000000,0.532570,0.587620,0.189897,0.209887,0.244868,373.000000,354.000000,19.000000,21.000000,0.000000,0.000000:
0000
0000
0000
0000
,
0000
0000
0001
0010
0100
1000
0001
0010
,
0000
0010
0001
0001
0000
0010
0100
0100
,
0000
0010
0100
0000
0010
0000
0100
0000
0010
0001
0020
0000
0000
0000
0030
0000
,
1000
0001
2000
0000
0000
0000
3000
0000
0010
0000
0110
0000
0000
0000
0001
0000
,
1000
0101
0101
0001
0010
0100
0010
0001
,
0000
1000
0010
0000
0000
0100
0010
0000
0000
0100
0001
0000
0000
0000
0101
0000
,
0000
0000
0011
0000
0000
0000
0000
0000
0100
0010
0200
0000
0000
0000
0300
0000
,
0001
1000
0002
0000
0000
0000
1003
0000
0001
1000
0020
0000
0000
0000
0130
0000
,
0010
0100
0020
0000
0000
0000
0030
0000
1000
0000
1000
0000
0010
0100
0010
0000
,
0100
0001
0000
1000
0010
0100
0000
0100
,
0000
0010
0100
0000
0000
0010
0100
0000
0001
0000
0000
0000
0001
0000
1000
0010
,
0100
0020
0030
0200
0300
0000
0010
0010
,
0100
0000
0100
0010
0100
0000
0000
0000
1000
0000
0001
0000
0010
0001
0010
0000
,
0100
1000
0100
0000
0000
0000
0010
0000
0010
0000
0001
0000
0000
0000
0100
0000
,
0100
1000
0000
0001
0010
0010
0000
1000
,
0100
0000
0100
0000
0000
0010
0000
0000
0001
0000
0000
0000
0010
0100
0010
0000
,
0000
0000
0000
0000
0200
0000
0000
0000
0300
0000
0001
1000
0001
0000
1000
0000
,
0001
1000
0001
0000
0000
0000
0001
0000
0100
0000
0010
0000
0100
0000
0001
0000
,
1000
0100
1000
0000
0000
0000
0010
0000
0100
0000
0010
0000
0100
0001
0100
0000
,
0000
0001
0100
0000
0000
0001
0100
0000
0000
0000
0000
0000
0100
0000
0010
0000
,
0100
0000
0110
0000
0000
0100
0010
0000
0000
0000
0010
0000
0010
0000
0010
0000
,
0100
0020
0000
0030
1000
1100
0000
0010
,
1000
1010
0000
0010
0100
0010
0100
0001
,
0100
0000
0010
0000
1000
0000
0000
0000
0010
0100
0010
0000
0100
0000
0010
0000
,
0000
0100
0010
0000
0110
0000
0000
0000
0010
0000
0100
0000
0000
0000
0010
0000
,
1000
0200
0300
1000
0010
1000
0000
0010
,
0100
0000
0001
0010
0001
0000
0000
0000
0100
0000
0010
0000
0000
0000
0100
0000
,
1000
0100
0000
0001
0100
0001
0000
0010
,
1000
0000
0010
0000
0011
0000
0000
0000
0001
0000
0100
0000
0010
0100
0010
0000
,
0100
0000
0001
0000
0001
0000
1000
0000
1000
0010
0100
0000
0010
0000
0100
0000
,
0010
0000
0110
0000
0100
0000
0000
0000
0100
0000
0010
0100
0010
0000
0100
0000
,
0001
0010
0001
0000
0000
0010
0100
0000
1000
0100
1000
0000
0010
0000
0100
0010
,
0100
0000
1001
0000
0001
0010
0001
0010
,
0001
0020
0000
0001
0000
1000
0030
0001
,
0010
2000
0000
0010
0000
0001
3000
0010
,
0001
0011
0000
0010
0100
0010
0000
0100
,
1000
0000
0010
0000
0001
0000
0000
0000
0010
0000
1000
0000
0100
0000
0010
0001
,
0010
0002
0000
0100
0000
1000
0003
0100
,
0010
0010
0110
0000
0001
0100
1000
0001
,
0010
0000
1000
0000
0000
0000
0100
0010
0100
0000
0010
0000
0001
0010
0001
0010
,
0001
0000
1000
0100
1000
0000
0000
0000
0010
0000
0010
0000
1000
0000
0100
0000
,
1000
0100
2000
0000
0000
0000
3100
0000
0010
0000
0100
0000
0010
0000
0001
0000
,
1000
0200
0000
0310
0100
1000
0010
0100
,
0001
2000
0000
3001
1000
0100
0010
0100
,
0010
0002
0000
1003
0100
1000
0000
0010
,
0100
0110
0000
0100
0100
0010
0010
0000
,
0110
1001
0000
0010
1000
0100
0100
1000
,
0010
0000
0010
0000
0000
0100
0010
0000
0000
0010
0100
0000
0000
0100
0010
0000
,
0000
0000
0100
0000
0001
0000
1000
0001
1000
0000
0002
0000
1003
0100
1000
0000
,
0020
0000
0130
0001
0100
0000
0020
0000
1030
0100
0010
0000
0001
0000
0100
0000
,
0110
1001
0000
0000
0000
0000
0000
0000
;
