#VERSION:0.83;
#TITLE:Makizushi sentai umaiyan ~codename wa green~;
#SUBTITLE:;
#ARTIST:Nanashi;
#TITLETRANSLIT:;
#SUBTITLETRANSLIT:;
#ARTISTTRANSLIT:;
#GENRE:;
#ORIGIN:;
#CREDIT:;
#BANNER:;
#BACKGROUND:;
#PREVIEWVID:;
#JACKET:;
#CDIMAGE:;
#DISCIMAGE:;
#LYRICSPATH:;
#CDTITLE:;
#MUSIC:Makizushi_sentai_umaiyan_~codename_wa_green~.ogg;
#OFFSET:-0.155000;
#SAMPLESTART:47.679001;
#SAMPLELENGTH:16.100000;
#SELECTABLE:YES;
#BPMS:0.000=172.000;
#STOPS:;
#DELAYS:;
#WARPS:;
#TIMESIGNATURES:0.000=4=4;
#TICKCOUNTS:0.000=4;
#COMBOS:0.000=1;
#SPEEDS:0.000=1.000=0.000=0;
#SCROLLS:0.000=1.000;
#FAKES:;
#LABELS:0.000=Song Start;
#BGCHANGES:;
#KEYSOUNDS:;
#ATTACKS:
;

//---------------dance-single - ----------------
#NOTEDATA:;
#CHARTNAME:;
#STEPSTYPE:dance-single;
#DESCRIPTION:;
#CHARTSTYLE:;
#DIFFICULTY:Beginner;
#METER:2;
#RADARVALUES:0.085498,0.171402,0.060606,0.045455,0.000000,79.000000,71.000000,8.000000,6.000000,0.000000,0.000000,0.000000,0.000000,0.000000,0.085498,0.171402,0.060606,0.045455,0.000000,79.000000,71.000000,8.000000,6.000000,0.000000,0.000000,0.000000,0.000000,0.000000;
#CREDIT:;
#NOTES:
0000
0000
0000
0000
,
0000
0000
0000
0000
,
0000
0001
0000
0000
,
0000
0000
0000
0000
,
0000
1000
0000
0000
,
0000
0000
0000
0000
,
0000
0010
0000
0000
,
0000
0000
0000
0000
,
0000
1000
0000
0000
,
0000
0000
0000
0000
,
0000
0001
0000
0000
,
0000
0000
0000
0000
,
0000
1000
0000
0000
,
0000
0000
0000
0000
,
0000
0010
0000
0000
,
0000
0010
0000
0000
,
0000
0010
0000
0000
,
0000
0010
0000
0000
,
0000
0000
0000
0000
,
0000
1000
0000
0000
,
0000
0000
0000
0000
,
0000
0001
0000
0000
,
0000
1000
0000
0000
,
0000
0000
0000
0000
,
0000
0110
0000
0000
,
0000
0000
0000
0000
,
0000
0001
0000
0001
,
0000
0000
0000
0000
,
0000
1000
0000
0000
,
0000
1000
0000
0000
,
0000
0100
0000
0000
,
0000
0000
0000
0000
,
0000
0010
0000
0000
,
0000
0001
0000
0000
,
0000
1000
0000
0000
,
0000
0000
0000
0000
,
0000
0110
0000
0000
,
0000
0000
0000
0000
,
0000
0001
0000
0000
,
0000
0100
0000
0000
,
0000
0001
0000
0000
,
0000
1000
0000
0000
,
0000
1000
0000
0000
,
0000
1000
0000
0000
,
0000
1000
0000
1000
,
0000
0000
0000
0000
,
0000
0001
0000
0001
,
0000
0000
0000
0000
,
0000
0100
0000
0000
,
0000
0010
0000
0000
,
0000
0000
0000
0000
,
0000
2000
0000
0000
,
3000
0000
0000
0000
,
0000
0002
0000
0000
,
0003
0000
0000
0000
,
0000
1000
0000
1000
,
0000
1000
0000
0000
,
0000
0001
0000
0001
,
0000
0001
0000
0000
,
0000
0000
0000
0000
,
0000
0100
0000
0100
,
0000
0000
0000
0000
,
0000
0010
0000
0000
,
0000
0000
0000
0000
,
0000
2000
0000
0000
,
3000
0000
0000
0000
,
0000
0002
0000
0000
,
0003
0000
0000
0000
,
0000
0100
0000
0010
,
0000
0100
0000
0000
,
0000
0010
0000
0000
,
0000
0010
0000
0000
,
0000
0100
0000
0010
,
0000
0100
0000
0000
,
0000
0010
0000
0100
,
0000
0010
0000
0000
,
0000
1000
0000
0000
,
0000
0000
0000
0000
,
0000
0001
0000
0000
,
0000
2000
0000
0000
,
3000
0000
0000
0000
,
0000
1001
0000
0000
,
0000
1001
0000
0000
,
0000
1000
0000
0000
,
0000
1001
0000
0000
,
0000
1001
0000
0000
,
0000
0001
0000
0000
,
0000
1001
0000
0000
,
0000
0101
0000
0000
,
0000
0002
0000
0000
,
0000
0000
0003
0000
;

//---------------dance-single - ----------------
#NOTEDATA:;
#CHARTNAME:;
#STEPSTYPE:dance-single;
#DESCRIPTION:;
#CHARTSTYLE:;
#DIFFICULTY:Easy;
#METER:6;
#RADARVALUES:0.272727,0.411364,0.166667,0.204545,0.000000,252.000000,230.000000,22.000000,27.000000,0.000000,0.000000,0.000000,0.000000,0.000000,0.272727,0.411364,0.166667,0.204545,0.000000,252.000000,230.000000,22.000000,27.000000,0.000000,0.000000,0.000000,0.000000,0.000000;
#CREDIT:;
#NOTES:
0000
0000
0000
0000
,
0000
0200
0000
0300
,
0000
0010
1000
0000
,
0100
0000
0010
0000
,
0001
1001
0000
1000
,
0000
0100
0000
0000
0000
0010
0000
0000
,
0000
0001
1000
0010
,
0000
1000
0100
0010
,
0000
0010
0001
1000
,
0000
0001
0000
0000
0000
1000
0000
0000
,
0000
0001
0000
0000
0000
0000
0001
0000
,
0000
1000
0000
0000
0000
0000
1000
0000
,
0000
0010
0000
0000
0000
0000
0010
0000
,
0000
0100
0010
1000
,
0001
0000
1000
0100
,
1000
0100
0010
0001
,
0000
0001
0010
0100
,
1000
0001
0100
0001
,
1000
0000
0010
0010
,
0000
0100
0000
0000
0010
0000
0100
0000
,
0000
0001
0000
0000
1000
0000
0001
0000
,
1000
0000
0001
0000
0000
1000
0000
0000
,
0000
2002
0000
0000
0000
3003
0000
0000
,
0000
0220
0000
0000
0000
0000
0000
0330
,
0000
1000
0001
0100
,
0000
0010
0000
0000
0000
0000
0000
0000
,
0000
1000
1000
0000
,
0000
1001
0000
0000
0000
0000
0000
0000
,
0000
0101
0000
0000
0000
0000
0000
0000
,
0001
0001
0000
0100
,
0000
0020
0000
0000
0030
0000
1000
0000
,
0100
0010
0100
1000
,
0000
0001
0100
0001
,
0010
0001
0000
0000
,
0000
2000
0000
0000
0001
3000
0000
0000
,
0001
0100
0010
1000
,
0000
0002
0000
0000
0100
0003
0000
0000
,
0010
1000
0001
0000
,
0000
2000
0000
0000
0010
3000
0010
0000
,
0000
0200
0000
0000
0000
0302
0000
0000
,
0000
2003
0000
0000
0000
3000
0001
0000
,
0000
0000
0100
0000
0000
0010
0000
0000
,
0000
0110
0000
0000
0000
0000
0100
0000
,
0010
0100
0001
1000
,
0000
0001
0000
0000
1000
0000
0001
0000
,
1000
0001
0000
0100
,
0000
0020
0000
0000
0000
2030
0000
0000
,
0000
3002
0000
0000
0000
0103
0000
0000
,
0000
0010
0000
0000
0100
0000
0100
0000
,
0000
0110
0000
0010
,
1000
0001
0000
1000
,
0010
1010
0000
0100
,
0001
0101
0000
0010
,
1000
0100
0001
0100
,
1000
0100
0001
0100
,
1000
0100
0010
0001
,
0100
0000
0010
0000
,
1000
1001
0001
0001
,
0100
0100
0010
0010
,
0000
0100
0000
0000
0000
0010
0000
0000
,
0000
1000
0000
0000
0000
0001
0000
0000
,
0000
1001
0110
1001
,
0000
1001
0000
0000
0000
1001
0000
0000
,
0000
0110
0000
0000
0000
0000
0010
0000
,
0000
0200
0000
0000
0001
0300
0000
0000
,
0001
1000
0010
0100
,
0000
0002
0000
0000
1000
0003
0000
0000
,
1000
0010
0000
0100
,
0010
0000
0100
0000
,
0001
0000
0000
0000
,
0000
2000
0000
0000
0000
0000
3010
0000
,
0000
0000
0110
0000
0000
0110
0000
0000
,
0000
0200
0000
0000
0001
0300
0000
0000
,
0001
1000
0010
0000
,
0000
0020
0000
0000
1000
0030
0000
0000
,
0100
0010
0001
1000
,
0000
0002
0000
0000
0000
0003
0000
0000
,
0000
2200
0000
0000
0000
3300
0000
0000
,
0000
0012
0000
0000
0000
0003
1000
0000
,
0010
1000
0001
1000
,
0000
0000
0210
0000
0010
0000
0010
0300
,
0000
0010
1000
0001
,
0000
1000
0000
0000
0000
0001
0000
0000
,
0000
1000
0010
0100
,
0000
0001
0000
0000
0000
0011
0000
0000
,
0000
0001
1000
0001
,
0100
1000
0100
0001
,
0000
0100
0000
0010
,
0000
1000
0000
0001
0000
0100
0000
0001
,
0000
1000
0000
0000
0000
0002
0000
0003
,
0000
0200
0000
0300
0010
0000
0000
0000
;

//---------------dance-single - ----------------
#NOTEDATA:;
#CHARTNAME:;
#STEPSTYPE:dance-single;
#DESCRIPTION:;
#CHARTSTYLE:;
#DIFFICULTY:Medium;
#METER:10;
#RADARVALUES:0.469697,0.518466,0.287879,0.143939,0.000000,434.000000,396.000000,38.000000,19.000000,0.000000,0.000000,0.000000,0.000000,0.000000,0.469697,0.518466,0.287879,0.143939,0.000000,434.000000,396.000000,38.000000,19.000000,0.000000,0.000000,0.000000,0.000000,0.000000;
#CREDIT:;
#NOTES:
0000
0000
0000
0000
,
0000
0200
0000
0300
,
0110
0000
0010
1000
0001
1000
0000
0100
,
0000
0010
0000
0001
0010
0100
0000
0100
,
1000
1001
0100
1001
,
0000
0110
0000
1010
0000
0010
0000
1000
,
0000
0001
1000
0001
1000
0010
0000
1000
,
0000
0100
0000
0010
0001
1000
0000
1000
,
0010
0110
1001
1000
,
0001
0100
0000
0001
0100
0001
0000
0000
,
0000
0001
0000
1000
0010
0000
0100
0000
,
0000
1000
0000
0001
0100
0000
0010
0000
,
0000
0001
0000
1000
0010
0000
0100
0000
,
0001
0000
0100
0001
0100
0001
0000
1000
,
0000
0002
0000
1003
0000
0100
0010
0000
,
0001
0000
0100
0010
1000
0010
0100
0000
,
0000
0000
0101
0000
0010
0000
0100
0010
,
0100
0002
0000
0003
1000
0010
2000
0000
,
3000
0001
0000
0000
0100
0000
0010
0000
,
0000
1001
0000
0010
0100
0000
0010
0000
,
0000
1010
0000
1000
0100
0000
0010
0000
,
0100
0000
1000
0100
0010
0001
0000
0000
,
0000
2001
0000
0000
0001
3000
0001
0100
,
0000
0010
0100
0010
1000
0020
0000
0030
,
1000
0100
1000
0000
0001
0100
0010
1000
,
0100
0020
0000
0000
0000
0031
0000
0000
,
0000
0000
1000
0100
0100
0000
0000
0000
,
0010
0001
0000
0000
0011
0000
0000
0000
,
0000
0110
0000
1000
0010
0000
0100
0000
,
0001
0000
1000
0001
0000
0100
0000
0000
,
0000
0020
0000
0100
0130
0000
0010
1000
,
0001
0200
0000
0000
0310
0000
0000
1000
,
0001
1000
0001
0000
0100
0001
0100
0010
,
0000
0100
0000
0101
0000
1010
0000
1000
,
0000
0001
0000
0100
0001
0100
0001
0000
,
0001
1000
0000
1000
0000
0001
0000
0001
,
0000
1000
0000
0100
1000
0100
1000
0000
,
0001
1000
0000
0001
1000
0000
0000
0000
,
0001
0200
0000
0000
0310
0100
0000
0001
,
0000
1000
0000
1010
0000
2000
0000
3000
,
0000
0020
0000
0000
0000
0030
0100
0000
,
0100
0000
0100
0100
0000
0010
0000
0100
,
0000
0110
0000
0010
0100
0010
1000
0000
,
0010
1000
0000
0001
0000
1000
0000
0010
,
0000
0100
0000
0001
0100
0001
1000
0000
,
0000
1001
0000
1001
0000
1001
0000
0000
,
0001
0200
0000
0000
0310
1000
0000
0001
,
0000
0100
0000
0010
0100
0010
0000
1000
,
0001
1000
0000
0000
0010
0000
0100
0010
,
0100
0010
0100
0000
0001
0000
0010
0000
,
1000
0010
0001
1000
,
1000
0000
0001
0000
1000
0100
0000
0010
,
0000
0001
0000
1000
0000
0001
0000
0100
,
0001
0000
0110
0000
1000
0010
1000
0000
,
0001
0100
0000
0101
0000
0101
0000
0000
,
0000
0000
0010
0000
1000
0100
0000
0000
,
1000
0100
0000
0000
1000
0100
0000
0000
,
1000
0100
0010
0000
0001
0010
0100
0000
,
0000
1000
0000
0001
0010
0100
0000
0100
,
0000
1000
0000
0001
0100
0010
0100
0000
,
0010
0200
0000
0000
0310
0000
0000
1000
,
0100
0010
0001
0000
0001
0000
1001
0000
,
1000
0100
0000
1100
0000
1001
0000
0011
,
0000
0011
0000
0000
0000
0000
0000
0000
,
0000
0100
0000
0001
1000
0001
1000
0000
,
0001
0100
0000
1000
0000
0100
0000
0001
,
0000
1000
0000
0100
1000
0010
0100
0000
,
0001
1000
0000
1000
0010
0000
0000
0000
,
0100
0020
0000
0000
1030
0001
0000
0001
,
0000
1000
0000
0101
0000
0020
0000
0030
,
0000
2000
0000
0000
0000
3000
0010
0000
,
0010
0000
0100
0100
0000
0001
0000
0100
,
0000
1001
0000
0001
0010
0100
0010
0000
,
0010
0001
0000
0001
0000
1000
0000
1000
,
0000
0001
0000
1000
0010
0100
0001
0000
,
0000
0101
0000
0101
0000
0101
0000
0000
,
0000
0001
0000
0000
1000
0010
0000
0100
,
0000
0001
0000
1000
0010
0100
0000
0001
,
0010
0100
1000
0100
0010
0001
1000
0000
,
0001
0100
0001
0000
0000
0000
0000
0000
,
0000
2100
0000
3010
,
0010
0000
0101
0000
0001
0000
1000
0010
,
0000
0000
0010
1000
0000
0000
0001
0100
,
0001
1000
1100
0010
,
0000
0011
0000
0001
0000
0011
0000
0001
,
0000
0010
0000
0100
0000
1000
0000
0100
,
0000
0010
0000
0001
0000
1000
0000
0010
,
0100
0000
0001
1000
0001
0000
1000
0010
,
1000
0010
0000
0100
0010
0100
0000
0100
,
0010
0100
0000
0001
0100
0010
0000
0100
,
0000
0001
0000
0000
0020
0000
0000
0000
,
0000
0030
0000
0000
;

//---------------dance-single - from pop n music eclale----------------
#NOTEDATA:;
#CHARTNAME:;
#STEPSTYPE:dance-single;
#DESCRIPTION:from pop n music eclale;
#CHARTSTYLE:;
#DIFFICULTY:Hard;
#METER:15;
#RADARVALUES:0.681818,0.794981,0.250000,0.098485,0.257576,630.000000,597.000000,33.000000,13.000000,0.000000,0.000000,0.000000,0.000000,0.000000,0.681818,0.794981,0.250000,0.098485,0.257576,630.000000,597.000000,33.000000,13.000000,0.000000,0.000000,0.000000,0.000000,0.000000;
#CREDIT:;
#NOTES:
// measure 0
0000
0000
0000
0000
,  // measure 1
0000
0000
0000
0000
0100
0010
0100
0010
0100
0010
0100
0001
0010
0001
0010
0001
,  // measure 2
0010
0000
0001
1000
0100
0010
0000
0010
,  // measure 3
0001
1000
0000
0001
0100
0010
0000
1000
,  // measure 4
1100
0000
0000
0000
0001
0000
0000
0000
0100
0000
0010
0100
0010
0000
0000
0000
,  // measure 5
0100
0000
0010
0000
0000
0000
0110
0000
0000
0000
0011
0000
0000
0000
0001
0100
,  // measure 6
0001
0100
0001
0100
0010
0000
1000
0000
0100
0000
0010
0000
0000
0000
0010
0000
,  // measure 7
0001
1000
0000
0010
0100
0010
0000
0100
,  // measure 8
0001
0000
1000
0001
1000
0000
0000
0000
0001
0000
0010
0000
0001
0000
0010
0000
,  // measure 9
0100
0000
1000
0000
0000
0000
0001
0000
0010
0000
0100
0000
0000
0000
1000
0100
,  // measure 10
1000
0100
1000
0000
0000
0000
0001
0000
0100
0000
0000
0000
0101
0000
0000
0000
,  // measure 11
0000
1000
0000
0010
0100
0000
0010
0000
,  // measure 12
0010
0100
0000
0001
1000
0000
0100
0000
,  // measure 13
0010
0000
0001
1000
0000
0001
0000
1000
,  // measure 14
0000
1010
0000
1000
0100
0010
0001
0010
,  // measure 15
0000
0001
0010
0100
0001
0100
1000
0000
,  // measure 16
0000
0000
0110
0000
0010
0000
0100
0010
,  // measure 17
0110
0000
1001
0000
0000
0000
1000
0001
1000
0000
0001
0000
0101
0000
0001
0000
,  // measure 18
0100
0101
0000
0000
0001
0000
1000
0000
,  // measure 19
0100
0010
0000
0010
0001
0000
1000
0000
,  // measure 20
0100
0110
0000
0010
0001
0000
1000
0000
,  // measure 21
0001
0000
0100
0010
0100
1001
0000
1001
,  // measure 22
0100
0020
0000
1030
0001
0000
1000
0001
,  // measure 23
0100
0001
0100
0010
1000
0100
0000
0010
,  // measure 24
0001
0000
1000
0000
0001
0000
0000
0000
1000
0000
0010
0100
0001
0000
0000
0000
,  // measure 25
1000
0010
0000
0110
0010
0100
0000
0010
,  // measure 26
0000
1000
0001
0001
0101
0000
0001
0010
,  // measure 27
0100
0000
2000
0000
0000
0000
3100
0000
0010
0000
0000
0000
0001
0010
0001
0010
,  // measure 28
0100
1000
0000
0100
0010
0000
0001
0000
,  // measure 29
1000
0000
0000
0000
0100
0000
1000
0000
0010
0000
1000
0000
0001
0000
0100
0010
,  // measure 30
0100
0002
0000
0103
0010
0010
0100
0001
,  // measure 31
0001
2000
0000
3000
0001
0000
0000
0100
,  // measure 32
0010
0000
0100
0000
0001
0000
0000
0000
1000
0000
0001
0000
1000
0001
1000
0000
,  // measure 33
0001
0000
0100
0000
0000
0000
0110
0000
0000
0000
0100
0000
0010
0100
0010
0100
,  // measure 34
0010
1000
0000
0001
0100
0001
0010
0000
,  // measure 35
0100
1000
0000
0001
0010
0001
0000
1000
,  // measure 36
0010
1010
0000
0100
0001
0010
0100
0000
,  // measure 37
0100
0000
0010
0000
0000
0000
0001
0000
0010
0000
0001
0000
0000
0000
0010
0100
,  // measure 38
0010
0100
1000
0000
0000
0000
0001
0000
0100
0000
0010
0000
0000
0000
1000
0100
,  // measure 39
0010
0000
0001
0000
0000
0000
1000
0010
0100
0000
0001
0000
0000
0000
1000
0000
,  // measure 40
1000
0020
0000
0000
0130
0000
0100
0000
,  // measure 41
0010
1000
0001
1000
0000
0101
0000
0011
,  // measure 42
0000
0001
0000
0010
0100
0010
1000
0010
,  // measure 43
0001
0000
1000
0000
0000
0000
0001
0000
0010
0000
0001
0000
0000
0000
0010
0001
,  // measure 44
0010
0001
1000
0000
0000
0000
0001
0000
0010
0000
0100
0000
0010
0000
0000
0000
,  // measure 45
0010
0000
0001
0000
0000
0000
1010
0000
1000
0000
1010
0000
0000
0000
0100
0010
,  // measure 46
0100
0010
0100
0000
0000
0000
0000
0000
0001
0000
2000
0000
0000
0000
3001
0010
,  // measure 47
0001
0000
0100
0000
0000
0000
0010
0100
0010
0000
0100
0000
0000
0000
0001
0000
,  // measure 48
0010
0002
0000
0003
1000
0100
0010
0001
,  // measure 49
0010
0001
0010
0000
0001
0000
1000
0000
0010
0000
0100
0000
0001
0000
1000
0000
,  // measure 50
0000
0000
0001
0000
0000
0000
0000
0000
0000
0000
0000
0000
0100
0000
0010
0100
,  // measure 51
0010
0000
0100
0001
0010
0000
0000
0000
0001
0010
0001
0010
0001
0010
0001
0000
,  // measure 52
1000
0100
0000
0010
0001
1000
0000
0010
,  // measure 53
0100
0000
0000
0000
0010
1000
0010
0000
1000
0010
1000
0010
1000
0000
0001
0010
,  // measure 54
0001
0100
0001
0000
0000
0000
1100
0000
0001
0000
0010
0000
0100
1000
0100
1000
,  // measure 55
0100
0000
0010
0000
0001
0100
0000
0010
,  // measure 56
1000
0000
0001
0000
0000
0000
1000
0100
1000
0000
0010
0000
0000
0000
0100
0000
,  // measure 57
0010
0000
0101
0000
0101
0000
0000
0000
0001
0010
0001
0010
0001
0000
1000
0100
,  // measure 58
1000
0100
0010
0000
0000
0000
0001
0000
0100
0000
1001
0000
0000
0000
0010
0000
,  // measure 59
0100
0010
0100
0000
0000
0000
0010
0000
1000
0000
0010
0000
0001
0000
1000
0000
,  // measure 60
0100
0020
0000
0030
0100
0000
0000
0001
,  // measure 61
0100
0001
0100
0000
0010
0100
0010
0100
,  // measure 62
0001
0000
1001
0000
0000
0000
0110
0000
0000
0000
0011
0000
0000
0000
0001
1000
,  // measure 63
0100
0010
0001
0000
0000
0000
1000
0000
0100
0000
1000
0000
0010
0000
1000
0000
,  // measure 64
0100
0010
0000
0001
0100
0010
1000
0000
,  // measure 65
0001
1000
0000
0100
0001
0100
0000
0010
,  // measure 66
0001
0010
0000
0001
0010
0100
1000
0000
,  // measure 67
0100
0000
0110
0000
0000
0000
0010
0000
0001
0000
0010
0000
0000
0000
0100
1000
,  // measure 68
0100
1000
0010
0000
0000
0000
0100
0000
0010
0000
0200
0000
0000
0000
0301
0100
,  // measure 69
0001
0000
0100
0000
0000
0000
0010
1000
0010
0000
0100
0000
0000
0000
0001
0000
,  // measure 70
0001
0010
0000
0100
0100
1000
0001
0100
,  // measure 71
0001
0100
0010
0100
0000
0010
0000
0011
,  // measure 72
0000
1000
0000
0010
0100
0001
1000
0000
,  // measure 73
0100
0010
0000
0001
0000
0010
0100
1000
,  // measure 74
0000
0001
0000
0100
0010
0001
0010
0000
,  // measure 75
1000
0100
0000
0110
0000
0001
0010
0100
,  // measure 76
0010
0000
0100
0000
0000
0000
0000
0000
1000
0000
0200
0000
0000
0000
0310
0001
,  // measure 77
0010
0000
0001
0000
0000
0000
1000
0100
1000
0000
0010
0000
0000
0000
0100
0000
,  // measure 78
0010
0200
0000
0300
0010
0000
0010
0000
,  // measure 79
0100
0010
0100
0001
1000
0100
1000
0001
,  // measure 80
0000
0000
1000
0000
0001
0100
0001
0100
0001
0000
0100
0001
0100
0001
0100
0000
,  // measure 81
0101
0000
0001
1000
0100
0010
0000
0010
,  // measure 82
0001
1000
0000
0010
0100
0100
0001
0100
,  // measure 83
0100
0000
0000
0000
0101
0000
0000
0000
0001
0100
0001
0000
0100
0000
0020
0000
,  // measure 84
1000
0000
1030
0000
0000
0000
0001
0000
0000
0000
0100
0000
0010
0000
1000
0100
,  // measure 85
1000
0001
0010
0000
0001
0000
1000
0000
0001
0000
0100
0000
0000
0000
0010
0000
,  // measure 86
0100
0010
0000
0100
0000
0010
0000
1000
,  // measure 87
0001
0000
1000
0100
0010
0000
0001
0000
1000
0000
0001
0100
0001
0000
1000
0010
,  // measure 88
1000
0001
0000
1000
0010
0100
0000
0001
,  // measure 89
0010
0100
0000
1000
0010
0100
0000
0001
,  // measure 90
0000
0100
0000
0010
0200
0000
0000
0000
,  // measure 91
0000
0300
0000
0000
;
