#TITLE:ME-GA-NE-HA-ZU-SE;
#SUBTITLE:;
#ARTIST:Akito Shigemori;
#TITLETRANSLIT:;
#SUBTITLETRANSLIT:;
#ARTISTTRANSLIT:;
#GENRE:;
#CREDIT:from pop n music eclale;
#BANNER:Ec_ME-GA-NE-HA-ZU-SE.png;
#BACKGROUND:;
#LYRICSPATH:;
#CDTITLE:;
#MUSIC:ME-GA-NE-HA-ZU-SE.ogg;
#OFFSET:-0.225000;
#SAMPLESTART:63.841000;
#SAMPLELENGTH:17.000000;
#SELECTABLE:YES;
#BPMS:0.000000=148.011002
;
#STOPS:
;
#BGCHANGES:;
#KEYSOUNDS:;
#ATTACKS:;

//---------------dance-single - ----------------
#NOTES:
     dance-single:
     :
     Beginner:
     2:
     0.082727,0.116231,0.049636,0.008273,0.000000,70.000000,64.000000,6.000000,1.000000,0.000000,0.000000,0.082727,0.116231,0.049636,0.008273,0.000000,70.000000,64.000000,6.000000,1.000000,0.000000,0.000000:
// measure 0
0000
0000
0000
0000
,  // measure 1
0000
0000
0000
0000
,  // measure 2
0000
0100
0000
0000
,  // measure 3
0000
0010
0000
0000
,  // measure 4
0000
1000
0000
0000
,  // measure 5
0000
0001
0000
0000
,  // measure 6
0000
1001
0000
0000
,  // measure 7
0000
1000
0000
0000
,  // measure 8
0000
1000
0000
0000
,  // measure 9
0000
0001
0000
0000
,  // measure 10
0000
1001
0000
0000
,  // measure 11
0000
0001
0000
0000
,  // measure 12
0000
0001
0000
0000
,  // measure 13
0000
1000
0000
0000
,  // measure 14
0000
0010
0000
0000
,  // measure 15
0000
0100
0000
0000
,  // measure 16
0000
0001
0000
0000
,  // measure 17
0000
1000
0000
0000
,  // measure 18
0000
0001
0000
0000
,  // measure 19
0000
0100
0000
0000
,  // measure 20
0000
0010
0000
0000
,  // measure 21
0000
0000
0000
0000
,  // measure 22
0000
1000
0000
0000
,  // measure 23
0000
0001
0000
0000
,  // measure 24
0000
1000
0000
0000
,  // measure 25
0000
0001
0000
0000
,  // measure 26
0000
1000
0000
1000
,  // measure 27
0000
0000
0000
0000
,  // measure 28
0000
0001
0000
0001
,  // measure 29
0000
0001
0000
0000
,  // measure 30
0000
1000
0000
0000
,  // measure 31
0000
0100
0000
0000
,  // measure 32
0000
1000
0000
0000
,  // measure 33
0000
0001
0000
0000
,  // measure 34
0000
0001
0000
0000
,  // measure 35
0000
0010
0000
0000
,  // measure 36
0000
0001
0000
0000
,  // measure 37
0000
0000
0000
0000
,  // measure 38
0000
0000
0000
0000
,  // measure 39
0000
0110
0000
0000
,  // measure 40
0000
0000
0000
0000
,  // measure 41
0000
0100
0000
0100
,  // measure 42
0000
0000
0000
0000
,  // measure 43
0000
0101
0000
0000
,  // measure 44
0000
0000
0000
0000
,  // measure 45
0000
0001
0000
0001
,  // measure 46
0000
0001
0000
0000
,  // measure 47
0000
1000
0000
0000
,  // measure 48
0000
0001
0000
0000
,  // measure 49
0000
1000
0000
0000
,  // measure 50
0000
0010
0000
0000
,  // measure 51
0000
0100
0000
0000
,  // measure 52
0000
0100
0000
0000
,  // measure 53
0000
0010
0000
0000
,  // measure 54
0000
0010
0000
0000
,  // measure 55
0000
1001
0000
0000
,  // measure 56
0000
0000
0000
0000
,  // measure 57
0000
1000
0000
1000
,  // measure 58
0000
0000
0000
0000
,  // measure 59
0000
1001
0000
0000
,  // measure 60
0000
0000
0000
0000
,  // measure 61
0000
0001
0000
0001
,  // measure 62
0000
0001
0000
0000
,  // measure 63
0000
1000
0000
0000
,  // measure 64
0000
0010
0000
0000
,  // measure 65
0000
1000
0000
0000
,  // measure 66
0000
0001
0000
0000
,  // measure 67
0000
0100
0000
0000
,  // measure 68
0000
0100
0000
0000
,  // measure 69
0000
0020
0000
0000
,  // measure 70
0000
0030
0000
0000
;

//---------------dance-single - ----------------
#NOTES:
     dance-single:
     :
     Easy:
     4:
     0.173726,0.234944,0.099272,0.057909,0.000000,147.000000,135.000000,12.000000,7.000000,0.000000,0.000000,0.173726,0.234944,0.099272,0.057909,0.000000,147.000000,135.000000,12.000000,7.000000,0.000000,0.000000:
0000
0000
0000
0000
,
0000
0000
0000
0000
,
0000
0100
0000
0110
,
0000
0010
0000
0000
,
0000
1001
0000
0001
,
0000
1001
0000
0000
,
0000
0100
0000
0010
,
0000
1000
0001
1000
,
0001
0100
0000
0010
,
0000
1000
0001
0100
,
0001
1000
0000
0001
,
0000
0100
0001
0100
,
0010
0100
0000
0001
,
0000
1000
1000
0002
,
0003
1000
0000
0010
,
0000
0100
0000
0000
,
0000
0001
0000
1000
,
0000
0001
0000
0000
,
0000
1000
0100
1000
,
0000
0001
0010
0001
,
0000
1000
0000
0100
,
0000
0010
0000
0001
,
0000
1000
0000
0100
,
0000
0100
0000
0000
,
0000
0100
0010
0001
,
0000
0001
0000
0000
,
0000
1000
0000
0010
,
0000
0100
0000
0000
,
0000
1001
0000
0000
,
0000
0000
0000
0000
,
0000
0100
0000
0010
,
0000
1000
0001
0100
,
0000
0001
0000
0001
,
0000
1000
0010
0100
,
0000
0010
0000
0010
,
0000
1000
0010
1000
,
0000
0001
0000
0000
,
0000
0200
0000
0300
,
0000
0000
0000
0010
,
0000
0110
0000
0010
,
0000
1000
0000
0000
,
0000
0001
0000
1000
,
0000
0001
1000
0001
,
0000
1001
0000
0010
,
0000
1000
0000
0010
,
0000
0100
0001
0100
,
0000
0001
1000
0001
,
0000
1001
0000
0010
,
0000
1000
0000
0100
,
0000
0010
0000
0001
,
0000
1000
0000
0000
,
0000
1100
0000
0000
,
0000
0000
0000
0000
,
0000
0011
0000
0000
,
0000
0001
0000
0001
,
1000
0001
0000
1000
,
0000
0020
0000
0030
,
0000
0100
0100
0100
,
0000
0001
1000
0001
,
0000
1000
0000
1000
,
0000
2000
0000
3000
,
0000
0001
0000
1000
,
0000
0001
0100
0001
,
0000
1001
0000
0100
,
0000
0110
0000
0010
,
0000
1000
0100
1000
,
0001
1000
0000
0000
,
0000
0101
0000
0001
,
0000
0200
0000
0320
,
0000
2030
0000
0000
,
0000
0000
0000
0000
,
3000
0000
0000
0000
;

//---------------dance-single - ----------------
#NOTES:
     dance-single:
     :
     Medium:
     8:
     0.328543,0.353036,0.140635,0.074454,0.000000,278.000000,261.000000,17.000000,9.000000,0.000000,0.000000,0.328543,0.353036,0.140635,0.074454,0.000000,278.000000,261.000000,17.000000,9.000000,0.000000,0.000000:
0000
0000
0000
0000
,
0000
0000
0000
0000
,
0000
0110
0010
0100
,
0001
1001
1000
0010
,
0100
1001
0001
0001
,
1000
0001
0000
0001
0000
0001
0000
0000
,
0000
0100
0010
1000
,
0001
0000
1000
0010
0100
0000
0001
0000
,
1000
0100
0010
0001
,
1001
0000
1000
0000
0001
0100
0001
0000
,
1000
1100
0100
0001
,
0100
0000
1000
0010
1000
0000
0001
0100
,
0001
0100
0010
1000
,
0010
0000
1000
0001
1000
0001
2000
0000
,
0000
0000
3001
0000
0100
0000
0010
0100
,
0000
0010
0000
1000
0000
0001
0100
0000
,
0001
1000
0000
0000
0000
0010
1000
0010
,
1000
0001
0000
1000
0000
0001
0000
1000
,
0001
0000
1000
0000
0100
1000
0100
1000
,
0000
0001
0000
1000
0000
0001
0000
1000
,
0000
0010
0000
0000
0000
0000
0100
0000
,
0010
2002
0000
3003
,
0000
0000
1000
0000
0010
0100
0010
0000
,
0100
0000
0001
0000
1000
0001
1000
0000
,
0100
0010
0001
1000
,
0001
0100
0002
0000
0000
0000
0003
0000
,
0000
1000
0010
0100
,
0010
0000
0101
0000
0000
1000
0000
0000
,
0001
2002
0000
0000
,
0000
3003
0000
0001
,
0100
0010
0100
0010
,
0000
1000
0001
1000
0001
1000
0000
0000
,
0000
0000
0001
0000
0100
0000
0010
0100
,
0010
0000
0000
1000
0010
1000
0001
0000
,
0000
0000
0100
0010
0100
0010
0100
0010
,
0100
0001
1000
0001
,
0100
0001
0000
1000
0000
0001
0000
0000
,
0100
0000
0010
0000
0100
0000
0010
0100
,
0000
0020
0000
0030
0000
0000
0100
0000
,
0000
0000
0110
0000
1000
0000
0001
1000
,
0001
1000
0001
0000
1000
0000
0000
0000
,
0001
0100
0000
1000
,
0100
0001
0000
1000
,
0001
1001
0000
0100
,
0010
1000
0010
1000
0010
0000
0000
0000
,
0000
0100
0001
0101
,
0000
0001
1000
0110
,
0000
0000
1000
0000
0001
0000
0100
0010
,
0100
0010
0100
0000
0000
0000
0010
0000
,
0000
0000
0100
0000
0010
0100
0010
0000
,
1000
1000
0000
0001
,
0001
1001
0000
0100
,
0010
0100
0000
0010
0100
0000
0001
0000
,
0000
0000
1000
0000
0001
0000
0100
0010
,
0100
0001
0000
1000
,
1000
1010
0000
1000
,
0100
0010
0001
0000
,
1000
0000
0100
0000
0100
1000
0100
0000
,
0000
0100
1000
0001
,
0000
0000
1001
0000
1000
0000
0010
0100
,
0010
0100
0010
0000
0000
0000
1000
0001
,
1000
0001
0100
0010
,
1000
0000
0001
0100
0001
0100
0001
0000
,
0000
1001
0001
0100
,
1000
0100
0001
0000
,
1000
1000
0100
0100
,
0010
0010
0001
0001
,
0000
1100
0000
0100
,
0010
0001
0000
1000
0001
0000
0200
0000
,
0000
0320
0000
0000
,
0000
0000
0000
0000
,
0000
0030
0000
0000
0000
0000
0000
0000
;

//---------------dance-single - ----------------
#NOTES:
     dance-single:
     :
     Hard:
     12:
     0.490451,0.589428,0.372270,0.140635,0.057909,415.000000,370.000000,45.000000,17.000000,0.000000,0.000000,0.490451,0.589428,0.372270,0.140635,0.057909,415.000000,370.000000,45.000000,17.000000,0.000000,0.000000:
0000
0000
0000
0000
,
0000
0000
0000
0100
,
0100
0000
0010
0000
1000
0001
0100
0000
,
0001
0100
0001
0000
1000
0000
0010
1000
,
0001
0000
1000
0100
0010
0001
1000
0000
,
1000
0001
0000
0001
0100
0001
0000
1000
,
0010
0000
0000
0000
0110
0000
0000
0000
0010
0000
0000
0000
1000
0000
0000
0001
,
0000
1000
1000
0010
0100
0001
0001
0100
,
1000
0000
0100
0000
0001
0000
0000
0000
1000
0000
0000
0000
0001
0000
0000
1000
,
0000
0010
1000
0001
1000
0010
0100
0010
,
1000
0000
0001
0000
1001
0000
0000
0000
0100
0000
0000
0000
0101
0000
0000
0001
,
0000
0000
1000
0000
0010
0000
0010
0000
1000
0000
0001
0100
0001
0000
0100
0000
,
0000
0000
0100
0000
0010
0000
0000
0000
1010
0000
0000
0000
1000
0000
0000
0010
,
0000
0100
0010
0100
0110
2002
0000
0000
,
0003
0000
3001
0000
0100
0000
0010
0100
,
0000
0001
0000
1000
0000
0001
1000
0000
,
0100
0010
0001
0000
0000
0010
0100
0010
,
0100
1000
0000
0001
0000
1000
0000
0001
,
0100
0000
1000
0000
1000
0100
0010
0001
,
0000
0001
0000
0010
0000
1001
0000
1000
,
0000
0010
0000
0000
0100
0000
0100
0010
,
0100
2000
0000
3002
,
0000
0003
1000
0000
0010
0100
0010
1000
,
0000
0001
0000
1000
0100
0001
0100
1000
,
0010
0100
0010
0000
1000
0001
0000
0001
,
0100
0002
0000
0000
1003
1000
0000
0010
,
0000
0100
0010
0000
0100
0000
0010
0000
,
1000
0000
0101
0000
0000
1000
0000
0000
,
0001
2000
0002
0000
0000
0000
0000
0000
,
0000
0000
3003
0000
0001
0000
0001
0010
,
0100
1000
0100
0000
0010
0000
0100
0000
0000
0000
0100
0000
0010
0000
0001
0000
,
0000
1000
0001
1000
0001
0100
0000
0000
,
0000
0000
1001
0000
0100
0010
1000
0100
,
0010
0001
0000
0001
0100
0010
0100
0000
,
0000
0000
0100
0010
1000
0010
0100
0001
,
0100
0000
0010
0000
1000
0000
0000
0000
0001
0000
0000
0100
0001
0000
1000
0000
,
0100
0020
0000
0031
1000
0001
1001
1000
,
0100
0010
0001
0000
0101
0000
1000
1010
,
0000
0200
0000
0000
0310
0000
0100
0010
,
1001
0000
0110
0000
1000
1001
0000
1000
,
0000
0101
0000
1010
0000
0000
0000
0010
,
0100
0010
1000
0000
0001
0100
0001
0010
,
0001
0100
0010
0010
1000
0002
0000
0000
,
0003
0000
1001
0000
0100
1010
0000
0001
,
0000
0101
0000
0110
0000
0000
1000
0010
,
0100
0001
1000
0001
0100
0001
1000
0001
,
1000
0010
0100
0010
0100
0200
0000
0000
,
0310
0000
0110
0000
1000
1010
0000
0001
,
0000
0101
0000
1010
0000
0000
0000
0001
,
0010
1000
0010
0001
0100
0001
0010
0001
,
1000
0000
0100
0000
0000
0000
1000
0010
0000
0000
0000
0000
0010
0000
0100
0000
,
0001
0000
1000
0000
1010
0000
0000
0010
0000
0000
0100
0000
0101
0000
0001
0000
,
1000
0000
0200
0000
0000
0000
0310
0000
0011
0000
0000
0000
0001
0000
0000
1000
,
0000
0010
0110
0000
0001
2000
3000
0010
,
0100
0002
0000
0003
1000
0000
0010
0000
,
0110
0000
1001
0000
0001
0011
0000
0100
,
0000
1000
0000
0100
0000
0000
0000
0010
,
0001
1000
0010
1000
1000
0001
0001
0100
,
0010
0000
0200
0300
0010
1000
0001
0100
,
0001
1000
1010
0000
0100
0110
0000
0001
,
0000
0100
0000
1010
0000
0000
0010
0100
,
0001
1000
0100
0010
0001
0001
1000
0010
,
0100
0000
0001
0000
1000
0000
1000
0000
0010
0000
0100
0000
0010
0100
0010
0000
,
0100
0010
0100
0000
0110
0000
0000
0000
1000
0000
1001
0000
0000
0000
0001
0000
,
0000
0100
0000
0010
0000
0000
0000
1000
,
0100
0010
0011
0001
1000
0001
0100
0010
,
1000
0000
0001
0000
0001
0000
0001
1000
0000
0000
0000
0000
0010
0000
0000
0000
,
0100
0000
0110
0000
0000
0000
0001
1000
,
0010
0000
1010
0000
0000
0000
0100
0000
0110
0000
0000
0000
0011
0000
0000
1010
,
0000
0011
0220
0000
0000
0000
0000
0000
,
0000
0000
0000
0000
,
0000
0330
0000
0000
;

//---------------dance-single - ----------------
#NOTES:
     dance-single:
     :
     Challenge:
     15:
     0.690177,0.795727,0.339179,0.148908,0.479815,584.000000,543.000000,41.000000,18.000000,0.000000,0.000000,0.690177,0.795727,0.339179,0.148908,0.479815,584.000000,543.000000,41.000000,18.000000,0.000000,0.000000:
0000
0000
0000
0000
,
0000
0000
0000
0000
0000
0000
0100
0010
,
0100
0000
0010
0000
0100
0010
0100
0000
0001
0000
1000
0000
0001
0100
0001
0000
,
1000
0000
0010
0000
0100
0001
0100
0000
0001
0000
0010
0000
0100
1000
0100
0000
,
0010
0000
0001
0010
0001
1000
0100
0000
0010
0000
0001
0000
0100
0010
0100
0000
,
0001
2000
0000
3020
0000
0230
0000
0310
,
0010
0000
0000
0000
1100
0000
0100
0000
0020
0000
0030
0000
0001
0000
1000
0001
,
0000
0000
1000
0100
1000
0100
0010
0001
1000
0000
0001
0100
0001
0100
0001
1000
,
0000
0001
1000
0000
0010
0000
0100
0010
0100
0000
0000
0010
1000
0010
1000
0001
,
0000
0001
1000
0000
1000
0100
0010
0001
1000
0100
1000
0200
0000
0000
0000
0000
,
0310
0000
0001
0000
0011
0000
0001
0000
2000
0000
3000
0000
0010
0000
0100
0010
,
0000
0000
1000
0001
0010
0001
0100
0010
1000
0000
1000
0001
1000
0001
1000
0001
,
0000
0100
0001
0000
1000
0000
0001
0100
0001
0000
0000
1000
0100
1000
0010
0100
,
0000
0100
0001
0000
1000
0000
1100
0000
0010
0000
0012
0000
0000
0000
1003
0010
,
1000
0010
0100
0000
0001
0000
0000
0000
1000
0000
0010
0000
0100
0000
0001
0010
,
0001
0000
1000
0100
1000
0000
0010
0000
0100
0000
0001
0010
0001
0000
1000
0100
,
1000
0010
0100
0001
1000
0001
0100
0001
,
0100
0000
0010
0100
0010
0000
1000
0001
1000
0001
1000
0000
0001
0000
0100
0000
,
0010
0100
0010
0000
1000
0000
0000
0000
0001
0000
0100
0000
0010
0000
1000
0100
,
1000
0000
0001
0010
0001
0000
0000
0000
1000
0000
0010
0000
0100
0000
0001
0000
,
1000
0100
0010
0000
0002
0003
2000
3000
,
0020
0230
0000
0010
0310
0010
0000
0200
,
0000
0300
0010
0000
1000
0001
0100
0001
,
0100
1000
0100
0001
1000
1000
0010
0100
,
0001
1000
0010
0100
,
0101
0000
0001
0000
1000
0010
0000
0100
,
0000
0000
0001
0100
1000
0000
0000
0000
0100
0000
0000
0000
0001
0000
0000
0000
,
1000
0000
0010
0000
0000
0100
0000
0000
,
0110
0220
0330
1000
0001
1001
0000
0001
,
0100
0000
1001
0000
0000
0000
1000
0000
0010
0100
0010
0100
0001
0000
1000
0100
,
1000
0100
0010
0001
1000
0000
0001
0000
0000
0000
0001
0000
1000
0000
0010
0000
,
0000
0010
1000
0001
0100
0010
0000
0010
,
0010
0000
0100
0010
0100
0000
0000
0000
0001
0000
1000
0010
1000
0000
0001
0000
,
0100
0010
0000
0010
1000
0001
0101
0000
,
0000
0000
0001
0010
0100
1000
0100
0010
,
0001
0000
0100
0000
0110
0000
0000
0000
0010
0000
1000
0000
0001
0000
0100
0001
,
0100
0101
0000
0110
0110
1100
0110
0011
,
0011
0101
1001
0000
1100
0000
0110
0101
,
0000
0002
0000
0003
1000
0000
0010
0100
,
0001
0000
1000
0001
1000
0000
0000
0000
0001
0000
0100
0000
0000
0000
0010
0000
,
1000
0100
0010
0000
0000
0000
0001
0000
0011
0000
0000
0000
0001
1000
0001
1000
,
0001
0000
0100
0000
0010
0000
1000
0100
1000
0100
1000
0001
0000
0000
0001
0100
,
0001
0000
1000
0000
0010
0100
0010
0000
0100
0000
0010
0000
0100
0010
0100
0000
,
0010
0100
0010
0000
0110
0000
0000
0000
0001
0000
1000
0000
0000
0000
0011
0000
,
0000
0000
1000
0000
0000
0000
0110
0000
0101
0000
0000
0000
0001
0100
0001
0100
,
0001
0000
1000
0000
0010
0000
0100
0010
0100
0001
0100
0001
0000
0000
0100
0010
,
1000
0000
0000
0000
0001
0000
0100
0010
0100
0000
0010
0100
0010
0000
1000
0001
,
1000
0000
0001
1000
0001
0000
0000
0000
1000
0000
0010
0000
0000
0000
0100
0000
,
0010
0100
0010
0000
0000
0000
0110
0000
1001
0000
0000
0000
0001
0000
1000
0000
,
0010
1000
0001
0100
0010
1000
0001
0100
,
0010
0000
0010
0000
0000
0000
0100
0010
0000
0000
0000
0000
0110
0000
0100
0000
,
1001
0000
0100
0000
1001
0000
0000
0001
0000
0000
1000
0100
0010
0000
0001
0000
,
0100
0000
0020
0000
0030
0000
0100
0000
0110
0000
0000
0000
0001
0000
1000
0100
,
1000
0000
0010
0000
0100
0000
0000
0000
0001
0000
1000
0000
0001
0100
0001
0100
,
0001
0000
0000
0000
1000
0000
0010
0000
1000
0000
0010
1000
0010
1000
0010
0100
,
0001
1000
0001
0100
0010
0000
0000
0000
1000
0000
0100
0000
0000
0000
0010
0000
,
0001
0010
0001
0000
0000
0000
1000
0000
0101
0000
0000
0000
0001
0100
0010
0100
,
0001
0000
0000
0000
1000
0000
0010
0100
0001
1000
0010
0100
0000
0000
0010
0100
,
0001
0000
0000
0000
1000
0000
0100
1000
0100
0000
1000
0100
1000
0000
0001
0010
,
0001
0010
0001
0000
2001
0000
0000
0000
0001
0000
0001
0000
0000
0000
0001
0000
,
0000
0001
0000
0010
3010
0000
0100
0001
,
1000
0000
0010
0000
0100
0000
0001
1000
0001
1000
0001
1000
0000
0000
0001
0100
,
0010
0000
1000
0000
0010
0000
0100
0010
0100
0000
0001
0100
0001
0000
1000
0010
,
1000
0010
1000
0000
1001
0000
0000
0000
0001
0000
0100
0000
0000
0000
0010
0000
,
0000
1000
0000
0101
1001
0000
0000
0100
,
0010
1000
0010
0100
0001
0001
1000
1000
,
0010
0000
0010
0000
0100
0000
0010
0100
0000
0000
0000
0000
0001
0000
1000
0001
,
1000
0000
0000
0000
1001
0000
0000
0000
0010
0100
0010
0100
0001
0000
1000
0000
,
0001
0000
1000
0000
0000
0000
0010
0000
0110
0000
0010
0100
0010
0000
0000
0100
,
0000
0001
2000
0000
0000
0000
0000
0000
,
0000
0000
0000
0000
,
0000
3000
0000
0000
;
