#VERSION:0.83;
#TITLE:Love Getter ~Purecul Lip~;
#SUBTITLE:;
#ARTIST:sei☆shin feat.MAI;
#TITLETRANSLIT:;
#SUBTITLETRANSLIT:;
#ARTISTTRANSLIT:sei shin feat.MAI;
#GENRE:;
#ORIGIN:;
#CREDIT:from pop n music 20;
#BANNER:20140805014846!20_MAGICAL_HEROINE.png;
#BACKGROUND:;
#PREVIEWVID:;
#JACKET:;
#CDIMAGE:;
#DISCIMAGE:;
#LYRICSPATH:;
#CDTITLE:;
#MUSIC:Love Getter ~Purecul Lip~.ogg;
#OFFSET:-0.039000;
#SAMPLESTART:68.901001;
#SAMPLELENGTH:16.000000;
#SELECTABLE:YES;
#BPMS:0.000=152.000;
#STOPS:;
#DELAYS:;
#WARPS:;
#TIMESIGNATURES:0.000=4=4;
#TICKCOUNTS:0.000=4;
#COMBOS:0.000=1;
#SPEEDS:0.000=1.000=0.000=0;
#SCROLLS:0.000=1.000;
#FAKES:;
#LABELS:0.000=Song Start;
#BGCHANGES:;
#KEYSOUNDS:;
#ATTACKS:
;

//---------------dance-single - ----------------
#NOTEDATA:;
#CHARTNAME:;
#STEPSTYPE:dance-single;
#DESCRIPTION:;
#CHARTSTYLE:;
#DIFFICULTY:Beginner;
#METER:4;
#RADARVALUES:0.155766,0.233710,0.059167,0.126787,0.000000,129.000000,122.000000,7.000000,15.000000,0.000000,0.000000,0.000000,0.000000,0.000000,0.155766,0.233710,0.059167,0.126787,0.000000,129.000000,122.000000,7.000000,15.000000,0.000000,0.000000,0.000000,0.000000,0.000000;
#CREDIT:;
#NOTES:
// measure 0
0000
0000
0000
0000
,  // measure 1
0000
0000
0000
0000
,  // measure 2
0000
0000
0000
0000
,  // measure 3
0000
0000
0000
0000
,  // measure 4
0000
0000
0000
0000
,  // measure 5
0000
0000
0000
0000
,  // measure 6
0000
0000
0000
0000
,  // measure 7
1000
0000
0001
0000
,  // measure 8
0100
0000
0010
0000
,  // measure 9
0100
0000
0001
0000
,  // measure 10
1000
0000
0001
0001
,  // measure 11
0001
0000
1000
0000
,  // measure 12
0020
0000
0000
0030
,  // measure 13
0100
0000
0010
0000
,  // measure 14
0100
0000
0000
0000
,  // measure 15
0110
0000
0001
0000
,  // measure 16
1000
0100
1000
0000
,  // measure 17
0010
0000
0100
0000
,  // measure 18
0001
0010
0001
0000
,  // measure 19
1001
0000
0100
0000
,  // measure 20
0010
0100
0001
0000
,  // measure 21
2000
0000
0000
3000
,  // measure 22
0002
0000
0000
0003
,  // measure 23
1000
0000
0001
0000
,  // measure 24
1001
0000
0000
0000
,  // measure 25
0100
0000
0010
0000
,  // measure 26
0100
0000
0000
0000
,  // measure 27
0001
0000
1000
0000
,  // measure 28
1000
0000
0001
0000
,  // measure 29
1001
0000
0100
0000
,  // measure 30
0010
0000
1010
0000
,  // measure 31
0002
0000
0000
0003
,  // measure 32
1000
0000
1000
0000
,  // measure 33
2000
0000
0000
3000
,  // measure 34
0001
0000
0011
0000
,  // measure 35
1100
0000
0000
0000
,  // measure 36
0010
0100
0010
0000
,  // measure 37
0100
0000
0010
0100
,  // measure 38
0010
0000
0010
0000
,  // measure 39
0100
0010
0100
0000
,  // measure 40
0010
0000
1000
0001
,  // measure 41
0001
0000
1000
0000
,  // measure 42
2000
0000
0000
3000
,  // measure 43
0002
0000
0000
0003
,  // measure 44
1000
0100
1000
0000
,  // measure 45
0010
0000
0000
0000
,  // measure 46
0100
0001
0100
0000
,  // measure 47
0010
0000
0010
0000
,  // measure 48
0100
0010
0100
0000
,  // measure 49
0001
0000
0000
0000
,  // measure 50
0002
0000
0000
0003
,  // measure 51
0200
0000
0000
0300
,  // measure 52
0010
0000
0010
0000
,  // measure 53
1000
1000
0001
0000
,  // measure 54
1000
0000
0001
0000
,  // measure 55
0100
0000
0100
0100
,  // measure 56
0100
0000
0001
0000
,  // measure 57
1000
0001
1000
0000
,  // measure 58
1000
0001
0100
0000
,  // measure 59
0020
0000
0000
0030
,  // measure 60
0200
0000
0000
0300
,  // measure 61
0001
0001
0001
0000
,  // measure 62
1000
1000
0001
0001
,  // measure 63
0002
0000
0000
0003
,  // measure 64
1000
0000
0010
0000
,  // measure 65
0100
0000
0001
0000
,  // measure 66
2000
0000
3002
0000
,  // measure 67
0203
0000
0000
0000
,  // measure 68
0000
0000
0000
0000
,  // measure 69
0300
0010
0000
0000
0000
0000
0000
0000
;

//---------------dance-single - ----------------
#NOTEDATA:;
#CHARTNAME:;
#STEPSTYPE:dance-single;
#DESCRIPTION:;
#CHARTSTYLE:;
#DIFFICULTY:Easy;
#METER:7;
#RADARVALUES:0.255988,0.360074,0.160596,0.270478,0.000000,212.000000,193.000000,19.000000,32.000000,0.000000,0.000000,0.000000,0.000000,0.000000,0.255988,0.360074,0.160596,0.270478,0.000000,212.000000,193.000000,19.000000,32.000000,0.000000,0.000000,0.000000,0.000000,0.000000;
#CREDIT:;
#NOTES:
0000
0000
0000
0000
,
0000
0000
0000
0000
,
0000
0000
0000
0000
,
0000
0000
0000
0000
,
0000
0000
0000
0000
,
0000
0000
0000
0000
,
0000
0000
0000
0000
,
0001
0000
1000
0000
,
0010
0000
0100
0000
,
0010
0000
1000
0000
,
0001
0000
1000
1000
,
1000
0000
0001
0000
,
0200
0000
0000
0300
,
0010
0000
0100
0000
0010
0000
0000
0100
,
0000
0100
0000
0000
0200
0000
0000
0000
,
0310
0000
1000
0000
,
0001
0010
0001
0000
,
0100
0000
0010
0000
,
1000
0100
1000
0000
,
1001
0001
0010
0000
,
0100
0000
0010
0000
1000
0000
0000
1000
,
0002
0000
1003
0100
,
0020
0230
0302
0003
,
1001
0000
0001
0010
,
1000
0010
0001
0000
,
1001
0100
0100
0010
,
0010
0000
0000
0000
1000
0001
1000
0000
,
1000
0100
0001
1000
,
0001
0000
1000
0000
,
0110
0000
0010
0100
,
0100
0000
0101
0000
,
2000
0010
0010
3010
,
0001
0001
0001
1000
,
0002
0100
0100
1003
,
1000
0000
1100
0000
,
0011
0000
1000
0010
,
0100
0010
1000
0000
,
0001
0100
0100
0010
,
0100
0000
0101
0010
,
0100
0000
0010
0000
,
0100
0100
0001
2000
,
3100
0002
0013
2000
,
3100
0002
0013
2000
,
3100
0000
0000
0100
0000
0000
0000
0000
,
0001
0000
0010
0000
0001
0000
1000
0010
,
1000
0000
1010
0000
0000
0000
0001
0100
,
0010
0000
1000
0000
0020
0000
0030
0100
,
0000
0100
0000
0010
0100
0000
0000
0000
,
0010
0000
0100
0000
0001
0000
1000
0100
,
1000
0000
1100
0000
0000
0000
0010
0100
,
1000
0000
0000
0000
0011
0000
0000
0202
,
0000
0303
0101
0110
,
0100
0000
0001
0000
1000
0000
0001
1000
,
0001
0000
1001
0000
0000
0000
1000
0100
,
0010
0000
0001
0000
0020
0000
0030
0001
,
0000
0010
0000
0001
0100
0000
0000
0000
,
0010
0000
0001
0000
1000
0000
0001
0100
,
0001
1000
0001
0000
,
2000
0000
3000
0000
0020
0000
0030
0200
,
0000
0000
0000
0300
,
0010
0100
0110
0000
,
1000
1000
1000
0100
,
0110
0000
1000
0100
,
2000
0000
3001
0100
,
0002
0000
0003
0000
0100
0000
0000
0022
,
0000
0033
0000
0022
0000
0033
0000
0000
,
0002
0000
0203
0000
0320
0000
0000
0130
,
0000
0100
0000
0000
0100
0000
0000
0100
,
0000
0020
0000
0030
,
0000
0200
0000
0000
0000
0000
0000
0000
,
0302
0000
0000
0000
,
0003
0000
0000
0000
;

//---------------dance-single - ----------------
#NOTEDATA:;
#CHARTNAME:;
#STEPSTYPE:dance-single;
#DESCRIPTION:;
#CHARTSTYLE:;
#DIFFICULTY:Medium;
#METER:10;
#RADARVALUES:0.403302,0.660136,0.304288,0.346550,0.076072,334.000000,298.000000,36.000000,41.000000,0.000000,0.000000,0.000000,0.000000,0.000000,0.403302,0.660136,0.304288,0.346550,0.076072,334.000000,298.000000,36.000000,41.000000,0.000000,0.000000,0.000000,0.000000,0.000000;
#CREDIT:;
#NOTES:
0000
0000
0000
0000
,
0000
0000
0000
0000
,
0000
0000
0000
0000
,
0000
0000
0000
0000
,
0000
0000
0000
0000
,
0000
0000
0000
0000
,
0000
0000
0000
0000
,
0001
0000
0100
0000
0001
0000
1000
0100
,
0010
0100
0010
0002
0000
0003
1000
0100
,
0220
0000
0330
0000
0002
0000
0003
1000
,
0000
0000
0001
1000
0001
0000
1000
0000
,
2100
0000
0000
0000
3001
0000
0100
0020
,
0000
0030
0100
0020
0000
0000
0000
0030
,
0100
0000
0010
0000
2002
0000
3003
0001
,
0000
0000
1001
0000
0000
1001
0000
0000
2002
0000
0000
0000
3003
0000
0000
0000
,
0010
0000
0000
0000
0100
0000
0001
0000
1000
0000
0000
0001
0000
0000
2000
0000
,
3000
0001
0100
0001
0100
0000
0010
0000
,
0110
0000
1000
0001
0010
0000
0100
0010
,
0001
1000
1100
0010
,
0011
0000
0000
0000
0001
0000
0000
0000
1000
0000
0000
0010
0000
0000
0200
0000
,
0300
0010
0100
0010
0100
0000
0001
2000
,
0000
3001
0011
0110
,
2000
3200
0320
0032
,
1003
0000
0000
0000
0010
0000
0100
0000
0001
0000
0000
1000
0000
0000
0100
0000
,
0000
1000
0010
1000
0100
0000
0010
0000
,
0011
1000
0100
0110
,
0001
1000
0001
0000
1000
0100
1000
0010
,
1000
0000
0000
0000
0010
0000
0010
0000
1000
0000
0000
0100
0000
0000
1000
0000
,
0000
1000
0100
0010
0001
0000
1000
0000
,
1010
0100
0010
0100
,
0001
0100
0001
0000
1000
0010
1000
0000
,
0001
0000
0010
0001
0010
0000
0100
0000
,
1100
0000
1000
0100
1000
0000
0010
0000
,
0100
0000
0000
0010
0000
0000
0100
0000
0000
0001
0000
0000
0100
0000
0000
0000
,
0020
0000
1030
0100
1000
0000
0001
0100
,
0100
0000
0010
0000
0100
0001
0100
0000
,
0010
0000
0100
0100
0001
0000
0010
0010
,
1000
0000
0010
0000
0100
0010
0100
0000
,
0010
0100
0010
0000
0200
0000
0301
0000
,
0200
0000
0300
0000
0010
0010
0010
0000
,
2000
0000
0001
0000
3010
0000
1000
0010
,
0100
0002
0010
0103
,
0010
0000
0000
0110
0000
0000
0110
0000
0000
0110
0000
0000
2002
0000
3003
0000
,
1001
0000
0000
0110
0000
0000
0110
0000
0000
0000
0000
0000
0000
0000
0000
0000
,
1000
0100
0010
0000
0001
0000
1000
0010
,
0100
0000
0001
0010
0100
0000
1000
0100
,
0010
0000
0001
0100
0001
0000
0000
2000
,
0000
3000
0100
0020
0000
0030
0001
0000
,
1000
0010
0100
0000
0001
0010
0100
0000
,
1000
0000
0010
0100
0010
0000
0100
0010
,
0110
0000
0000
0000
0011
0000
0000
1000
,
0000
0000
0001
0000
0000
1000
0000
0000
0001
0000
0000
0000
2000
0000
0000
0000
,
3001
0000
0100
0010
1000
0000
0001
0010
,
0100
0000
0010
0001
1000
0000
0010
0010
,
1000
0000
0001
0000
0100
0000
0000
0020
,
0000
0030
0100
0002
0000
0003
0100
0010
,
0100
0000
0010
1000
0001
0000
1000
0010
,
1000
0000
0001
0100
0010
0100
0001
0000
,
2000
0000
3000
0000
0202
0000
0303
0001
,
0000
0000
0100
0000
0000
0001
0000
0000
0100
0000
0000
0010
0000
0000
0000
0000
,
2000
0000
0010
0000
3001
0000
1000
0010
,
0100
0000
0010
0100
0010
0000
0010
1000
,
0100
0000
0010
0001
1000
0000
0100
1000
,
0002
0000
0100
0000
1003
0000
0010
0100
,
0002
0000
1000
0000
0103
0000
0010
0200
,
0000
0300
0100
0020
0000
0000
0000
0030
,
1000
0000
0001
0000
0200
0000
0300
0010
,
0000
0000
0101
0000
0000
0101
0000
0000
0101
0000
0000
0101
0000
0000
0110
0000
,
0000
0110
0000
0000
0110
0000
0000
1001
0000
0000
1001
0000
0000
1100
0000
0000
,
0000
2200
0000
0000
0000
0000
0000
0000
,
0000
0000
0000
0000
,
3300
0000
0000
0000
;

//---------------dance-single - ----------------
#NOTEDATA:;
#CHARTNAME:;
#STEPSTYPE:dance-single;
#DESCRIPTION:;
#CHARTSTYLE:;
#DIFFICULTY:Hard;
#METER:13;
#RADARVALUES:0.592878,0.660136,0.338098,0.312740,0.338098,491.000000,451.000000,40.000000,37.000000,0.000000,0.000000,0.000000,0.000000,0.000000,0.592878,0.660136,0.338098,0.312740,0.338098,491.000000,451.000000,40.000000,37.000000,0.000000,0.000000,0.000000,0.000000,0.000000;
#CREDIT:;
#NOTES:
0000
0000
0000
0000
,
0000
0000
0000
0000
,
0000
0000
0000
0000
,
0000
0000
0000
0000
,
0000
0000
0000
0000
,
0000
0000
0000
0000
,
0000
0000
0000
0000
,
0001
0000
0100
0010
1000
0000
0001
0010
,
0010
0100
1000
0001
0010
0000
0100
1000
,
0220
0000
0330
0000
0002
0000
1003
2000
,
0000
0000
0000
0000
3010
0000
0100
0000
0010
0000
0000
1000
0010
0000
1000
0000
,
0220
0000
0330
0000
0001
0000
1000
2200
,
3300
0000
0010
0000
0001
0000
0022
0000
0033
0000
0000
0000
0100
0010
0100
0010
,
0100
0000
0010
0000
2000
0000
0000
3001
,
0000
0000
0011
0000
0000
1001
0000
0000
0101
0000
0000
0101
0000
0000
0100
0000
,
0110
0000
0000
0000
0010
0000
1000
0000
0001
0000
0100
0001
0000
0000
1000
0000
,
0100
0000
0010
0000
0100
0000
0010
0001
0010
0000
0100
1000
0100
0000
0010
0000
,
0000
0001
1000
0100
0010
0100
1000
0010
,
0100
0010
0100
0000
0010
0100
0010
0000
0100
0001
0100
0000
0010
0000
0100
0000
,
1010
0000
1000
0000
0001
0000
1000
0001
0100
0000
0010
1000
0000
0000
0100
0000
,
0010
0000
0100
0000
1000
0000
0010
0100
0001
0000
1000
0000
0001
0000
2000
0000
,
0000
0100
3100
0010
0010
0001
0001
1000
,
0100
0010
0100
0000
0010
0001
0010
0000
0001
0010
0001
0000
0010
0100
0010
0000
,
0100
0000
1000
0000
0010
0000
0100
0000
0001
0000
1000
0001
0000
0000
0100
0000
,
0010
0000
1000
0000
0010
0000
1000
0010
0100
0000
0001
0010
0001
0000
0010
0000
,
0000
0100
0100
1000
0010
0000
0100
0010
,
0000
0000
0100
0000
0000
0000
0010
0000
1000
0000
0000
0100
1000
0000
0010
0000
,
0110
0000
0100
0000
0001
0000
0010
0000
0001
0000
0100
0001
0000
0000
1000
0000
,
0000
0000
1000
0000
0010
0000
0100
0000
0001
1000
0001
0000
0100
0010
0100
0000
,
0000
0000
0010
0000
0100
0000
0010
0000
0010
0000
1000
0000
0010
0000
0100
0001
,
0100
0000
0000
0000
0001
0000
1000
0000
0010
0000
0000
0100
0010
0000
1000
0000
,
1001
0000
0000
0000
0001
0000
1000
0000
0001
0000
0000
1000
0100
0000
0010
0000
,
0011
0000
0000
0000
0010
0000
1000
0000
0010
0000
0000
0001
0100
0000
0000
0000
,
0010
0100
0000
0010
0100
0000
0001
1000
0000
0001
1000
0000
0010
0000
0000
0000
,
0101
0000
0000
0000
0001
0000
0100
0000
1000
0000
0000
0100
0001
0000
0100
0000
,
0010
0000
1000
0010
0100
0010
0110
0000
,
0010
0000
0000
0100
0001
0000
0100
0000
0001
0000
1000
0010
0100
0000
0010
0000
,
0100
0000
0001
0000
0010
0000
0001
0000
0100
0000
0010
0100
0001
0000
1000
0000
,
1100
0000
0000
0000
0100
0000
0010
0000
0001
0000
0000
1000
0001
0000
0000
0000
,
0200
0000
0300
0020
0000
0030
0200
0000
0300
0000
0000
0000
0010
0000
0000
0000
,
2100
0000
0000
0000
0001
0000
0000
0000
3010
0000
0100
0010
0100
0000
0010
0000
,
0100
0000
0001
1000
0001
0000
0100
0000
0010
0000
1000
0000
0100
0000
0001
0000
,
0100
1000
0000
0100
0010
0000
0001
1000
0000
0100
0010
0000
0010
0001
0000
0000
,
0001
1000
0000
1000
0100
0000
0100
0010
0000
0000
0010
0000
0001
0000
1000
0000
,
0020
0000
0100
0000
0130
0000
0001
0000
1000
0000
0100
1000
0010
0000
0100
0001
,
0010
0000
0001
0000
1000
0000
0010
0000
0000
0000
0100
0000
0010
0000
0100
0010
,
0100
0000
0000
0000
0001
1000
0001
0000
1000
0000
0000
0000
0010
0000
2000
0000
,
0000
0000
3100
0000
0100
0000
0011
0000
0000
0000
0001
0010
0100
0000
1000
0000
,
0101
0000
0000
0000
0010
0000
0100
0000
0001
0000
1000
0010
0100
0000
0010
1000
,
0100
0010
0001
0100
0100
0000
0010
0100
,
1001
0000
0011
0000
2200
0000
3300
1000
,
0000
0000
0002
0000
0003
2000
0000
3000
0001
0100
0001
0000
1000
0000
0100
0000
,
0001
0000
0100
0000
1000
0000
0010
0100
0001
0000
1000
0001
1000
0000
0010
0000
,
0100
0010
0100
0001
0000
1000
0010
0100
,
1010
0000
0101
0010
0100
0000
0010
0200
,
0000
0000
0310
0000
0100
0000
0002
0000
0000
0003
1000
0001
1000
0000
0010
0000
,
0101
0000
0000
0000
0010
0000
1000
0000
0010
1000
0001
0000
1000
0000
1010
0000
,
0000
0000
0100
0010
0100
0000
0010
0100
0010
0100
0010
0000
1000
0000
0100
0000
,
2000
0000
3000
0000
0202
0000
0303
0010
,
0000
0000
0100
0000
0000
0010
0000
0000
0100
0000
0000
0010
0000
0000
0100
0000
,
0020
0000
1030
0001
0100
0010
1000
0010
,
0100
0000
0010
0100
0001
0000
0100
0000
0010
0000
0000
0000
0010
0000
1000
0100
,
0010
0000
0000
0000
0001
0000
1000
0001
2000
0000
0000
0000
3010
0000
1000
0000
,
0010
0000
0000
0000
0100
0000
0010
0000
0011
0000
0000
0010
0100
0000
0000
0000
,
2000
0000
0000
0000
3010
0100
0010
0000
0100
0000
0000
0000
0010
0000
0200
0000
,
0000
0000
0310
0000
0100
0000
0001
0010
0001
0010
0001
0000
1000
0100
1000
0000
,
0200
0000
0320
0030
0022
0000
0033
0001
,
0000
0000
0110
0000
0000
1001
0000
0000
1010
0000
0000
0101
0000
0000
0110
0000
,
0000
1010
0000
0000
0110
0000
0000
1001
0000
0000
1100
0000
0000
0110
0000
0000
,
0000
0022
0000
0000
0000
0000
0000
0000
,
0000
0000
0000
0000
,
0033
0000
0000
0000
;
