#VERSION:0.83;
#TITLE:Love Won't Leave Us Alone;
#SUBTITLE:;
#ARTIST:Lemar;
#TITLETRANSLIT:;
#SUBTITLETRANSLIT:;
#ARTISTTRANSLIT:;
#GENRE:;
#ORIGIN:;
#CREDIT:;
#BANNER:;
#BACKGROUND:;
#PREVIEWVID:;
#JACKET:;
#CDIMAGE:;
#DISCIMAGE:;
#LYRICSPATH:;
#CDTITLE:;
#MUSIC:Lemar - Love Won't Leave-Us-Alone-RnB.ogg;
#OFFSET:-0.185000;
#SAMPLESTART:46.257999;
#SAMPLELENGTH:17.799999;
#SELECTABLE:YES;
#BPMS:0.000=125.000;
#STOPS:;
#DELAYS:;
#WARPS:;
#TIMESIGNATURES:0.000=4=4;
#TICKCOUNTS:0.000=4;
#COMBOS:0.000=1;
#SPEEDS:0.000=1.000=0.000=0;
#SCROLLS:0.000=1.000;
#FAKES:;
#LABELS:0.000=Song Start;
#BGCHANGES:;
#KEYSOUNDS:;
#ATTACKS:
;

//---------------dance-single - ----------------
#NOTEDATA:;
#CHARTNAME:;
#STEPSTYPE:dance-single;
#DESCRIPTION:;
#CHARTSTYLE:;
#DIFFICULTY:Beginner;
#METER:3;
#RADARVALUES:0.110628,0.146167,0.000000,0.129066,0.000000,60.000000,60.000000,0.000000,10.000000,0.000000,0.000000,0.000000,0.000000,0.000000,0.110628,0.146167,0.000000,0.129066,0.000000,60.000000,60.000000,0.000000,10.000000,0.000000,0.000000,0.000000,0.000000,0.000000;
#CREDIT:;
#NOTES:
0000
0000
0000
0000
,
0000
0000
0000
0000
,
0000
0000
0000
2000
,
0000
0000
3000
0002
,
0000
0000
0003
1000
,
0000
0001
0000
0100
,
0000
0100
0000
0010
,
0000
1000
0000
0001
,
0000
0001
0000
1000
,
0000
0010
0000
0010
,
0000
0100
0000
0001
,
0000
1000
0000
0010
,
0000
0100
0000
0001
,
0000
0000
0000
1000
,
0000
0001
0000
0100
,
0000
0010
0000
0010
,
0000
0000
0000
2000
,
0000
0000
0000
3001
,
0000
1000
0000
0002
,
0000
0000
0000
1003
,
0000
0001
0000
0200
,
0000
0000
0000
0301
,
0000
1000
0000
0002
,
0000
0000
0000
0103
,
0000
0010
0000
1000
,
0000
1000
0000
0010
,
0000
0001
0000
0001
,
0000
0100
0000
0100
,
0000
0000
0000
0002
,
0000
0000
0000
1003
,
0000
0001
0000
2000
,
0000
0000
0000
3001
,
0000
0100
0000
0010
,
0000
0100
0100
0100
,
0000
0001
0000
1000
,
0000
0001
0001
0001
,
0000
2000
0000
3002
,
0000
0000
0000
0003
;

//---------------dance-single - ----------------
#NOTEDATA:;
#CHARTNAME:;
#STEPSTYPE:dance-single;
#DESCRIPTION:;
#CHARTSTYLE:;
#DIFFICULTY:Easy;
#METER:5;
#RADARVALUES:0.232318,0.341056,0.167785,0.103252,0.000000,126.000000,113.000000,13.000000,8.000000,0.000000,0.000000,0.000000,0.000000,0.000000,0.232318,0.341056,0.167785,0.103252,0.000000,126.000000,113.000000,13.000000,8.000000,0.000000,0.000000,0.000000,0.000000,0.000000;
#CREDIT:;
#NOTES:
0000
0000
0000
0000
,
0000
0000
0000
0000
,
0000
0000
0000
2000
,
0000
0000
0000
3002
,
0000
0000
1003
1001
,
0001
0100
0110
0010
,
1010
0001
0101
1000
,
1001
0001
1001
1000
,
0110
0001
1000
0001
,
0100
0001
0100
0010
,
1000
0001
0100
0010
,
1000
0001
0100
0001
,
0101
0001
1010
1000
,
0001
0100
0001
1000
,
0100
1000
0100
0010
,
0001
0010
0001
1000
,
0001
0100
0100
0020
,
0000
1000
0000
1030
,
0000
0001
0000
0200
,
0000
0001
0000
0301
,
0000
1000
0000
0010
,
0100
0100
0100
0001
,
1000
0001
1000
1001
,
0000
0001
0100
0001
,
1000
0010
1000
0002
,
0000
1003
0010
0100
,
0000
0100
0001
1000
,
0001
0001
1000
0001
,
0001
1000
0000
2001
,
0000
0001
0001
3001
,
0100
0010
0100
0020
,
0000
1000
1000
1030
,
0000
0001
0100
0010
,
0000
0100
0100
0110
,
0000
0001
0000
1000
,
0001
1000
0001
1001
,
0000
0001
1000
0002
,
0000
0000
0000
0003
;

//---------------dance-single - ----------------
#NOTEDATA:;
#CHARTNAME:;
#STEPSTYPE:dance-single;
#DESCRIPTION:;
#CHARTSTYLE:;
#DIFFICULTY:Medium;
#METER:7;
#RADARVALUES:0.322664,0.341056,0.180692,0.129066,0.032266,175.000000,161.000000,14.000000,10.000000,0.000000,0.000000,0.000000,0.000000,0.000000,0.322664,0.341056,0.180692,0.129066,0.032266,175.000000,161.000000,14.000000,10.000000,0.000000,0.000000,0.000000,0.000000,0.000000;
#CREDIT:;
#NOTES:
0000
0000
0000
0200
,
0000
0000
0000
0000
,
0310
0000
1000
0001
1000
0002
0000
0000
,
0000
1003
0000
2000
,
0000
3000
0010
0110
,
0100
0000
1001
0000
0001
0000
1000
0100
,
1000
0000
0001
0100
0001
0000
1001
0000
,
0100
0110
0010
2000
,
0001
3001
0101
0001
,
1000
0000
0100
0000
0010
0001
0000
1000
,
0000
0010
0100
0001
1000
0001
0000
0000
,
1000
0001
1000
0000
0001
0100
0000
0100
,
0000
0001
1000
0001
1000
0010
0000
0000
,
0100
0010
0100
0000
0001
1000
0000
0100
,
0000
0010
0001
0010
0100
1000
0000
0000
,
1001
0000
0110
0000
,
1000
0001
0000
0100
0000
0020
0100
0000
,
0000
0000
0000
0000
1030
0000
0000
1000
0000
0000
1000
0000
0000
0000
0000
0000
,
0001
0000
0100
0001
0100
0001
2000
0000
,
0000
0000
0000
0000
3010
0000
0000
0010
0000
0000
0010
0000
0000
0000
0000
0000
,
0000
0100
0000
0001
0000
1000
0001
0000
,
0100
0110
0010
1001
,
0001
0000
1000
0100
0010
0002
0000
0000
,
0000
0000
0000
0000
1003
0000
0000
1000
0000
0000
1000
0000
0000
0000
0000
0000
,
0001
0100
0001
1000
0010
0100
0010
0000
,
0110
0000
0001
1000
0001
1000
0000
0001
,
0000
1000
0000
0001
0000
0100
0000
0010
,
0100
0010
0000
1000
0000
0001
0000
1000
,
0001
1000
0000
0001
0000
0100
0020
0000
,
0000
0000
0000
0000
1030
0000
0000
1000
0000
0000
1000
0000
0000
0000
0000
0000
,
0001
0010
0001
1000
0100
0010
0001
0000
,
1001
0100
0110
0010
,
1000
0001
0100
0001
1000
0001
0200
0000
,
0000
0000
0000
0000
0310
0000
0000
0010
0000
0000
0010
0000
0000
0000
0000
0000
,
1000
0000
0001
0100
0001
0100
0010
0000
,
1010
0100
0101
0001
,
1000
0001
0000
1000
0000
0001
0200
0000
,
0000
0000
0000
0300
;

//---------------dance-single - ----------------
#NOTEDATA:;
#CHARTNAME:;
#STEPSTYPE:dance-single;
#DESCRIPTION:;
#CHARTSTYLE:;
#DIFFICULTY:Hard;
#METER:9;
#RADARVALUES:0.396416,0.414139,0.116159,0.141972,0.161332,215.000000,206.000000,9.000000,11.000000,0.000000,0.000000,0.000000,0.000000,0.000000,0.396416,0.414139,0.116159,0.141972,0.161332,215.000000,206.000000,9.000000,11.000000,0.000000,0.000000,0.000000,0.000000,0.000000;
#CREDIT:;
#NOTES:
// measure 0
0000
0000
0000
0200
,  // measure 1
0000
0000
0000
0010
,  // measure 2
0310
0000
1000
0001
1000
0010
0200
0000
,  // measure 3
0000
2300
0000
3200
,  // measure 4
0000
0000
0000
0000
0301
0000
0000
0000
0010
0000
0000
0000
0100
0000
0000
0010
,  // measure 5
0000
0000
0001
0000
1000
0000
0000
0001
0000
0000
1000
0000
0100
0000
0000
1000
,  // measure 6
0000
0000
0001
0000
0100
0000
0000
0001
0000
0000
1000
0000
1001
0000
0000
0001
,  // measure 7
0000
0000
0100
0000
0010
0000
0000
1000
0000
0000
0100
0000
0020
0000
0000
0031
,  // measure 8
0000
0000
0100
0000
0001
0000
0000
0100
0000
0000
0010
0000
1000
0000
0000
0000
,  // measure 9
0001
0000
0100
0000
0010
0100
0000
0001
,  // measure 10
0000
1000
0100
0010
0100
0010
0001
0000
,  // measure 11
1000
0001
0100
0000
0001
1000
0000
0001
,  // measure 12
0000
0000
0100
0010
0100
0000
0010
0000
1000
0000
0010
0000
1000
0000
0000
0000
,  // measure 13
0001
0100
0001
0000
1000
0001
0000
0100
,  // measure 14
0000
0000
0010
0000
0001
0000
0010
0000
0100
0000
0001
0000
1000
0000
0000
0001
,  // measure 15
1000
0000
0001
0000
0100
0000
0000
0001
1000
0000
0001
0000
0010
0000
0000
0001
,  // measure 16
0100
0010
0000
0100
0000
0020
0200
0000
,  // measure 17
0000
0000
0000
0330
,  // measure 18
0001
1000
0001
0100
0001
0100
0020
0000
,  // measure 19
0000
0000
1000
0000
1030
0000
0000
0001
0000
0000
0100
0000
0000
0000
0000
0000
,  // measure 20
0000
0010
0010
0100
0000
0010
1010
0000
,  // measure 21
0101
0000
0001
0000
0100
0000
0000
0001
1000
0000
0001
0000
0100
0000
0000
0000
,  // measure 22
0010
1000
0001
0100
0010
1000
0200
0000
,  // measure 23
0000
0000
0010
0000
0310
0000
0000
0001
0000
0000
1000
0000
0000
0000
0000
0000
,  // measure 24
0001
0100
0010
1000
0100
0001
0100
0000
,  // measure 25
1100
0000
1000
0000
0001
0000
0000
0100
0010
0000
0100
0000
0000
0000
0000
0000
,  // measure 26
0010
0000
1000
0000
0001
0000
0000
1000
0000
0000
0001
0000
1001
0000
0000
0000
,  // measure 27
0100
0000
0001
0000
0100
0000
0000
0010
1000
0000
0001
0000
0000
0000
0000
0000
,  // measure 28
0010
0000
0100
0000
1000
0000
0000
0001
0000
0000
0100
0000
0101
0000
0000
0000
,  // measure 29
0001
0000
1000
0000
0010
0000
0000
0100
0001
0000
1000
0000
0100
0000
0000
0000
,  // measure 30
0100
0000
0010
0000
0001
0000
0000
1000
0000
0000
0001
0000
1001
0000
0000
0000
,  // measure 31
1010
0000
0010
0000
0100
0000
0000
0001
0100
0000
0001
0000
0010
0000
0000
0000
,  // measure 32
0100
1000
0100
0010
0001
0100
0020
0000
,  // measure 33
1030
0000
0001
0000
1000
0000
0000
0010
0100
0000
0001
0000
0100
0000
0000
0000
,  // measure 34
0100
0000
0010
0000
1000
0000
0000
0001
0000
0000
0100
0000
0110
0000
0000
0000
,  // measure 35
1000
0000
0001
0000
0100
0000
0000
0001
0100
0000
0010
0000
0100
0000
0000
0000
,  // measure 36
0001
1000
0001
1000
0100
0010
0002
0000
,  // measure 37
0000
0000
0000
0003
;
