#VERSION:0.83;
#TITLE:Love Hearts;
#SUBTITLE:;
#ARTIST:Florrie;
#TITLETRANSLIT:;
#SUBTITLETRANSLIT:;
#ARTISTTRANSLIT:;
#GENRE:;
#ORIGIN:;
#CREDIT:;
#BANNER:;
#BACKGROUND:;
#PREVIEWVID:;
#JACKET:;
#CDIMAGE:;
#DISCIMAGE:;
#LYRICSPATH:;
#CDTITLE:;
#MUSIC:florrie - Love Hearts.ogg;
#OFFSET:-0.091000;
#SAMPLESTART:41.660999;
#SAMPLELENGTH:16.799999;
#SELECTABLE:YES;
#BPMS:0.000=150.017;
#STOPS:;
#DELAYS:;
#WARPS:;
#TIMESIGNATURES:0.000=4=4;
#TICKCOUNTS:0.000=4;
#COMBOS:0.000=1;
#SPEEDS:0.000=1.000=0.000=0;
#SCROLLS:0.000=1.000;
#FAKES:;
#LABELS:0.000=Song Start;
#BGCHANGES:;
#KEYSOUNDS:;
#ATTACKS:
;

//---------------dance-single - ----------------
#NOTEDATA:;
#CHARTNAME:;
#STEPSTYPE:dance-single;
#DESCRIPTION:;
#CHARTSTYLE:;
#DIFFICULTY:Beginner;
#METER:2;
#RADARVALUES:0.081510,0.121598,0.000000,0.046768,0.000000,61.000000,61.000000,0.000000,5.000000,0.000000,0.000000,0.000000,0.000000,0.000000,0.081510,0.121598,0.000000,0.046768,0.000000,61.000000,61.000000,0.000000,5.000000,0.000000,0.000000,0.000000,0.000000,0.000000;
#CREDIT:;
#NOTES:
0000
0000
0000
0000
,
0000
0000
0000
0000
,
0000
0000
0000
0000
,
0000
0000
0000
0000
,
1000
0000
0000
0000
,
0001
0000
0000
0000
,
0100
0000
0000
0000
,
0010
0000
0000
0000
,
1000
0000
0000
0000
,
0001
0000
0000
0000
,
0001
0000
0000
0000
,
1000
0000
0000
0000
,
0010
0000
0000
0000
,
0100
0000
0000
0000
,
0001
0000
0000
0000
,
1000
0000
0000
0000
,
0100
0000
0000
0000
,
0100
0000
0000
0000
,
1000
0000
0000
0000
,
0000
0000
0000
0000
,
0001
0000
0000
0000
,
0100
0000
0000
0000
,
0001
0000
0000
0000
,
1000
0000
0000
0000
,
0001
0000
0000
0000
,
0100
0000
0000
0000
,
0001
0000
0000
0000
,
1000
0000
0000
0000
,
0001
0000
0001
0000
,
0001
0000
0000
0000
,
0100
0000
0000
0000
,
0010
0000
0000
0000
,
1000
0000
1000
0000
,
1000
0000
0000
0000
,
0001
0000
0000
0000
,
1000
0000
0000
0000
,
0010
0000
0010
0000
,
0010
0000
0000
0000
,
0100
0000
0000
0000
,
0001
0000
0000
0000
,
0001
0000
0001
0000
,
0001
0000
0000
0000
,
1000
0000
0000
0000
,
0001
0000
0000
0000
,
1000
0000
0000
0000
,
0010
0000
0000
0000
,
1000
0000
0000
0000
,
0001
0000
0000
0000
,
0100
0000
0000
0000
,
0001
0000
0000
0000
,
2000
0000
0000
0000
,
3000
0000
0000
0000
,
0001
0000
0001
0000
,
0001
0000
0000
0000
,
0200
0000
0000
0000
,
0300
0000
0000
0000
,
0020
0000
0000
0000
,
0030
0000
0000
0000
,
1000
0000
0000
0000
,
0001
0000
0000
0000
,
0100
0000
0000
0000
,
0001
0000
0000
0000
,
2000
0000
0000
0000
,
3000
0000
0000
0000
,
0002
0000
0000
0000
,
0003
0000
0000
0000
;

//---------------dance-single - ----------------
#NOTEDATA:;
#CHARTNAME:;
#STEPSTYPE:dance-single;
#DESCRIPTION:;
#CHARTSTYLE:;
#DIFFICULTY:Easy;
#METER:3;
#RADARVALUES:0.142977,0.216070,0.037415,0.130951,0.000000,107.000000,103.000000,4.000000,14.000000,0.000000,0.000000,0.000000,0.000000,0.000000,0.142977,0.216070,0.037415,0.130951,0.000000,107.000000,103.000000,4.000000,14.000000,0.000000,0.000000,0.000000,0.000000,0.000000;
#CREDIT:;
#NOTES:
0000
0000
0000
0000
,
0000
0000
0000
0000
,
0000
0000
0000
0000
,
0100
0000
0010
0000
,
0100
0000
0000
0000
,
0010
0000
0100
0000
,
0010
0000
0000
0000
,
1000
0000
0001
0000
,
0100
0000
0000
0000
,
0100
0000
0001
0000
,
1000
0000
0000
0000
,
0010
0000
0010
0000
,
0010
0000
0100
0000
,
0010
0000
0010
0000
,
0010
0000
1000
0000
,
0001
0000
0001
0000
,
0001
0000
1000
0000
,
0100
0000
0100
0000
,
0100
0000
0000
0000
,
0010
0000
0000
0000
,
0001
0000
1000
0000
,
0001
0000
0000
0000
,
1000
0000
0010
0000
,
1000
0000
0000
0000
,
0001
0000
0100
0000
,
0001
0000
0000
0000
,
1001
0000
0001
0000
,
1000
0000
0001
0000
,
0100
0000
0100
0000
,
0100
0000
0001
0000
,
1000
0000
1000
0000
,
0001
0000
0100
0000
,
0100
0000
0010
0000
,
1000
0000
0001
0000
,
1001
0000
0001
0000
,
1000
0000
0100
0000
,
0010
0000
0100
0000
,
1000
0000
0001
0000
,
0001
0000
0010
0000
,
0100
0000
0010
0000
,
0001
0000
1000
0000
,
0001
0000
0001
0000
,
2000
0000
3010
0000
,
0002
0000
0103
0000
,
0010
0000
0100
0000
,
0001
0000
0000
0000
,
2000
0000
3001
0000
,
0200
0000
0310
0000
,
0001
0000
0100
0000
,
0001
0000
0000
0000
,
2000
0000
0000
0000
,
3001
0000
0100
0000
,
0010
0000
0010
0000
,
0100
0000
0000
0000
,
0002
0000
0000
0000
,
0103
0000
0001
0000
,
1000
0000
1000
0000
,
0001
0000
0101
0000
,
0202
0000
0000
0000
,
0303
0000
0000
0000
,
2000
0000
0000
0000
,
3002
0000
0000
0000
,
0203
0000
0000
0000
,
0320
0000
0000
0000
,
2030
0000
0000
0000
,
3002
0000
0000
0000
,
0003
0000
0000
0000
;

//---------------dance-single - ----------------
#NOTEDATA:;
#CHARTNAME:;
#STEPSTYPE:dance-single;
#DESCRIPTION:;
#CHARTSTYLE:;
#DIFFICULTY:Medium;
#METER:7;
#RADARVALUES:0.268584,0.339538,0.140305,0.177720,0.000000,201.000000,186.000000,15.000000,19.000000,0.000000,0.000000,0.000000,0.000000,0.000000,0.268584,0.339538,0.140305,0.177720,0.000000,201.000000,186.000000,15.000000,19.000000,0.000000,0.000000,0.000000,0.000000,0.000000;
#CREDIT:;
#NOTES:
0000
0000
0000
0000
,
0000
0000
0000
0000
,
0000
0000
0000
0100
,
0100
0000
0001
0001
,
1000
0000
1000
0001
,
0001
0000
0100
0010
,
1000
0000
0001
0100
,
0101
0000
0000
0010
1000
0000
0001
0000
,
1001
0000
0000
1000
0010
0000
0100
0000
,
0001
0100
1000
0100
,
0001
0000
0000
1000
0100
0000
0010
0000
,
0001
0000
0001
0100
,
0010
1000
0001
0100
,
0010
0100
0110
0010
,
1001
0000
0001
1000
,
0010
0000
0000
0010
0100
0000
0001
0000
,
1000
0001
0100
0000
,
0100
0001
1000
0010
,
0110
0000
0000
0100
,
0010
0000
0000
0000
,
1000
0000
0000
0001
0000
0000
0001
0000
,
1000
0000
0000
0000
,
0020
0000
1030
0001
,
1000
0000
0000
0000
,
0001
0000
0000
0100
0000
0000
0100
0000
,
0001
0000
0101
0000
,
1000
0010
0100
0001
,
1000
1000
0001
0010
,
0200
0000
0000
0000
1300
0000
0000
0100
,
0010
0001
0001
0000
,
1000
0100
0001
0100
,
1000
0000
0001
0100
,
0020
0000
0130
0000
,
0110
0000
1001
0000
,
0001
0100
0010
1000
,
0001
0100
0100
0010
,
2000
0000
3001
0000
,
0001
1000
0010
1000
,
0001
0100
0001
0100
,
1000
0000
0100
0001
,
1000
0000
1010
0000
,
0101
0000
1010
0000
,
0002
0000
0000
0000
1003
0001
0000
0000
,
2000
0000
0000
0000
3001
1000
0000
0000
,
0020
0000
0000
0000
0130
0010
0000
0100
,
0000
0000
0000
0000
0001
0100
0000
0000
,
0101
0000
0000
0000
1000
0010
0000
0000
,
1000
0000
0001
0000
0100
0001
0000
0000
,
1000
0000
0010
0000
0100
0010
0000
0000
,
0110
0000
0010
0000
1000
0001
0000
1000
,
0002
0000
0000
0000
0103
0010
0100
0000
,
0001
0000
0000
0000
1000
0001
1000
0000
,
0001
0001
0100
0100
,
0020
0000
0000
0000
0130
0010
0100
0000
,
0002
0000
0000
0000
1003
0001
1000
0000
,
0010
0000
0000
0000
0100
0010
0000
0000
,
0100
0010
0100
0000
0001
0000
1000
0000
,
1001
0000
0210
0000
,
0302
0000
0000
0000
,
2003
0000
0000
0000
,
3200
0000
0000
0000
,
0320
0000
0000
0000
,
0032
0000
0000
0000
,
0203
0000
0000
0000
,
0320
0000
0000
0000
,
2030
0000
0000
0000
,
3000
0000
0000
0000
;

//---------------dance-single - ----------------
#NOTEDATA:;
#CHARTNAME:;
#STEPSTYPE:dance-single;
#DESCRIPTION:;
#CHARTSTYLE:;
#DIFFICULTY:Hard;
#METER:9;
#RADARVALUES:0.371474,0.432139,0.074829,0.224488,0.000000,278.000000,270.000000,8.000000,24.000000,0.000000,0.000000,0.000000,0.000000,0.000000,0.371474,0.432139,0.074829,0.224488,0.000000,278.000000,270.000000,8.000000,24.000000,0.000000,0.000000,0.000000,0.000000,0.000000;
#CREDIT:;
#NOTES:
// measure 0
0000
0000
0000
0000
,  // measure 1
0000
0000
0000
0000
,  // measure 2
0000
0000
0000
0100
,  // measure 3
0001
0000
0000
0001
1000
0001
1000
0010
,  // measure 4
0000
0100
0000
0000
0000
0001
0010
0001
,  // measure 5
0010
0000
0100
1000
0001
0000
1000
0000
,  // measure 6
1001
0000
0001
0000
0100
0010
1000
0001
,  // measure 7
0000
0000
0000
1000
0100
0010
0001
0100
,  // measure 8
0000
0010
0000
0000
0000
1000
0100
1000
,  // measure 9
0000
0100
1000
0100
0000
1000
0000
0001
,  // measure 10
0100
0000
0010
0000
1000
0001
0100
0010
,  // measure 11
0000
0000
0000
0010
0100
0010
1000
0001
,  // measure 12
0000
1000
0000
0000
0101
0000
0100
0000
,  // measure 13
0010
0000
1000
0001
1000
0000
0001
0000
,  // measure 14
0101
0000
0000
0000
1000
0100
0010
0001
,  // measure 15
0000
0000
0000
0001
0100
0010
1000
0001
,  // measure 16
0000
1000
0000
0000
0001
0100
0010
1000
,  // measure 17
0000
1000
0010
1000
0000
0001
0000
0100
,  // measure 18
0010
0000
0000
0000
0000
0000
0100
0010
,  // measure 19
1000
0001
0100
0001
1000
0000
0000
0000
,  // measure 20
0001
0100
0010
0100
0001
1000
0001
0100
,  // measure 21
0010
0000
0000
0000
,  // measure 22
2000
0000
0000
0000
3001
0000
0001
0100
,  // measure 23
0010
0010
1000
0000
0000
0000
0000
0000
,  // measure 24
1000
0100
1000
0100
0010
0100
0010
0001
,  // measure 25
1000
0000
1001
0000
,  // measure 26
0110
0000
1000
0000
0001
0100
0001
0000
,  // measure 27
1000
0000
0010
0000
1000
0100
1000
0020
,  // measure 28
0000
0000
0130
0001
0100
0000
0010
0000
,  // measure 29
0100
0010
0100
0020
0000
2030
0000
3000
,  // measure 30
0001
0000
1000
0000
0001
0100
0010
0100
,  // measure 31
0000
0010
0000
0000
1000
0100
0010
0200
,  // measure 32
0000
0000
0310
0001
0010
0000
0001
1000
,  // measure 33
0000
0000
1000
0001
0000
0000
0100
0000
,  // measure 34
0110
0000
0010
0000
1000
0100
1000
0000
,  // measure 35
0001
0100
0001
0000
1000
0001
0010
0002
,  // measure 36
0000
0000
1003
0010
1000
0000
0001
0000
,  // measure 37
0100
0001
0100
0001
0001
1000
0000
0001
,  // measure 38
1000
0000
0010
0000
0100
0001
0100
0001
,  // measure 39
0000
1000
0000
0000
0001
0100
0010
1000
,  // measure 40
0002
0000
0000
0000
1003
0000
0010
0100
,  // measure 41
0000
0000
0010
0100
0000
0000
0001
0000
,  // measure 42
1001
0000
0100
0000
0010
0100
0001
0000
,  // measure 43
1000
0000
0000
0000
0001
0100
0000
0000
,  // measure 44
0001
0000
1000
0000
0001
0100
0000
0020
,  // measure 45
0000
0000
0030
0000
1000
0001
1000
0001
,  // measure 46
0200
0000
0300
0000
0001
1000
0001
0000
,  // measure 47
1000
0000
0100
0000
0010
0001
0000
0000
,  // measure 48
0001
0000
0000
0000
0001
1000
0000
0000
,  // measure 49
0110
0000
0000
0000
1000
0001
0100
0010
,  // measure 50
0100
0001
2000
0000
0010
0000
3001
0000
,  // measure 51
0020
0000
0000
0000
0130
1000
0000
0001
,  // measure 52
0100
0001
0100
0000
0010
0000
1000
0010
,  // measure 53
0200
0000
0000
0301
0100
0000
0010
1000
,  // measure 54
0001
0100
0002
0000
1000
0000
0103
0000
,  // measure 55
0020
0000
0000
0000
0031
1000
0001
0100
,  // measure 56
0001
1000
0020
0000
0130
0000
0010
0200
,  // measure 57
0000
0000
0000
0000
0301
0010
0001
1000
,  // measure 58
0200
0000
0000
0000
,  // measure 59
0320
0000
0000
0000
,  // measure 60
0230
0000
0000
0000
,  // measure 61
2300
0000
0000
0000
,  // measure 62
3002
0000
0000
0000
,  // measure 63
0203
0000
0000
0000
,  // measure 64
2300
0000
0000
0000
,  // measure 65
3200
0000
0000
0000
,  // measure 66
0300
0000
0000
0000
;
