#TITLE:Like Your Dancing (Club Force Mix);
#SUBTITLE:;
#ARTIST:Arabella;
#TITLETRANSLIT:;
#SUBTITLETRANSLIT:;
#ARTISTTRANSLIT:;
#GENRE:;
#CREDIT:;
#BANNER:LikeYourDancing (1)crop-tru-abc.png;
#BACKGROUND:;
#LYRICSPATH:;
#CDTITLE:;
#MUSIC:Arabella_-_Like_Your_Dancing__Club_Force_Mix_.mp3.ogg;
#OFFSET:-0.442000;
#SAMPLESTART:42.471001;
#SAMPLELENGTH:18.000000;
#SELECTABLE:YES;
#BPMS:0.000000=135.608994
;
#STOPS:
;
#BGCHANGES:;
#KEYSOUNDS:;
#ATTACKS:;

//---------------dance-single - ----------------
#NOTES:
     dance-single:
     :
     Beginner:
     3:
     0.159934,0.221132,0.064767,0.074019,0.000000,121.000000,114.000000,7.000000,8.000000,0.000000,0.000000,0.159934,0.221132,0.064767,0.074019,0.000000,121.000000,114.000000,7.000000,8.000000,0.000000,0.000000:
0000
0000
0000
0000
,
0000
0000
0000
1000
,
0000
0001
0000
0001
,
0000
0100
0000
1001
,
0000
0000
0000
1000
,
0000
0000
0000
0001
,
0000
0000
0000
0100
,
0000
0000
0000
1001
,
0000
0001
0000
1000
,
0000
0001
0000
0100
,
0000
0100
0000
0001
,
0000
1000
0000
2002
,
0000
0000
0000
3003
,
0000
0000
0000
0000
,
0100
0000
0000
0000
,
0000
0000
0010
0000
,
0000
0000
0000
0000
,
1000
0000
0001
0000
,
1000
0000
0000
0001
,
0001
0001
0000
1000
,
0000
0001
0100
0010
,
0000
1000
0100
0010
,
0000
0001
0001
0001
,
0000
1000
0000
1001
,
0000
0001
0000
0100
,
0000
0010
0000
1010
,
0000
1000
0000
0001
,
0001
0001
0000
1000
,
0000
0001
0000
0100
,
0010
0100
0000
0001
,
0000
1000
0000
0001
,
1000
0001
0000
1001
,
0000
1000
0000
0001
,
0100
0001
0000
1000
,
0000
0010
0000
0100
,
0000
0000
0000
0002
,
0000
0003
0000
1000
,
0000
1000
0000
2000
,
0000
3000
0000
0010
,
0000
0010
0000
0010
,
0010
0010
0000
1000
,
0000
0001
0000
0100
,
0100
0100
0000
0001
,
0000
1000
0000
0002
,
0000
0000
0000
1003
,
0000
1000
0000
0010
,
0000
0100
0000
0001
,
0000
1000
0000
0002
,
0000
0003
0000
2000
,
0000
3000
0000
0002
,
0000
0000
0000
0103
,
0000
0100
0000
0010
,
0000
0010
0000
1000
,
0100
1000
0000
0001
,
0000
0010
0000
0001
,
0001
0001
0000
0100
,
0001
0000
0001
0100
,
0001
0000
1000
0010
,
0100
0000
0001
1000
,
1000
1000
0000
1001
;

//---------------dance-single - ----------------
#NOTES:
     dance-single:
     :
     Easy:
     6:
     0.284181,0.386982,0.231310,0.046262,0.000000,215.000000,190.000000,25.000000,5.000000,0.000000,0.000000,0.284181,0.386982,0.231310,0.046262,0.000000,215.000000,190.000000,25.000000,5.000000,0.000000,0.000000:
0000
0000
0000
0000
,
0000
0000
0000
1000
,
0001
0100
0101
0001
,
1000
0010
0010
0200
,
0000
0310
0000
0010
,
0000
1000
0000
0001
,
0000
0100
0000
0010
,
0000
1000
0000
1001
,
0001
1000
0001
0101
,
0100
0001
1000
0110
,
0010
1000
0001
1001
,
1001
0110
0110
2000
,
0000
0000
0000
0000
,
3000
0000
0000
0000
,
0002
0000
0000
0000
,
0003
0000
0000
0000
,
0100
0000
0010
0000
,
1000
0001
1000
0001
,
0100
0000
0010
1000
,
1000
0001
0001
0101
,
0100
0001
1000
0100
,
0010
0100
0010
0001
,
1001
1000
1100
0001
,
0100
0010
0100
0010
,
0100
1000
0001
0100
,
1010
0100
0101
0001
,
1000
1000
0001
0110
,
0010
0110
1001
1001
,
0001
0000
0100
0000
0001
0100
0001
0000
,
1000
0001
1000
0001
,
0100
0010
1001
0100
,
0010
0000
1000
0001
1000
0000
1001
0000
,
0001
0100
0010
1000
,
0001
0001
1000
1001
,
0001
0000
1000
0000
0010
0100
0010
0000
,
0000
1000
0000
0001
,
0100
0000
0010
0100
0010
0000
1000
0000
,
0001
0100
0010
1000
,
0001
0000
0100
0010
1000
0000
0001
0000
,
0000
1000
0000
1001
,
0001
0100
0100
0010
,
0010
1000
0010
1010
,
0100
0001
0001
1000
,
1000
0010
0010
0200
,
0000
0001
0000
0010
,
0300
0001
0000
1000
,
0001
0100
0000
0100
,
0001
1000
0000
0010
,
0000
0100
0000
0001
,
0000
1000
0000
0100
,
0000
0010
0000
0001
,
0001
1000
1000
0201
,
0000
0301
0000
1000
,
0000
0010
0000
0100
,
0100
0100
0000
0001
,
1000
0001
1000
1001
,
0000
0100
0010
1000
,
0001
0001
0100
0010
,
1000
0001
1000
0010
,
0100
0010
1000
1001
;

//---------------dance-single - ----------------
#NOTES:
     dance-single:
     :
     Medium:
     10:
     0.421645,0.442265,0.203553,0.120281,0.393227,319.000000,297.000000,22.000000,13.000000,0.000000,0.000000,0.421645,0.442265,0.203553,0.120281,0.393227,319.000000,297.000000,22.000000,13.000000,0.000000,0.000000:
0000
0000
0000
0000
,
0000
0000
0000
1000
,
0001
0000
0000
0100
0000
0000
0000
0000
0101
0000
0000
0000
0001
0000
0000
0000
,
1000
0000
0000
0010
0000
0000
0000
0000
0100
0000
0010
0000
0200
0000
0000
0000
,
0000
0000
0000
0000
0301
0000
0000
0001
0000
0000
0000
0000
1000
0000
0000
0000
,
0001
0000
1000
0000
0001
0000
0000
1000
0000
0000
0000
0000
0010
0000
0000
0000
,
0100
0000
0001
0000
0100
0000
0000
0010
0000
0000
0000
0000
1000
0000
0000
0001
,
0000
1000
0000
0001
0000
0000
0000
0000
1000
0000
0001
0000
0100
0000
0000
0000
,
0010
0000
1000
0000
0010
0000
0000
1000
0000
0000
0000
0000
0001
0000
0000
0000
,
0100
0000
0001
0000
1000
0000
0000
0001
0000
0000
0000
0000
0100
0000
0000
0000
,
0010
0000
0100
0000
0010
0000
0000
1000
0000
0000
0001
0000
0100
0000
0000
0000
,
0101
1010
1001
0002
,
0000
0000
0000
0000
0000
0000
0000
0000
0000
0000
0000
0000
0000
0100
0000
0000
,
0003
0000
0000
0000
0000
0100
0000
0000
0000
0000
0000
0000
0000
0010
0000
0000
,
0000
0000
0000
0000
0000
0010
0000
0000
0000
0000
0000
0000
0000
1000
0000
0000
,
0000
0000
0000
0000
0000
0001
0000
0000
0000
0000
0000
0000
0000
1000
0000
0000
,
0010
0000
0000
1000
0000
0000
0001
0000
1000
0000
0000
0001
0000
1000
0000
0000
,
0100
0000
0000
0010
0000
0001
0000
0000
1000
0000
0000
0010
0000
0100
0000
0000
,
0001
0000
0000
1000
0000
0001
0000
0000
1000
0000
0010
0000
1000
0000
0000
0000
,
1000
0110
0110
0001
,
0001
0000
0000
1000
0000
0001
0000
0000
0100
0000
0010
0000
1000
0000
0000
0000
,
0001
0000
0000
1000
0000
1000
0000
0000
0001
0000
0000
0100
0000
0100
0000
0000
,
0001
0000
0000
1000
0000
0001
0000
0000
1000
0000
0000
0001
0000
1000
0000
0000
,
0001
0000
0000
0100
0000
0100
0000
0000
0010
0000
0000
0000
1010
0000
0000
0000
,
0100
0000
0000
0001
0000
1000
0000
0000
0001
0000
0100
0000
0010
0000
0000
0000
,
1000
0000
0000
0001
0000
0100
0000
0000
0001
0000
0000
1000
0000
0001
0000
0000
,
0100
0000
0000
0010
0000
1000
0000
0000
0001
0000
1000
0000
0001
0000
0100
0000
,
0001
0000
0000
1000
0010
0000
0000
1000
0010
0000
0000
0000
0101
0000
0000
0000
,
0001
0000
0100
0000
0010
0000
0000
1000
0000
0001
0000
1000
0000
0001
0000
0100
,
0000
0001
0000
2000
0000
0000
0000
0000
0000
0000
0000
0000
3010
0000
0000
0000
,
0100
0000
0010
0000
1000
0000
0001
0000
0100
0000
0000
0010
0000
0100
0000
0010
,
0000
0100
0000
0002
0000
0000
0000
0000
1003
0000
0000
0000
1001
0000
0000
0000
,
0100
0000
0010
0000
1000
0000
0001
0000
0100
0000
0010
0000
1000
0000
0000
0001
,
0000
1000
0000
0002
0000
0000
0000
0000
0103
0000
0000
0000
0001
0000
1000
0000
,
0010
0100
0001
1000
1000
0000
0002
0000
,
0000
0103
0010
1000
,
0001
0000
0100
0000
0001
0000
0000
0100
0000
0000
0001
0000
0001
0000
0000
0000
,
1000
0000
0100
0000
0010
0000
0000
0100
0000
0000
1000
0000
0001
0000
0000
0000
,
0100
0000
0001
0000
0010
0000
0000
0001
0000
0000
1000
0000
0001
0000
0000
0000
,
0100
0100
0010
1001
,
1000
0000
0001
0000
0100
0000
0000
0001
0000
0000
1000
0000
0001
0000
0000
0000
,
0001
0000
1000
0000
0010
0000
0000
1000
0000
0000
0001
0000
0100
0000
0000
0000
,
0100
0000
0010
0000
1000
0000
0000
0001
0000
0000
1000
0000
0002
0000
0000
0000
,
0103
0000
0000
0000
0100
0000
0000
0100
0000
0000
0100
0000
0220
0000
0000
0000
,
0000
0330
0001
1000
,
0001
0000
0000
1000
0001
0000
0000
1000
0001
0000
0000
0000
0100
0000
0000
0000
,
0110
0000
0010
0000
1000
0001
0100
0000
,
0101
0000
0000
0001
0010
0000
0000
0010
0100
0000
0000
0000
2000
0000
0000
0000
,
0100
0000
0000
0100
0000
0000
0100
0000
3000
0000
0001
0000
0020
0000
0000
0000
,
0001
0000
0000
0000
0001
0000
0000
0001
0030
0000
0000
0000
0002
0000
0000
0000
,
0100
0000
0000
0100
0000
0000
0100
0000
0003
0000
0010
0000
0110
0000
0000
0000
,
1010
0000
0000
0000
0101
0000
0000
0001
0100
0000
0001
0000
2000
0000
0000
0000
,
0100
0000
3001
0000
0001
0010
0100
0000
,
1000
0010
0100
0000
0001
0010
0001
0000
,
1000
0010
0100
0110
,
0011
0110
1100
0001
,
1000
0000
0000
0001
1000
0000
0000
0000
0001
0000
0000
0000
1000
0000
0000
1000
,
0010
0000
0000
0000
0100
0000
0000
0001
1000
0000
0001
0000
0100
0000
0000
0000
,
0010
0000
0000
1000
0010
0000
0000
0000
0100
0000
0000
0000
0101
0000
0000
0001
,
0010
0000
0000
0001
0010
0000
0000
0000
0001
0000
0000
0000
1100
0000
0000
0000
;

//---------------dance-single - ----------------
#NOTES:
     dance-single:
     :
     Hard:
     14:
     0.646347,0.691039,0.120281,0.111029,0.897483,489.000000,476.000000,13.000000,12.000000,0.000000,0.000000,0.646347,0.691039,0.120281,0.111029,0.897483,489.000000,476.000000,13.000000,12.000000,0.000000,0.000000:
// measure 0
0000
0000
0000
0000
,  // measure 1
0000
0000
0000
0000
0000
0000
0000
0000
0000
0000
0000
0000
1001
0000
0000
0100
,  // measure 2
0010
0000
0000
1000
0001
0000
0100
0000
0000
0000
0100
0000
1001
0000
0000
0001
,  // measure 3
1000
0000
0000
0010
0100
0000
0001
0000
0010
0000
0100
0000
1000
0000
0000
0000
,  // measure 4
0001
0000
0100
0000
0010
0000
0000
1000
0000
0000
0001
0000
0100
0000
0001
0000
,  // measure 5
1000
0000
0100
0000
0010
0000
0000
0001
0000
0000
0001
0000
1000
0000
0100
0000
,  // measure 6
1000
0000
0001
0000
0100
0000
0000
0100
0000
0000
0001
0000
1000
0001
0000
1000
,  // measure 7
0000
0001
0000
2000
0000
0000
0000
0000
3001
0000
0100
0000
0101
0000
0000
0000
,  // measure 8
0001
0000
1000
0000
0010
0100
0000
0100
0000
0000
0001
0000
1000
0000
0000
0000
,  // measure 9
0001
0000
1000
0000
0001
1000
0000
0001
0000
0000
1000
0000
0100
0000
0000
0000
,  // measure 10
0010
0000
0001
0000
1000
0001
0000
1000
0000
0000
0001
0000
0100
0010
0000
0100
,  // measure 11
0000
0010
0000
2000
0000
0000
0000
3001
1000
0000
0001
0100
0001
0000
0000
0000
,  // measure 12
1000
0000
0000
0001
0000
0000
0001
0000
0000
1000
0000
0100
0000
0010
0000
0000
,  // measure 13
0001
0000
0001
1000
0000
0010
0000
0100
0001
0000
0000
1000
0000
0001
0000
1000
,  // measure 14
0001
0000
0000
0100
0000
0000
0010
0000
0000
1000
0000
0001
0000
0010
0000
0100
,  // measure 15
0010
0000
0001
1000
0000
0001
0000
0100
0010
0000
1000
0000
1000
0001
0000
0000
,  // measure 16
0100
0000
0000
0100
0000
0000
0100
0000
0000
0001
0000
1000
0000
0001
0000
0100
,  // measure 17
0001
0000
0001
1000
0000
0010
0000
0100
0010
0000
0010
1000
0000
0001
0000
0000
,  // measure 18
0100
0000
0000
0001
0000
0000
1000
0000
0001
0100
0000
0001
1000
0000
0000
0001
,  // measure 19
0100
0000
0000
0100
0010
0000
0000
1000
0001
0000
1000
0001
1000
0001
0000
0100
,  // measure 20
0010
0000
0010
1000
0000
0001
0010
0100
1000
0000
0000
0001
0000
0001
1000
0100
,  // measure 21
0010
0000
0000
0001
0000
0001
0010
0100
1000
0000
0001
0100
0001
0100
0000
0001
,  // measure 22
1000
0000
0000
0001
0000
1000
0100
1000
0100
0000
0010
0000
0001
1000
0000
0010
,  // measure 23
0100
0000
0000
0001
0000
1000
0100
0010
0001
0000
1000
0100
1000
0000
0001
0000
,  // measure 24
0100
0000
0001
0100
0000
0010
1000
0000
0100
0010
0001
0010
0000
0001
1000
0001
,  // measure 25
1000
0000
0001
0100
0000
0100
0010
1000
0010
0000
0100
0001
0000
0001
1000
0100
,  // measure 26
0010
0000
0001
1000
0000
1000
0001
0000
0100
0010
0000
0010
0000
1000
0100
0010
,  // measure 27
0001
0000
1000
0001
0000
1000
0100
0010
0001
0000
1000
0001
0100
0000
0000
0000
,  // measure 28
0100
0000
0001
0000
1000
0000
0000
0001
0000
0100
0000
0001
0000
1000
0010
1000
,  // measure 29
0001
0000
0000
0001
0000
1000
0100
1000
0100
0000
0000
0000
1000
0000
0000
0000
,  // measure 30
0010
0000
0100
0000
0001
0000
0100
0001
0000
0100
0000
0001
0000
1000
0001
0100
,  // measure 31
0010
0000
0000
0100
0000
0001
0010
0001
0010
0000
0000
0000
1100
0000
0000
0000
,  // measure 32
0001
0000
1000
0000
0010
0000
0100
0010
0000
0010
0000
0100
0000
0010
0000
1000
,  // measure 33
0000
0001
0000
0200
0000
0000
0000
0000
0310
0000
0000
0010
1000
0000
0001
0000
,  // measure 34
0100
0000
0001
1000
0000
0001
0000
1000
0000
0010
0000
0100
0000
0010
0000
0010
,  // measure 35
0000
0100
0000
0002
0000
0000
0000
0000
1003
0000
0010
0000
0100
0000
0000
0000
,  // measure 36
0001
0000
0100
0000
0010
0000
0100
0010
0100
0000
0001
0000
1000
0000
0000
0000
,  // measure 37
0001
0000
1000
0000
0010
0000
0100
0001
1000
0000
0010
0000
0100
0000
0000
0000
,  // measure 38
0001
0000
1000
0000
0001
0000
0100
0001
0100
0000
0010
0000
1000
0001
0000
1000
,  // measure 39
0000
0001
0000
0200
0000
0000
0000
0000
0310
0000
0000
0000
1001
0000
0000
0000
,  // measure 40
0001
0000
1000
0100
1000
0000
0001
0000
0010
0000
0001
0000
0010
0000
0000
0000
,  // measure 41
0100
0000
1000
0010
0100
0000
0001
0000
0010
0000
0100
0000
1100
0000
0000
0000
,  // measure 42
0001
0000
0100
0001
0010
0000
0001
0000
1000
0000
0010
0000
0010
0100
0000
0001
,  // measure 43
0000
1000
0000
0020
0000
0000
0000
0000
1030
0000
0000
0000
1001
0000
0000
0001
,  // measure 44
1000
0000
0000
0010
0100
0000
0001
0000
0100
0000
0010
0000
1001
0000
0000
0000
,  // measure 45
1000
0000
0000
1000
0100
0000
0000
0010
0000
0000
0010
0000
0001
0000
0000
0000
,  // measure 46
1000
0000
0000
0001
0100
0000
0010
0000
1000
0000
0001
0010
0001
0000
0000
0000
,  // measure 47
0100
0000
0000
0010
0100
0000
0010
0100
0010
0000
1000
0100
2000
0000
0000
0000
,  // measure 48
3001
0000
0000
0001
0000
0001
1000
0000
0000
0000
1000
0000
0010
0000
0100
0000
,  // measure 49
0001
0000
1000
0000
0010
0100
0000
0010
0000
1000
0000
0200
0000
0000
0000
0000
,  // measure 50
0301
0000
0000
0001
0000
0000
0100
0000
1000
0000
0010
0000
0100
0000
0001
0000
,  // measure 51
1001
0000
0000
0000
0110
0000
0000
0010
0100
0010
0100
0010
0200
0000
0000
0000
,  // measure 52
0301
0000
0000
1000
0000
0000
1000
0000
0001
0100
0000
0001
0000
0100
0001
0100
,  // measure 53
0001
0000
0000
1000
0000
0010
1000
0010
1000
0000
0000
0001
0000
0100
0001
0010
,  // measure 54
0001
0000
0000
0100
0000
0000
0001
0000
0100
0001
0000
0010
0000
0001
0010
0100
,  // measure 55
1000
0000
0000
0001
0000
1000
0100
0010
0001
0000
1000
0100
1000
0000
0000
0000
,  // measure 56
0001
0100
0010
1000
0001
0100
0101
0001
,  // measure 57
1000
0000
0010
0100
0010
0000
1000
0000
0001
0000
0100
0000
1001
0000
0010
0000
,  // measure 58
1000
0000
0001
0010
0100
0000
1000
0000
0001
0000
1000
0000
2001
0000
0000
0000
,  // measure 59
3002
0000
0000
0000
0203
0000
0000
0000
0310
0100
0010
0100
0010
0000
0000
0000
;
