#VERSION:0.83;
#TITLE:Like A Virus;
#SUBTITLE:;
#ARTIST:Claude Kelly;
#TITLETRANSLIT:;
#SUBTITLETRANSLIT:;
#ARTISTTRANSLIT:;
#GENRE:;
#ORIGIN:;
#CREDIT:;
#BANNER:;
#BACKGROUND:;
#PREVIEWVID:;
#JACKET:;
#CDIMAGE:;
#DISCIMAGE:;
#LYRICSPATH:;
#CDTITLE:;
#MUSIC:Claude-Kelly -Like-A-Virus-louder RnB.ogg;
#OFFSET:-0.027000;
#SAMPLESTART:36.007999;
#SAMPLELENGTH:17.100000;
#SELECTABLE:YES;
#BPMS:0.000=120.049;
#STOPS:;
#DELAYS:;
#WARPS:;
#TIMESIGNATURES:0.000=4=4;
#TICKCOUNTS:0.000=4;
#COMBOS:0.000=1;
#SPEEDS:0.000=1.000=0.000=0;
#SCROLLS:0.000=1.000;
#FAKES:;
#LABELS:0.000=Song Start;
#BGCHANGES:;
#KEYSOUNDS:;
#ATTACKS:
;

//---------------dance-single - ----------------
#NOTEDATA:;
#CHARTNAME:;
#STEPSTYPE:dance-single;
#DESCRIPTION:;
#CHARTSTYLE:;
#DIFFICULTY:Beginner;
#METER:3;
#RADARVALUES:0.169591,0.197496,0.032376,0.118714,0.000000,110.000000,107.000000,3.000000,11.000000,0.000000,0.000000,0.000000,0.000000,0.000000,0.169591,0.197496,0.032376,0.118714,0.000000,110.000000,107.000000,3.000000,11.000000,0.000000,0.000000,0.000000,0.000000,0.000000;
#CREDIT:;
#NOTES:
0000
0000
0000
0000
,
0000
0000
0000
0000
,
1000
0000
0001
0000
,
0200
0000
0310
0000
,
0100
0001
0100
0000
,
0010
1000
0010
0000
,
0100
0001
0100
0000
,
0010
1000
0010
0000
,
0100
0100
0100
0000
,
0010
0010
0010
0000
,
1000
0001
1000
0000
,
0001
1000
0001
0000
,
0110
0000
0002
0003
,
1000
0000
0020
0030
,
0100
0000
0002
0003
,
1000
0000
0020
0030
,
0100
0000
0010
0100
,
0010
0000
2000
3000
,
0001
0000
0001
0100
,
0001
0000
2000
3000
,
1000
0000
0001
0100
,
0010
0000
2000
3000
,
0001
0000
1000
0001
,
0100
0000
0001
1000
,
0100
0000
1000
0001
,
0100
0000
0020
0030
,
0100
0000
0110
0000
,
0010
0000
1000
0000
,
0001
0000
0100
0000
,
0101
0000
0001
0000
,
1000
0000
0001
0000
,
0100
0000
0010
0010
,
0010
0000
1000
0000
,
0001
0000
0100
0100
,
0100
0000
0001
1000
,
0001
0000
1000
0100
,
1000
0000
0010
0100
,
0001
0000
2000
3000
,
0001
0000
0100
0001
,
1000
0000
0001
1000
,
0001
0000
0100
0001
,
1000
0000
0020
0030
,
1000
0000
0000
0001
,
0000
0000
0000
0100
,
0000
0000
0000
0010
,
0000
0000
0000
0100
;

//---------------dance-single - ----------------
#NOTEDATA:;
#CHARTNAME:;
#STEPSTYPE:dance-single;
#DESCRIPTION:;
#CHARTSTYLE:;
#DIFFICULTY:Easy;
#METER:5;
#RADARVALUES:0.248219,0.296244,0.097129,0.107921,0.000000,161.000000,152.000000,9.000000,10.000000,0.000000,0.000000,0.000000,0.000000,0.000000,0.248219,0.296244,0.097129,0.107921,0.000000,161.000000,152.000000,9.000000,10.000000,0.000000,0.000000,0.000000,0.000000,0.000000;
#CREDIT:;
#NOTES:
0000
0000
0000
0000
,
0000
0000
0000
0000
,
1000
0000
0001
0000
,
0100
0000
0010
0000
,
1000
0001
0100
0000
,
0100
0001
2000
0000
,
3001
0100
0010
0000
,
0010
1000
0002
0000
,
1003
0010
1000
0010
,
0100
0001
0100
0001
,
1000
1000
0010
0010
,
0100
0100
0001
0001
,
1001
1000
0001
0100
,
0010
1000
0002
1003
,
0001
1000
0010
0110
,
0010
1000
0200
0310
,
0001
1000
0001
0100
,
0001
1000
0020
0000
,
0130
0001
1000
0001
,
1000
0010
0100
0001
,
1001
1000
0010
0100
,
0101
0001
1000
0001
,
1001
1000
0100
1000
,
1100
0010
0001
0100
,
0011
0001
1000
0100
,
0010
0001
1000
0001
,
1001
0000
0100
0010
,
0110
0000
0002
0000
,
1003
0010
0100
0000
,
0001
1000
0020
0000
,
1030
0001
1000
0001
,
0100
0010
0100
0010
,
1000
0001
0100
0001
,
0010
0010
0010
0100
,
1000
0000
0001
1000
,
0001
0000
1000
0001
,
1000
0000
0001
0100
,
0001
0000
1000
0010
,
1000
0001
0001
0100
,
0100
0010
0100
0010
,
1000
0001
1000
0100
,
0100
1000
0001
0100
,
0010
0000
2000
3000
,
0001
0000
0020
0030
,
0100
0000
2000
3000
,
0010
0100
0001
0100
;

//---------------dance-single - ----------------
#NOTEDATA:;
#CHARTNAME:;
#STEPSTYPE:dance-single;
#DESCRIPTION:;
#CHARTSTYLE:;
#DIFFICULTY:Medium;
#METER:7;
#RADARVALUES:0.328389,0.345618,0.140298,0.064753,0.000000,213.000000,200.000000,13.000000,6.000000,0.000000,0.000000,0.000000,0.000000,0.000000,0.328389,0.345618,0.140298,0.064753,0.000000,213.000000,200.000000,13.000000,6.000000,0.000000,0.000000,0.000000,0.000000,0.000000;
#CREDIT:;
#NOTES:
0000
0000
0000
0000
,
0000
0000
0000
0000
,
1000
0010
0100
0001
,
1000
0010
0200
0010
,
0310
0000
1000
0000
0001
0000
1000
0001
,
0000
0001
0000
0001
1000
0000
0001
0000
,
1000
0000
0100
0000
0010
0000
0001
1000
,
0000
1000
0000
1000
0001
0000
0100
0000
,
0010
0000
0110
0000
0001
0000
1000
0010
,
0000
0010
0000
0010
1000
0000
0001
0000
,
0100
0000
0010
0000
0010
0000
1000
0001
,
0000
0001
0000
0001
1000
0000
0001
0000
,
1001
0000
0100
0000
0010
0100
0010
0000
,
1001
0000
0001
0000
1000
0010
1000
0000
,
1001
0000
0001
0000
0100
0001
0100
0000
,
0110
0000
0010
0000
1000
0010
1000
0000
,
0001
0100
0010
1000
,
0001
1000
0020
0000
,
0130
0000
0001
0000
1000
0000
0010
0100
,
0001
0000
1000
0000
0001
0000
1000
0001
,
1000
0000
0001
0000
0100
0000
0100
0010
,
1000
0000
0010
0000
0100
0001
0010
0000
,
0011
0000
0001
0000
1000
0000
0001
1000
,
0001
0000
1000
0000
0010
0000
0100
0010
,
0100
0000
0001
0000
0010
0000
0100
0010
,
0100
1000
0001
1000
,
0002
0000
0103
0110
,
1000
0001
2000
3001
,
1001
0000
0001
0000
0100
0000
0001
0100
,
0001
0000
0100
0001
0100
0000
0010
0000
,
1010
0010
0100
0101
,
0001
0000
1000
0000
0001
0000
0100
0010
,
0100
0001
1000
1001
,
0001
0010
0001
0011
,
0011
0000
0001
0000
1000
0000
0010
1000
,
0010
0000
0100
0000
0001
0000
1000
0100
,
0010
0000
0001
0000
0010
0000
0100
1000
,
0100
1000
0002
0203
,
0310
0000
0100
0000
0001
0000
1000
0001
,
0100
0000
0010
0000
1000
0000
0001
1000
,
0010
0000
0100
0000
0001
0000
1000
0001
,
0100
0000
0010
0000
0100
0000
0001
1000
,
0100
0000
0010
0000
0001
0000
1000
0001
,
0000
0000
1000
0000
0001
0000
0001
1000
,
0000
0000
0001
0000
1000
0000
1000
0001
,
0000
0100
0000
0010
0100
0000
0010
0000
;

//---------------dance-single - ----------------
#NOTEDATA:;
#CHARTNAME:;
#STEPSTYPE:dance-single;
#DESCRIPTION:;
#CHARTSTYLE:;
#DIFFICULTY:Hard;
#METER:11;
#RADARVALUES:0.468687,0.469054,0.226635,0.183466,0.107921,304.000000,283.000000,21.000000,17.000000,0.000000,0.000000,0.000000,0.000000,0.000000,0.468687,0.469054,0.226635,0.183466,0.107921,304.000000,283.000000,21.000000,17.000000,0.000000,0.000000,0.000000,0.000000,0.000000;
#CREDIT:;
#NOTES:
// measure 0
0000
0000
0000
0000
,  // measure 1
0000
0000
0000
0000
,  // measure 2
1000
0010
0100
0001
,  // measure 3
1000
0010
1000
0000
0001
0010
0001
0000
,  // measure 4
1000
0100
0010
0001
0100
0000
0010
0100
,  // measure 5
0000
0001
1000
0010
0100
0000
0001
0000
,  // measure 6
1001
1000
0010
0100
0010
0000
0100
0001
,  // measure 7
0000
1000
0100
0001
0100
0000
1000
0000
,  // measure 8
0010
0100
0001
0100
0010
0000
0010
1000
,  // measure 9
0000
0001
0010
0100
0010
0001
1000
0000
,  // measure 10
1001
0001
0200
0000
0301
0000
1000
0001
,  // measure 11
0000
0000
0000
0001
0000
0000
0100
0000
0000
0010
0000
0000
1000
0000
0001
0000
1000
0000
0001
0000
0000
0100
0000
0000
,  // measure 12
0110
0010
1000
0001
0200
0000
0310
1000
,  // measure 13
1010
0010
0100
0001
0100
0010
1000
0000
,  // measure 14
1001
0000
0100
0010
2000
0000
3001
0010
,  // measure 15
0012
0000
0103
0010
1000
0001
0000
0020
,  // measure 16
0000
0130
1000
0200
0000
0310
0001
0020
,  // measure 17
0000
0000
0000
0031
0000
0000
0100
0000
0000
0010
0000
0000
0100
0000
0010
0000
0100
0000
0010
0000
0000
1000
0000
0000
,  // measure 18
1010
0000
0001
0100
0010
1000
0001
0100
,  // measure 19
0101
0000
0001
1000
0100
0000
0010
0001
,  // measure 20
0100
0000
0010
0000
1000
0000
0010
0100
,  // measure 21
0101
0000
0000
0001
0000
0000
1000
0000
0000
1000
0000
0000
0100
0000
0010
0000
0001
0000
0010
0000
0000
0001
0000
0000
,  // measure 22
1000
0010
0100
0000
0001
1000
0010
0100
,  // measure 23
0001
0000
1000
0010
0200
0000
0310
1000
,  // measure 24
0011
0000
0001
1000
0020
0000
0130
0001
,  // measure 25
1010
0000
0000
0010
0000
0000
0100
0000
0000
0100
0000
0000
0001
0000
1000
0000
0001
0000
0100
0000
0000
0010
0000
0000
,  // measure 26
0200
0000
0301
0000
1000
0010
1010
0001
,  // measure 27
0100
0000
0000
0000
0000
0000
0000
0000
0000
0001
0000
0000
1000
0000
0000
0000
0000
0000
0010
0000
0000
0000
0000
0000
0100
0000
0000
0000
0100
0000
0000
0000
0010
0000
0000
0000
0010
0000
0000
0000
0000
0000
1000
0000
0000
0000
0000
0000
,  // measure 28
0001
0000
0000
0100
0001
0000
1000
0000
0020
0000
0030
0000
0110
0000
0001
0000
,  // measure 29
0000
0000
0000
1000
0000
0000
0000
0000
0000
0001
0000
0000
0100
0000
0001
0000
1000
0000
0001
0000
0000
0100
0000
0000
,  // measure 30
0110
0000
0010
1000
0000
0001
0100
0010
,  // measure 31
1001
0000
0000
0000
0000
0000
0100
0000
0000
0001
0000
0000
0010
0000
0001
0000
0010
0000
0001
0000
0000
1000
0000
0000
,  // measure 32
1001
0000
0011
0000
1000
0010
0100
0001
,  // measure 33
0101
0001
0010
0100
2000
0000
0000
3010
,  // measure 34
0100
0000
0001
0000
1000
0000
0001
0100
,  // measure 35
0010
0000
1000
0100
0010
0001
0010
0100
,  // measure 36
1000
0000
0001
0100
0020
0000
1030
0001
,  // measure 37
1001
0000
0000
1000
0000
0000
0001
0000
0000
0100
0000
0000
0010
0000
0100
0000
0010
0000
1000
0000
0000
0000
0000
0000
,  // measure 38
0101
0000
0001
0000
1000
0010
0100
0001
,  // measure 39
0100
0000
0001
0010
0100
0010
0100
0000
,  // measure 40
1000
0000
0100
0010
0001
0010
0001
1000
,  // measure 41
1001
0000
0000
0001
0000
0000
0010
0000
0000
0100
0000
0000
1000
0000
0001
0000
1000
0000
0001
0000
0000
0000
0000
0000
,  // measure 42
0100
0000
0010
0000
1000
0000
0001
0200
,  // measure 43
0000
0300
0010
0100
0001
0000
1000
0002
,  // measure 44
0000
0003
1000
0000
0010
0000
0010
0200
,  // measure 45
0000
0301
1000
0100
0002
0000
0103
0000
;
