#VERSION:0.83;
#TITLE:Let it go;
#SUBTITLE:;
#ARTIST:Yasuhiro Abe;
#TITLETRANSLIT:;
#SUBTITLETRANSLIT:;
#ARTISTTRANSLIT:;
#GENRE:ELECTRO ROCK;
#ORIGIN:;
#CREDIT:from pop n music 18;
#BANNER:20140310003446!18_ELECTRO_ROCK.png;
#BACKGROUND:;
#PREVIEWVID:;
#JACKET:;
#CDIMAGE:;
#DISCIMAGE:;
#LYRICSPATH:;
#CDTITLE:;
#MUSIC:Let_it_go.ogg;
#OFFSET:-0.386000;
#SAMPLESTART:58.564999;
#SAMPLELENGTH:17.000000;
#SELECTABLE:YES;
#BPMS:0.000=134.000;
#STOPS:;
#DELAYS:;
#WARPS:;
#TIMESIGNATURES:0.000=4=4;
#TICKCOUNTS:0.000=4;
#COMBOS:0.000=1;
#SPEEDS:0.000=1.000=0.000=0;
#SCROLLS:0.000=1.000;
#FAKES:;
#LABELS:0.000=Song Start;
#BGCHANGES:;
#KEYSOUNDS:;
#ATTACKS:
;

//---------------dance-single - ----------------
#NOTEDATA:;
#CHARTNAME:;
#STEPSTYPE:dance-single;
#DESCRIPTION:;
#CHARTSTYLE:;
#DIFFICULTY:Beginner;
#METER:3;
#RADARVALUES:0.157887,0.212129,0.035652,0.142608,0.000000,124.000000,120.000000,4.000000,16.000000,0.000000,0.000000,0.000000,0.000000,0.000000,0.157887,0.212129,0.035652,0.142608,0.000000,124.000000,120.000000,4.000000,16.000000,0.000000,0.000000,0.000000,0.000000,0.000000;
#CREDIT:;
#NOTES:
0000
0000
0000
0000
,
0000
0000
0000
0000
,
2000
0000
3000
0000
,
0002
0000
0003
0000
,
0100
0010
0100
0000
,
0010
1000
0010
0000
,
1000
0001
1000
0000
,
0001
0100
0001
0000
,
1000
0000
1000
0000
,
0001
0000
0001
0000
,
1001
0000
1000
0000
,
0100
0000
0010
0000
,
0001
0000
1000
0000
,
1000
0000
0001
0000
,
0100
0000
0010
0000
,
0200
0000
0300
0000
,
0101
0000
0001
0000
,
0100
0000
1000
0000
,
0100
0000
0001
0000
,
1000
0000
0001
0000
,
1000
0000
0010
0000
,
1000
0001
1000
0000
,
0001
0000
0010
0000
,
0100
0000
0010
0000
,
0100
0000
1000
0000
,
0002
0000
0003
0000
,
0100
0000
0010
0000
,
2000
0000
3000
0000
,
0001
0000
0000
0000
,
1000
0000
0000
0000
,
0001
0000
0100
0000
,
0002
0000
0003
0000
,
1000
0000
2002
0000
,
0003
3000
0001
0000
,
0001
1000
0002
0000
,
1003
0000
0100
0000
,
0010
0010
0010
0000
,
0001
0100
0001
0100
,
0010
0000
1000
0000
,
1000
0000
0100
1000
,
0100
0000
2000
0000
,
0000
3000
0001
0000
,
0100
0010
0200
0000
,
0301
0000
0010
0000
,
1000
0000
0100
0000
,
0001
0000
1000
0000
,
1000
0000
0001
0100
,
0010
1000
0100
0000
,
1000
0000
2002
0000
,
3003
0000
0001
0000
,
0100
0010
0200
0000
,
0310
0000
1000
0000
,
0001
1000
0002
0000
,
0003
0000
1000
0100
,
1000
0100
1000
0000
,
0002
0000
0013
0001
,
0010
0001
0010
0000
,
0000
0000
0001
0000
,
0000
0000
1000
0000
,
0000
0000
0010
0000
;

//---------------dance-single - ----------------
#NOTEDATA:;
#CHARTNAME:;
#STEPSTYPE:dance-single;
#DESCRIPTION:;
#CHARTSTYLE:;
#DIFFICULTY:Easy;
#METER:6;
#RADARVALUES:0.291582,0.318193,0.160434,0.169346,0.000000,229.000000,211.000000,18.000000,19.000000,0.000000,0.000000,0.000000,0.000000,0.000000,0.291582,0.318193,0.160434,0.169346,0.000000,229.000000,211.000000,18.000000,19.000000,0.000000,0.000000,0.000000,0.000000,0.000000;
#CREDIT:;
#NOTES:
0000
0000
0000
0000
,
0000
0000
0000
0000
,
2000
0000
3020
0000
,
0032
0000
0023
0000
,
1030
0010
0100
0001
,
0010
1000
0010
0001
,
1001
1000
0100
0010
,
0001
0100
0010
1000
,
1100
1000
0100
0010
,
0001
0100
0010
1000
,
1001
0010
1000
0010
,
1000
0001
0010
0100
,
1000
0010
1000
0100
,
1000
0010
0100
0010
,
1000
0000
0001
0000
0100
0001
0100
0000
,
0020
1030
2000
3001
,
0101
0010
0010
0100
,
0100
0001
1000
0010
,
0100
0000
0001
0100
0001
0000
1000
0000
,
1001
1000
0010
0100
,
1000
0001
0010
0100
,
1000
0001
0100
0100
,
0101
0000
0001
0000
1000
0000
0010
0100
,
0010
0000
1000
0000
0001
0100
0001
0000
,
0100
0010
1001
0100
,
0210
0000
0310
0010
,
2000
0010
3010
0100
,
0002
0000
0103
0010
,
1010
0000
0100
0001
,
1000
0000
1000
0100
,
0010
0000
0001
0010
,
0100
0000
1000
0000
,
0110
0000
2002
0000
,
3003
0000
0000
0100
0000
0001
0000
0000
,
0001
0000
1000
0001
2000
0000
0000
0000
,
3001
0000
0000
0100
0000
0010
0000
0100
,
0000
0001
0010
0100
,
1000
0100
0001
0100
,
0010
0001
2000
0010
,
3010
0100
0002
1000
,
1003
0010
2002
0000
,
3003
0000
0000
0100
0000
0010
0000
0000
,
1000
0000
0001
1000
0002
0000
0000
0000
,
1003
0000
0000
0010
0000
0100
0000
0001
,
0000
1000
0100
0010
,
0001
0100
1000
0100
,
1000
0100
0001
1000
,
1010
0000
0100
0000
0010
0000
1000
0001
,
1000
0001
2002
0000
,
3003
0000
0100
0010
,
0100
0010
0100
0000
0010
0000
1000
0000
,
0010
0110
1000
0001
,
0001
1000
0100
0000
1000
0000
0100
0000
,
0010
0001
1001
0010
,
1000
0001
1000
0000
0001
0000
0100
0000
,
0010
1000
0110
0001
,
1000
0001
1000
0000
0010
0000
0000
0000
,
0010
0000
0100
0000
,
0100
0000
0001
0000
,
1100
0000
0010
0000
;

//---------------dance-single - ----------------
#NOTEDATA:;
#CHARTNAME:;
#STEPSTYPE:dance-single;
#DESCRIPTION:;
#CHARTSTYLE:;
#DIFFICULTY:Medium;
#METER:9;
#RADARVALUES:0.389624,0.372785,0.124782,0.196085,0.000000,306.000000,292.000000,14.000000,22.000000,0.000000,0.000000,0.000000,0.000000,0.000000,0.389624,0.372785,0.124782,0.196085,0.000000,306.000000,292.000000,14.000000,22.000000,0.000000,0.000000,0.000000,0.000000,0.000000;
#CREDIT:;
#NOTES:
0000
0000
0000
0000
,
0000
0000
0000
0000
,
2000
0000
0000
0000
3001
0000
0100
0001
,
0000
0100
0000
0110
0000
0010
1000
0001
,
0100
0010
0100
0001
,
0010
0100
1000
0100
0000
0010
0001
1000
,
0000
0001
0100
0001
0000
1000
0010
0100
,
0000
0100
0001
0010
0000
0010
0001
1000
,
0000
1000
0100
0010
0000
0100
0010
0001
,
0000
0001
1000
0000
0001
0100
0010
0100
,
0001
0000
1001
0000
1000
0000
0100
0010
,
0000
0010
0001
1000
0000
1000
0100
0010
,
0001
0000
1000
0010
0000
0010
1000
0100
,
0000
0100
0010
0001
0100
0000
0001
0000
,
1000
0000
0100
0010
0000
0011
0000
0001
,
0000
0200
0000
0000
0000
0300
0010
0000
,
0110
0000
0001
0000
0001
1000
0001
0000
,
0110
0000
0010
0000
1000
0100
1000
0000
,
0110
0000
0001
0010
0000
0100
0000
1000
,
0000
0100
0010
0000
0001
0000
1100
0000
,
1010
0000
0010
0100
0010
0000
1000
0100
,
0010
0001
0000
0001
1000
0000
0100
0001
,
0100
0000
1000
0010
0000
1000
0100
0010
,
0000
0010
0001
0100
0010
0000
0100
0000
,
0110
0000
0010
1000
0000
0001
0000
2000
,
0000
3002
0000
0003
0100
0000
0010
0100
,
0010
0000
1000
0002
0000
2003
0000
3020
,
0000
0230
0000
0000
0000
0000
0310
0000
,
0100
0001
1000
0100
0000
0100
0000
0010
,
0001
1000
0000
0001
0000
1000
0000
0000
,
0001
0000
0100
0010
0100
0001
0100
0001
,
2000
0000
3010
0200
0000
0000
0300
0000
,
1001
0001
2002
0003
,
0001
0000
3001
0100
0000
0100
0000
0001
,
1000
0010
1000
0001
0200
0000
0000
0000
,
0310
0000
0100
0010
0000
0100
0001
0100
,
0000
0010
1000
0010
0000
1000
0000
0001
,
0000
1000
0100
0010
0000
0010
0001
0100
,
0010
1000
0000
0000
1000
0100
1000
0100
,
1000
0001
0010
0000
0001
0000
1000
0200
,
0000
1300
0002
0000
,
0103
0000
0010
0100
0000
0010
0000
1000
,
0100
0010
0001
1000
0200
0000
0000
0300
,
0010
0000
0001
1000
0000
0010
1000
0001
,
0000
1000
0010
0100
0010
0100
0000
0001
,
0000
1000
0100
0010
0000
0010
0100
0010
,
0001
0100
0000
0000
0001
0100
0010
1000
,
0100
1000
0010
0100
0002
0000
1003
0020
,
0000
0030
1000
0001
2000
0000
0001
0000
,
3100
0010
0001
1000
,
0010
0100
0010
0100
0020
0000
0130
0000
,
0010
1000
0001
0000
1000
0100
0010
0000
,
0001
1000
0001
0100
0002
0000
1003
0000
,
0100
0000
0010
0000
0001
1000
0010
0000
,
1000
0100
0010
0100
1000
0000
0001
0000
,
0110
1000
1001
0001
,
0110
0000
1000
0010
0000
1000
0000
0001
,
0000
0100
0000
0010
0000
1000
0000
0100
,
0000
0010
0000
0001
0000
0100
0000
0010
,
0000
1000
0000
0002
0000
0000
0003
0000
;

//---------------dance-single - ----------------
#NOTEDATA:;
#CHARTNAME:;
#STEPSTYPE:dance-single;
#DESCRIPTION:;
#CHARTSTYLE:;
#DIFFICULTY:Hard;
#METER:13;
#RADARVALUES:0.602262,0.665688,0.311954,0.196085,0.218368,473.000000,438.000000,35.000000,22.000000,0.000000,0.000000,0.000000,0.000000,0.000000,0.602262,0.665688,0.311954,0.196085,0.218368,473.000000,438.000000,35.000000,22.000000,0.000000,0.000000,0.000000,0.000000,0.000000;
#CREDIT:;
#NOTES:
// measure 0
0000
0000
0000
0000
,  // measure 1
0000
0000
0000
0000
,  // measure 2
2000
0000
0000
0001
3001
0000
0100
0001
,  // measure 3
0100
0000
0010
0000
0000
0000
2001
0000
0000
0000
3001
0000
1000
0000
0001
0100
,  // measure 4
0001
0000
0010
0000
0100
0000
1000
0100
0010
0000
0001
0000
0001
0000
1000
0000
,  // measure 5
0010
0000
0100
0000
0100
0000
0110
0000
0000
0000
0001
0000
1000
0000
0001
1000
,  // measure 6
0100
0010
0100
0010
0001
1000
0010
0100
,  // measure 7
0000
0000
0100
0000
0001
0000
0100
0000
0000
0000
0010
0000
1000
0000
0010
1000
,  // measure 8
0010
0000
1000
0010
0000
1000
0001
0001
,  // measure 9
0000
0001
2000
3000
0002
0003
0100
0010
,  // measure 10
0100
0000
0000
0000
0010
0000
1000
0000
0100
0010
0001
0000
1000
0000
0010
0000
,  // measure 11
0100
0000
0010
0000
1000
0000
0001
1000
0001
1000
0001
0000
0100
0000
0010
0000
,  // measure 12
0110
0000
1000
0010
0100
0010
0000
1000
,  // measure 13
0100
0000
0010
0000
0001
0000
1000
0100
1000
0000
0001
0000
0100
0000
0010
0000
,  // measure 14
1010
0000
0100
0110
0000
0001
0100
0001
,  // measure 15
1000
0100
0100
0100
0000
1000
0010
0100
,  // measure 16
0110
0000
0000
0000
0001
0010
0100
1000
0000
0000
1000
0000
0001
0100
0010
0100
,  // measure 17
0000
0000
0001
0000
0010
0100
1000
0100
0010
0000
0100
0010
0001
0100
0010
0100
,  // measure 18
0010
0000
1000
1010
0000
0100
0010
1000
,  // measure 19
0000
0001
0010
0000
0101
0010
1000
1000
,  // measure 20
1010
0000
0000
0000
0010
0000
0100
0010
0100
0010
0100
0000
0001
0000
0100
0010
,  // measure 21
0100
0000
0001
0000
1000
0000
0001
1000
0001
0000
0100
0000
0100
0000
0100
0000
,  // measure 22
0110
0000
1000
0010
1000
0100
0010
0100
,  // measure 23
0010
0001
0001
1000
0010
1000
1000
1000
,  // measure 24
1001
0000
0000
0000
0001
0000
1000
0001
0100
0000
0001
0000
1000
0000
0020
0000
,  // measure 25
0000
0230
0000
0310
0100
0010
0010
0100
,  // measure 26
0110
0000
0000
0000
1000
0000
0001
0100
0001
0000
2000
0000
0000
0000
3200
0000
,  // measure 27
0000
0310
0001
0020
0001
0031
0010
1000
,  // measure 28
1001
0100
0010
0100
0000
0010
1000
0010
,  // measure 29
0100
0010
0000
1000
0100
1000
0001
0100
,  // measure 30
0001
0000
0000
0000
1000
0000
0010
0100
0010
0000
0100
0000
0001
0000
1000
0000
,  // measure 31
0002
0000
1003
0200
0000
0300
0010
0002
,  // measure 32
0000
0000
0003
0000
0100
0010
0100
0000
0220
0000
0000
0000
0330
0000
0000
0000
,  // measure 33
0010
0000
1000
0000
0010
0000
0100
0000
0001
0000
1000
0000
0010
0000
1000
0100
,  // measure 34
1000
0100
1000
0000
0001
0000
0010
0000
0200
0000
0000
0000
1300
0000
0010
0000
,  // measure 35
0100
0001
0101
0101
0000
0110
0000
1000
,  // measure 36
0001
0010
0001
0000
0100
0000
0010
0000
1010
0000
0100
0000
0000
0000
0100
0000
,  // measure 37
0010
1001
0100
0101
0000
0010
0000
0100
,  // measure 38
1000
0000
0001
0100
0001
0000
0000
0000
1000
0000
0100
0000
0010
0000
0001
0000
,  // measure 39
0011
1000
0010
0100
0002
0000
1003
0010
,  // measure 40
0200
0000
0000
0000
0310
0000
0100
0010
0200
0000
0000
0000
0301
0000
0010
0000
,  // measure 41
0001
0000
1000
0100
1000
0000
0100
0000
0010
0000
0100
0000
1000
0000
0001
0000
,  // measure 42
0100
0000
0001
0000
0100
0000
0010
0100
0002
0000
0000
0000
0103
0000
0010
0000
,  // measure 43
0100
0001
1000
0010
0001
0010
1000
0001
,  // measure 44
0000
0100
0010
0100
0110
0010
0000
1001
,  // measure 45
0001
1000
0100
0010
0001
0100
0100
1010
,  // measure 46
0100
0110
0000
0100
1010
0100
0001
1000
,  // measure 47
0010
0000
1000
0010
1000
0000
0001
0000
0020
0000
0030
0000
0100
0000
2000
0000
,  // measure 48
3000
0010
1000
0001
1001
0000
0100
0000
,  // measure 49
0010
0000
0100
0000
0001
0000
1000
0100
0010
0000
0001
0000
1000
0000
0010
0100
,  // measure 50
0001
0100
0001
0000
1000
0000
0010
0000
1010
0000
0000
0000
0001
0000
0000
0000
,  // measure 51
0100
0000
0010
0000
1000
0000
0001
0100
0010
0000
1000
0000
0001
0000
0001
0000
,  // measure 52
1000
0000
0010
0100
0010
0000
0100
0000
0110
0000
0000
0000
0010
0000
0000
0000
,  // measure 53
1000
0000
0100
0000
0010
0000
0000
0000
0011
0000
0000
0000
1000
0000
0010
1000
,  // measure 54
0001
1000
0001
0000
1000
0000
0100
0000
0110
0000
0000
0000
0010
0000
0100
0000
,  // measure 55
1001
0000
0100
0000
1010
0000
0000
0000
0001
0100
0010
0100
0001
0000
1000
0100
,  // measure 56
1000
0000
0110
0000
0110
0000
0100
0010
0100
0000
0001
0000
0010
0000
0100
1000
,  // measure 57
0100
0000
0010
0000
0001
0000
0100
0010
1000
0000
0100
0000
0010
0000
0001
0010
,  // measure 58
0100
0000
0010
0000
0100
0000
1000
0100
0010
0000
0100
0000
1000
0000
0100
1000
,  // measure 59
0001
1000
0100
0020
0000
0000
0030
0000
;
