#VERSION:0.83;
#TITLE:Lemme Get That;
#SUBTITLE:;
#ARTIST:Rinni Wulandari feat. Teza Sumendra Dipha Barus;
#TITLETRANSLIT:;
#SUBTITLETRANSLIT:;
#ARTISTTRANSLIT:;
#GENRE:;
#ORIGIN:;
#CREDIT:;
#BANNER:;
#BACKGROUND:;
#PREVIEWVID:;
#JACKET:;
#CDIMAGE:;
#DISCIMAGE:;
#LYRICSPATH:;
#CDTITLE:;
#MUSIC:Rinni Wulandari - Lemme Get That (feat. Teza Sumendra Dipha Barus) [TubeRiper.cc].ogg;
#OFFSET:-0.185000;
#SAMPLESTART:63.495998;
#SAMPLELENGTH:18.100000;
#SELECTABLE:YES;
#BPMS:0.000=180.000;
#STOPS:;
#DELAYS:;
#WARPS:;
#TIMESIGNATURES:0.000=4=4;
#TICKCOUNTS:0.000=4;
#COMBOS:0.000=1;
#SPEEDS:0.000=1.000=0.000=0;
#SCROLLS:0.000=1.000;
#FAKES:;
#LABELS:0.000=Song Start;
#BGCHANGES:;
#KEYSOUNDS:;
#ATTACKS:
;

//---------------dance-single - ----------------
#NOTEDATA:;
#CHARTNAME:;
#STEPSTYPE:dance-single;
#DESCRIPTION:;
#CHARTSTYLE:;
#DIFFICULTY:Beginner;
#METER:3;
#RADARVALUES:0.153992,0.183976,0.016584,0.041459,0.000000,130.000000,128.000000,2.000000,5.000000,0.000000,0.000000,0.000000,0.000000,0.000000,0.153992,0.183976,0.016584,0.041459,0.000000,130.000000,128.000000,2.000000,5.000000,0.000000,0.000000,0.000000,0.000000,0.000000;
#CREDIT:;
#NOTES:
0000
0000
0000
0000
,
0000
0000
1000
0000
,
0100
0000
0010
0000
,
0000
0000
0001
0000
,
0010
0000
0100
0000
,
0000
0000
1000
0000
,
0100
0000
0010
0000
,
0000
0000
0001
0000
,
0100
0000
0010
0000
,
0000
0000
1000
0000
,
0100
0000
0010
0000
,
0000
0000
0001
0000
,
0010
0000
0100
0000
,
0000
0000
0001
0000
,
0100
0000
1000
0000
,
0000
0000
0100
0000
,
0010
0000
0001
0000
,
0000
0000
1000
0000
,
0100
0000
0010
0000
,
0000
0000
1000
0000
,
0010
0000
0001
0000
,
0000
0000
0010
0000
,
0100
0000
1000
0000
,
0000
0000
0001
0000
,
0100
0000
0010
0000
,
0000
0000
1000
0000
,
0100
0000
0010
0000
,
0000
0000
0100
0000
,
1000
0000
0001
0000
,
0000
0000
1000
0000
,
0001
0000
1000
0000
,
0001
0000
0100
0000
,
0010
0000
0010
0000
,
0010
0000
0000
0000
,
1000
0000
1000
0000
,
1000
0000
0000
0000
,
0001
0000
0001
0000
,
0001
0000
0000
0000
,
0100
0000
0010
0000
,
0100
0000
0000
0000
,
1001
0000
1000
0000
,
0001
0000
0000
0000
,
1000
0000
0010
0000
,
0100
0000
0000
0000
,
0001
0000
0100
0000
,
0001
0000
0000
0000
,
0100
0000
0010
0000
,
1000
0000
0000
0000
,
1001
0000
1000
0000
,
1000
0000
0000
0000
,
1000
0000
0100
0000
,
0010
0000
0000
0000
,
0100
0000
0001
0000
,
0100
0000
0000
0000
,
0100
0000
0001
0000
,
0100
0000
0000
0000
,
1000
0000
0100
0000
,
0010
0000
0000
0000
,
0100
0000
0010
0000
,
0001
0000
0000
0000
,
0100
0000
1000
0000
,
0100
0000
0000
0000
,
0001
0000
0010
0000
,
0001
0000
0000
0000
,
0100
0000
1000
0000
,
0100
0000
0000
0000
,
0100
0000
0010
0000
,
1000
0000
0000
0000
,
0001
0000
0100
0000
,
0001
0000
0100
0000
,
0001
0000
0000
0000
,
1000
0000
0000
0000
,
1000
0000
0100
0000
,
0010
0000
0001
0000
,
0010
0000
0001
0000
,
0010
0000
0000
0000
,
0001
0000
0010
0000
,
0001
0000
0010
0000
,
0100
0000
1000
0000
,
0100
0000
0000
0000
,
2000
0000
0000
3000
,
0000
0000
0000
0000
,
0002
0000
0000
0003
,
0000
0000
0000
0000
,
2000
0000
0000
3000
,
0000
0000
0001
0000
,
0002
0000
0000
0003
,
0000
0000
1000
0000
,
0200
0000
0000
0300
;

//---------------dance-single - ----------------
#NOTEDATA:;
#CHARTNAME:;
#STEPSTYPE:dance-single;
#DESCRIPTION:;
#CHARTSTYLE:;
#DIFFICULTY:Easy;
#METER:7;
#RADARVALUES:0.296138,0.364842,0.199005,0.174129,0.000000,250.000000,226.000000,24.000000,21.000000,0.000000,0.000000,0.000000,0.000000,0.000000,0.296138,0.364842,0.199005,0.174129,0.000000,250.000000,226.000000,24.000000,21.000000,0.000000,0.000000,0.000000,0.000000,0.000000;
#CREDIT:;
#NOTES:
0000
0000
1000
0000
,
0001
0000
1000
0000
,
0100
0000
0010
0000
,
0001
0000
0001
0000
,
0010
0000
0100
0000
,
1000
0000
0010
0000
,
0100
0000
0100
0000
,
0001
0000
0001
0000
,
0100
0000
0010
0000
,
1000
0000
0100
1000
,
0200
0000
0000
0300
,
0010
0001
0020
0000
,
0000
0030
1000
0000
,
0010
0000
0100
0010
,
0100
0000
0001
0000
,
1000
0010
0100
0000
,
0110
0000
0001
1000
,
0000
0000
1000
0000
,
0101
0000
0010
0200
,
0000
0300
1000
0000
,
1010
0000
0001
0100
,
0000
0000
0010
1000
,
0010
0000
1000
0001
,
0000
0001
1000
0000
,
0110
0000
0010
0100
,
0000
0010
1000
0000
,
0011
0000
0010
0001
,
0000
0001
1000
0000
,
1000
0010
0100
0010
,
1000
0000
0001
0010
,
1000
0010
0001
0000
,
0001
0000
0100
0010
,
2000
0000
3020
0000
,
0230
0000
0310
0010
,
0020
0000
2030
0000
,
3002
0000
1003
1000
,
0002
0000
1003
0100
,
0020
0000
0031
0010
,
0100
0000
1000
0010
,
0200
0000
0301
0000
,
1001
0000
1000
0100
,
0001
0000
0001
0100
,
1000
0000
1000
0100
,
0001
0000
0100
1000
,
0100
0000
1000
0100
,
0001
0000
0100
1000
,
0001
0000
0010
0100
,
0010
0100
1000
0000
,
1001
0000
0110
0000
,
1010
0000
0010
0000
,
1000
0100
0100
0100
,
0010
0010
0001
0100
,
0100
0010
1000
0100
,
0110
0000
0010
0001
,
0100
0010
0100
0010
,
0100
0000
1001
0000
,
1100
0000
0110
0000
,
0011
0000
1100
0000
,
0110
0000
1100
0000
,
0101
0000
0010
0100
,
0020
0000
1030
0001
,
0100
0000
0001
1000
,
0200
0000
0310
0100
,
0001
0100
2000
0000
,
3001
0000
1000
0010
,
0000
0100
0110
0000
,
0100
0000
0010
0100
,
0000
0010
0110
0000
,
0002
0003
0100
0100
,
0000
0001
1001
0000
,
0001
0000
1000
0100
,
0000
0100
1100
0000
,
1000
0100
0010
0000
,
0010
0100
1000
0000
,
0100
0010
0001
0000
,
0001
0010
0100
0000
,
2100
0000
3001
0000
,
0100
0001
0100
0000
,
0110
0000
1000
0010
,
0100
0000
0010
1000
,
0200
0000
0010
0000
,
0310
0000
0001
0000
,
0200
0000
0010
0000
,
0001
0000
0010
0300
,
2000
0000
0010
0000
,
0100
0000
0100
3000
,
0020
0000
0001
0000
,
0130
0000
1000
0010
,
0100
0000
0000
0000
;

//---------------dance-single - ----------------
#NOTEDATA:;
#CHARTNAME:;
#STEPSTYPE:dance-single;
#DESCRIPTION:;
#CHARTSTYLE:;
#DIFFICULTY:Medium;
#METER:10;
#RADARVALUES:0.403933,0.512231,0.381426,0.381426,0.000000,341.000000,295.000000,46.000000,46.000000,0.000000,0.000000,0.000000,0.000000,0.000000,0.403933,0.512231,0.381426,0.381426,0.000000,341.000000,295.000000,46.000000,46.000000,0.000000,0.000000,0.000000,0.000000,0.000000;
#CREDIT:;
#NOTES:
0000
0000
1000
0000
,
0001
0000
1000
0100
,
0001
0000
0010
0100
,
1000
0000
0001
0010
,
1000
0000
0010
0001
,
1000
0000
0010
0001
,
0100
0000
0110
0000
,
1000
0010
0001
0010
,
1000
0100
0001
0100
,
1000
0010
0100
0010
,
1000
0001
0100
0010
,
1000
1000
1100
0001
,
0011
0000
0101
0010
,
0100
0010
1000
0001
,
0100
0000
0101
0001
,
1000
0100
0010
0001
,
0110
0000
0010
1010
,
0000
1000
0100
0010
,
0011
0000
0000
0000
0001
0000
1000
0010
,
1000
0000
0000
0010
1000
0000
0001
0100
,
0001
0000
0100
0110
,
0000
0010
0100
0000
,
1010
0000
1000
0100
,
0010
0001
0010
0100
,
1000
0000
0001
0010
0001
0000
0100
0000
,
0010
0000
1000
0000
0100
1000
0100
0000
,
1100
0000
0000
0000
0010
0001
0010
0000
,
0011
0000
0000
0000
1000
0010
0100
0000
,
0110
0000
1001
0010
,
1001
0000
1001
0010
,
0011
0001
1001
0100
,
1010
0100
0110
0010
,
2000
0000
3010
0010
,
0100
0000
0010
0100
0000
0010
0100
0000
,
0000
0001
1000
1000
,
0001
0000
1000
0001
0000
1000
0001
0000
,
0000
0100
0010
0100
,
0010
0200
0001
0301
,
0100
0020
1030
0100
,
0010
0001
1001
0000
,
1001
0001
1000
0010
,
0010
0000
0100
0010
0000
1000
0010
0000
,
1000
0001
0101
0100
,
0100
0000
0001
0100
0000
0001
0100
0000
,
0010
1000
0010
0100
,
0100
0001
0100
1000
,
0100
0001
0001
1000
,
0010
0100
0220
0330
,
0110
0000
2020
3030
,
0202
0303
0220
0330
,
2020
3030
0022
0033
,
2002
0000
3003
0000
0001
0100
0001
0200
,
0000
0000
0010
0310
,
0010
0000
0000
0000
1000
0010
1000
0020
,
0000
0000
1000
1030
,
1000
0000
0000
0000
0001
0100
0001
0000
,
0101
0000
2002
3003
,
2200
3300
0220
0330
,
2200
3300
0022
0033
,
0202
0000
0303
0000
0001
1000
0001
2000
,
0000
0000
0010
3010
,
0010
0000
0000
0000
0100
0001
0100
0002
,
0000
0000
1000
1003
,
1000
0000
0001
0000
,
0100
0010
0100
0000
0010
0000
0100
0010
,
0000
1000
1001
0000
,
0001
0000
0100
0000
0010
0000
0100
0010
,
0000
0100
0110
0000
,
2020
3030
0202
0303
,
1000
0010
0100
0001
,
2000
0000
3010
0010
,
0100
0000
0000
0000
0100
0010
0100
0000
,
0110
0000
0000
0000
1000
0001
1000
0000
,
0001
1000
0001
0000
,
1010
0000
0000
0000
1000
0000
0001
1000
,
0001
0000
0000
0000
0100
0010
0100
0020
,
0000
0000
0100
0130
,
0100
0000
0000
0000
0010
0100
0010
0200
,
0000
0000
0000
0300
,
0020
0000
0130
0100
,
0200
0000
0310
0010
,
2000
0000
3001
0001
,
0200
0000
0310
0100
,
0002
0000
1003
0000
,
0100
0000
0011
0000
,
0100
0000
1010
0000
,
0100
0010
0001
0000
,
1000
0100
0020
0000
,
0000
0030
0000
0000
;

//---------------dance-single - ----------------
#NOTEDATA:;
#CHARTNAME:;
#STEPSTYPE:dance-single;
#DESCRIPTION:;
#CHARTSTYLE:;
#DIFFICULTY:Hard;
#METER:12;
#RADARVALUES:0.536603,0.585406,0.339967,0.207297,0.037313,453.000000,412.000000,41.000000,25.000000,0.000000,0.000000,0.000000,0.000000,0.000000,0.536603,0.585406,0.339967,0.207297,0.037313,453.000000,412.000000,41.000000,25.000000,0.000000,0.000000,0.000000,0.000000,0.000000;
#CREDIT:;
#NOTES:
// measure 0
0000
0000
0000
0000
1000
0000
0001
0010
,  // measure 1
0001
0000
0000
1000
0000
0100
0000
0000
,  // measure 2
0020
0000
0030
0000
0001
0000
0010
0100
,  // measure 3
0010
0000
0000
1000
0000
0010
0000
0000
,  // measure 4
0200
0000
0300
0000
0010
0000
0100
1000
,  // measure 5
0100
0000
0000
0000
0000
0010
0000
0000
0000
0001
0000
0000
0000
0000
0000
0000
,  // measure 6
0020
0000
0030
0000
0100
0000
1000
0010
,  // measure 7
0100
0001
0001
1000
,  // measure 8
2000
3000
0010
0000
,  // measure 9
1000
0000
0010
0100
,  // measure 10
0020
0000
0130
0000
,  // measure 11
0100
0000
0000
0010
0000
0100
0000
0000
,  // measure 12
0020
0000
0000
0000
1030
0000
0100
0001
,  // measure 13
0100
0000
0000
0010
0100
0000
0000
0000
,  // measure 14
0102
0000
0000
0000
1003
0000
0100
0010
,  // measure 15
0001
0000
0000
0010
0100
1000
0100
0000
,  // measure 16
1100
0000
0001
1000
,  // measure 17
0010
0000
0000
0000
1000
0000
0010
0100
,  // measure 18
0110
0010
0100
0010
,  // measure 19
1001
0000
0000
0010
1000
0000
0010
0100
,  // measure 20
0101
0000
0001
0100
,  // measure 21
0010
0000
0000
1000
0000
0000
0100
0000
0000
1000
0000
0010
,  // measure 22
0000
0000
0100
0000
0000
0000
0001
0000
0000
1000
0000
0000
0010
0000
0000
0000
0000
0000
0101
0000
0000
0000
0000
0000
,  // measure 23
0010
0000
0001
1000
0100
0000
1000
0100
,  // measure 24
0010
0001
0000
0011
0000
0000
0100
0000
,  // measure 25
1010
0000
0000
1000
0100
1000
0010
0001
,  // measure 26
0010
0000
1000
0000
0001
0010
0001
0100
,  // measure 27
1000
0100
0000
0001
0000
0100
0010
0000
,  // measure 28
1000
0000
0001
0100
0010
0000
1000
0000
,  // measure 29
1100
0000
0011
0010
,  // measure 30
1001
0000
0100
0000
1010
0000
0100
0010
,  // measure 31
0110
0000
1000
0000
1010
0000
0100
0001
,  // measure 32
0101
0000
0001
0010
0001
0010
0100
1000
,  // measure 33
0100
0000
1000
0100
0000
0010
0001
0000
,  // measure 34
0020
0000
0031
0010
0001
0010
0001
1000
,  // measure 35
0100
0000
1000
0010
0000
0100
0001
0000
,  // measure 36
0200
0000
0310
0000
1000
0010
0100
0001
,  // measure 37
0010
0100
1000
0100
,  // measure 38
0010
0000
2000
0000
3100
1000
0001
1000
,  // measure 39
0010
0100
0101
0001
,  // measure 40
1001
0000
1000
0100
0010
0001
0100
0001
,  // measure 41
1000
0000
0010
1000
0000
1000
0001
0000
,  // measure 42
2100
0000
3010
0100
0001
1000
0010
0100
,  // measure 43
0001
0000
0001
1000
0000
0100
0010
0000
,  // measure 44
0012
0000
0013
0000
0001
0010
0100
1000
,  // measure 45
0001
1000
1100
1010
,  // measure 46
0101
0000
0002
0000
0013
0100
0010
0100
,  // measure 47
1000
0000
0010
0000
0100
0010
0100
0000
,  // measure 48
0110
0000
1000
0000
1001
0000
0010
0001
,  // measure 49
0000
0010
0001
0000
1000
0100
1010
0000
,  // measure 50
0101
0000
0010
0000
0110
0000
0100
0010
,  // measure 51
0000
0010
0100
0000
0001
0010
0100
1000
,  // measure 52
2200
0000
0300
0000
3010
0000
0100
0010
,  // measure 53
0000
0010
0100
0000
0100
0010
1000
0100
,  // measure 54
0020
0000
0030
0000
0001
0000
1000
0100
,  // measure 55
0000
0100
1000
0000
0001
0010
0001
0000
,  // measure 56
0110
0000
0100
0000
1010
0000
0100
0010
,  // measure 57
0000
0010
1010
0000
0100
0001
0100
0000
,  // measure 58
0011
0000
0100
0000
1100
0000
1000
0001
,  // measure 59
0000
0100
0001
0000
0100
0010
0100
0001
,  // measure 60
0200
0000
0000
0000
0310
0000
0100
0101
,  // measure 61
0000
0000
0001
0000
1000
0100
0010
0001
,  // measure 62
0021
0000
0000
0000
0031
0000
1000
0001
,  // measure 63
1000
0000
0000
0001
0000
0000
0100
0000
0010
0000
0100
0000
,  // measure 64
0010
1000
0010
0000
0100
0000
0010
0001
,  // measure 65
0010
0000
1000
0000
1100
0000
0010
0100
,  // measure 66
0001
0000
0010
0000
0100
0000
0100
1100
,  // measure 67
0000
0000
1000
0000
0001
0010
0100
0010
,  // measure 68
0001
0000
1000
0000
0100
0010
0001
0000
,  // measure 69
0010
0000
1000
0000
0010
0100
0001
0100
,  // measure 70
0020
0000
0000
0000
0130
0010
0100
0000
,  // measure 71
0010
0000
0100
0000
0100
0001
0010
0000
,  // measure 72
0011
0000
0001
0000
1100
0000
0010
1000
,  // measure 73
0010
0000
1000
0001
1000
0000
0010
0100
,  // measure 74
0110
0000
0010
1000
0100
0000
0100
0001
,  // measure 75
0100
0010
0100
0000
1000
0100
0010
0001
,  // measure 76
2000
0000
0000
0000
0001
0000
3010
0100
,  // measure 77
0020
0000
0000
0030
0100
0001
0010
0001
,  // measure 78
0100
0000
0010
0100
0000
0010
0000
1000
,  // measure 79
0000
0001
0100
0010
1000
0001
0100
0010
,  // measure 80
0001
0000
0010
1000
0100
0000
0010
0001
,  // measure 81
0100
0000
0010
1000
0010
0001
0010
0000
,  // measure 82
2000
0000
0000
3000
0100
0000
0000
0000
,  // measure 83
0020
0000
0000
0000
0000
0000
0030
0000
0001
0000
0000
1000
0000
0000
0000
0001
,  // measure 84
0000
0000
0100
0010
,  // measure 85
0100
0010
0100
0000
0001
0000
0100
0000
,  // measure 86
0110
0000
0000
0000
0010
0000
0000
1000
0000
0000
0000
0000
0000
0000
0000
0000
,  // measure 87
0002
0000
0203
0000
,  // measure 88
0000
0300
0000
0000
;
