#TITLE:Lemme Get That (Full Version);
#SUBTITLE:;
#ARTIST:Rinni Wulandari feat. Teza Sumendra & Dipha Barus;
#TITLETRANSLIT:;
#SUBTITLETRANSLIT:;
#ARTISTTRANSLIT:;
#GENRE:;
#CREDIT:;
#BANNER:;
#BACKGROUND:;
#LYRICSPATH:;
#CDTITLE:;
#MUSIC:Rinni Wulandari - Lemme Get That (feat. Teza Sumendra Dipha Barus) [full].mp3;
#OFFSET:-0.069000;
#SAMPLESTART:15.682000;
#SAMPLELENGTH:36.000000;
#SELECTABLE:YES;
#BPMS:0.000000=180.000000
;
#STOPS:
;
#BGCHANGES:;
#KEYSOUNDS:;
#ATTACKS:;

//---------------dance-single - ----------------
#NOTES:
     dance-single:
     :
     Hard:
     12:
     0.390329,0.512074,0.219926,0.268384,0.033548,733.000000,674.000000,59.000000,72.000000,0.000000,0.000000,0.390329,0.512074,0.219926,0.268384,0.033548,733.000000,674.000000,59.000000,72.000000,0.000000,0.000000:
// measure 0
0000
0000
0000
0000
,  // measure 1
0000
0000
0000
0000
,  // measure 2
0000
0000
0000
0000
,  // measure 3
0000
0000
0000
0000
,  // measure 4
0000
0000
0000
0000
,  // measure 5
0000
0000
0000
1000
,  // measure 6
0000
0000
0000
0000
,  // measure 7
0000
0000
0000
0001
,  // measure 8
0000
0000
0000
1000
,  // measure 9
0000
0000
0000
0010
,  // measure 10
0000
0000
0000
0200
,  // measure 11
0000
0000
0300
0010
,  // measure 12
0000
0000
1000
0000
0001
0010
0001
0000
,  // measure 13
0000
1000
0000
0100
0000
0000
0020
0000
,  // measure 14
0030
0000
0011
0000
0010
0100
0010
0000
,  // measure 15
0000
0001
0000
0010
0000
0000
2200
0000
,  // measure 16
3300
0000
0010
0000
0100
1000
0100
0000
,  // measure 17
0000
0010
0000
0000
0000
0000
0001
0000
0000
0000
0000
0000
0020
0000
0000
0000
,  // measure 18
0030
0000
0100
0000
1000
0010
0100
0000
,  // measure 19
0001
0001
1000
2020
,  // measure 20
3030
0010
0000
1000
,  // measure 21
0000
0001
0100
0020
,  // measure 22
0000
0130
0000
0010
,  // measure 23
0000
1000
0000
0010
0000
0000
0110
0000
,  // measure 24
0000
0000
1000
0000
0001
0010
0001
0000
,  // measure 25
0000
0100
0000
0010
0000
0000
1000
0000
,  // measure 26
0000
0000
1100
0000
0100
0010
0001
0000
,  // measure 27
0000
2000
0000
3010
,  // measure 28
0100
0010
0100
0000
0010
0000
0100
0000
,  // measure 29
0000
0000
0000
0000
1000
0001
0010
0000
,  // measure 30
0000
0100
0000
0010
0000
0001
0010
0000
,  // measure 31
0000
0001
1000
0000
0010
0000
0101
0000
,  // measure 32
0000
0001
1000
0010
,  // measure 33
0000
0100
0010
0110
,  // measure 34
0000
1000
0001
0010
,  // measure 35
0001
0010
0100
0010
0000
0001
0000
1000
,  // measure 36
0000
0011
0000
0000
0001
0000
1000
0000
,  // measure 37
0000
1000
0100
1000
0010
0100
0010
0000
,  // measure 38
0000
0000
0001
0010
0001
0100
0010
0100
,  // measure 39
0000
0100
0010
1001
,  // measure 40
0001
0010
1000
1100
,  // measure 41
0000
0010
0100
0110
,  // measure 42
0100
0110
0010
1000
,  // measure 43
1000
0010
0100
0101
,  // measure 44
0001
0010
0001
0010
0001
0000
1000
0000
,  // measure 45
1000
0000
0000
0100
0000
0000
0010
0000
0001
0000
0000
0000
0000
0000
0000
0000
,  // measure 46
1000
0010
0100
0010
1000
0000
0001
0000
,  // measure 47
1000
0000
0000
0010
0000
0000
0100
0000
0001
0000
0000
0000
0000
0000
0000
0000
,  // measure 48
0100
0000
0010
0100
0010
0001
0010
0000
,  // measure 49
0100
0000
1100
0000
,  // measure 50
0001
0000
0010
0001
0010
0100
0010
0000
,  // measure 51
1000
0001
0000
1001
,  // measure 52
0001
0010
0001
0010
0001
0000
1000
0000
,  // measure 53
0100
0000
0000
0010
0000
0000
0001
0000
0001
0000
0000
0000
0000
0000
0000
0000
,  // measure 54
1000
0100
1000
0100
0010
0000
0001
0000
,  // measure 55
1000
0000
0000
0010
0000
0000
0100
0000
0010
0000
0000
0000
0000
0000
0000
0000
,  // measure 56
0100
0000
0010
0100
0010
0100
0010
0100
,  // measure 57
0002
0003
0000
1000
,  // measure 58
0010
0000
0100
0010
0100
0010
0100
0010
,  // measure 59
2000
3000
0001
0101
,  // measure 60
0000
0200
0300
0020
,  // measure 61
0030
2000
3000
0002
,  // measure 62
0003
2200
3300
0022
,  // measure 63
0033
0000
0001
0010
0001
0010
0200
0000
,  // measure 64
0000
0000
1300
0000
0100
0010
0000
0000
,  // measure 65
0010
0000
0001
0100
0010
1000
0200
0000
,  // measure 66
0000
0000
0301
0000
0100
1000
0000
0000
,  // measure 67
0010
0000
0100
0010
0100
0000
0110
0000
,  // measure 68
0000
1010
0000
0101
,  // measure 69
0000
0011
0000
2000
,  // measure 70
3000
0020
0030
0200
,  // measure 71
0300
0000
0001
0010
0001
0100
0002
0000
,  // measure 72
0000
0000
1003
0000
0010
0100
0000
0000
,  // measure 73
0010
0000
1000
0100
0010
0100
0020
0000
,  // measure 74
0000
0001
0000
0031
,  // measure 75
0000
0010
0100
2200
,  // measure 76
0300
0000
3001
0010
,  // measure 77
0000
0000
0000
0000
0000
0000
0000
0000
0001
0000
0000
0100
0000
0000
0010
0000
,  // measure 78
0000
0100
0000
0010
0000
0100
0010
0000
,  // measure 79
0000
0000
1000
0000
0001
0100
0001
0000
,  // measure 80
0000
1000
0010
0100
,  // measure 81
0000
0000
0000
0000
0000
0000
0010
0000
0000
0000
0000
0100
0000
0000
0000
0010
0000
0000
0000
0100
0000
0000
0000
0010
,  // measure 82
0000
1000
0001
0000
0001
0000
0000
0000
,  // measure 83
0200
0000
0320
0030
0000
0000
0110
0000
,  // measure 84
0100
0010
1000
0001
,  // measure 85
0000
1000
0000
0101
,  // measure 86
0000
0010
0100
0000
,  // measure 87
1000
0000
0100
0000
0000
0010
0001
0010
,  // measure 88
0000
0001
1000
0000
0010
0100
0000
0000
,  // measure 89
0010
1000
1001
0101
,  // measure 90
0010
0011
0010
1100
,  // measure 91
0020
0230
0302
2003
,  // measure 92
0000
3010
0000
0010
,  // measure 93
0100
0010
0000
0100
0010
0000
0000
0000
,  // measure 94
1000
0100
0010
0001
1000
0000
0001
0000
,  // measure 95
0100
0001
0000
0001
0100
0000
0000
0000
,  // measure 96
0010
1000
0010
0100
,  // measure 97
0002
0000
0003
1000
,  // measure 98
1000
0010
0100
0001
,  // measure 99
1000
1000
0000
0101
,  // measure 100
0001
0010
0001
0100
0001
0000
1000
0000
,  // measure 101
0010
0100
0000
0100
1000
0000
0000
0000
,  // measure 102
0001
0100
0001
0100
0010
0000
1000
0000
,  // measure 103
0100
0010
0000
0010
0001
0000
0000
0000
,  // measure 104
1000
0010
0100
0001
,  // measure 105
2000
0000
3000
0001
,  // measure 106
0001
0100
0010
1000
,  // measure 107
0100
0000
0010
0001
0010
0000
0011
0000
,  // measure 108
0000
0000
1000
0000
0010
0000
0100
0001
,  // measure 109
0100
0010
0000
1001
,  // measure 110
0000
1100
0000
0011
,  // measure 111
0000
0000
1000
0100
1000
0100
2000
0000
,  // measure 112
0000
3010
0100
0000
,  // measure 113
0100
0010
0000
2002
,  // measure 114
0003
3001
0100
0000
,  // measure 115
0010
0000
0100
0001
0100
0000
0101
0000
,  // measure 116
0000
1010
0000
0101
,  // measure 117
0000
1100
0000
1010
,  // measure 118
0000
0110
0000
0101
,  // measure 119
0000
0000
0001
0010
0001
0100
0020
0000
,  // measure 120
0000
0000
0130
0000
0010
0100
0000
0000
,  // measure 121
0010
0000
1000
0100
0010
0100
0020
0000
,  // measure 122
0000
0031
0100
0200
,  // measure 123
0000
0000
0000
0310
0000
0100
0000
0010
0000
0100
0000
0000
,  // measure 124
0001
0000
1000
0000
0000
0010
0000
0100
,  // measure 125
0010
0000
0200
0300
,  // measure 126
0001
0000
0010
0000
0000
0100
0000
1000
,  // measure 127
0100
0000
0001
0000
,  // measure 128
0100
0010
0100
0010
,  // measure 129
0001
2000
3020
0000
,  // measure 130
0000
0000
0000
0000
0100
0000
0000
0000
0000
0000
0000
0000
0030
0000
0000
0100
,  // measure 131
0000
0000
0000
0001
0000
0000
2000
0000
,  // measure 132
0000
0000
0001
0000
0000
0001
0000
0000
,  // measure 133
3001
0000
0000
0000
0010
0001
0100
0000
,  // measure 134
0001
0000
0100
0000
0000
0010
0000
1000
,  // measure 135
0010
0000
1000
0100
0010
0001
0010
0000
,  // measure 136
0001
0011
0100
0110
,  // measure 137
2000
3002
0203
0000
,  // measure 138
0000
0010
0000
0300
,  // measure 139
0000
0010
0100
0110
,  // measure 140
0001
1000
0010
1000
0001
0000
1000
0000
,  // measure 141
0100
0010
0001
0010
0100
0000
0000
0000
,  // measure 142
1000
0001
0100
0001
0100
0000
0001
0000
,  // measure 143
0010
0100
1000
0100
0010
0000
0000
0000
,  // measure 144
0001
0101
0010
2000
,  // measure 145
3010
0200
0302
0000
,  // measure 146
0000
0100
0000
1003
,  // measure 147
0000
0010
0000
1000
,  // measure 148
0010
0100
0010
0100
0001
0000
1000
0000
,  // measure 149
0010
0100
0001
1000
0010
0000
0000
0000
,  // measure 150
1000
0100
0010
0100
1000
0000
0001
0000
,  // measure 151
0100
0010
0001
0010
0100
0000
0000
0000
,  // measure 152
0100
0010
0001
0010
,  // measure 153
0100
0010
0002
0000
,  // measure 154
0000
0000
0000
0010
0000
0000
0000
0000
0000
0013
0000
1000
,  // measure 155
0000
0000
0010
0000
0000
0000
1000
0000
0000
0000
0000
0000
0001
0000
0000
0010
0000
0000
0002
0000
0000
0000
0000
0000
,  // measure 156
0000
1000
0100
0003
,  // measure 157
0100
1000
0000
0002
,  // measure 158
0000
0010
0100
0003
,  // measure 159
0010
0000
0001
0000
1000
0010
1000
0000
,  // measure 160
0000
0000
0100
0010
0100
0000
0010
0000
,  // measure 161
0000
0000
0001
0010
0001
0010
0100
0000
,  // measure 162
0000
1100
0000
0010
,  // measure 163
0000
0000
0100
0010
0100
0000
0110
0000
,  // measure 164
0000
1001
0000
0110
,  // measure 165
0000
1010
0000
0002
,  // measure 166
0003
0200
0300
0020
,  // measure 167
0030
0000
1000
0100
0010
0100
1000
0000
,  // measure 168
0100
0010
0100
0000
0000
0000
0010
0001
,  // measure 169
0010
0000
0000
0000
0001
1000
0001
0000
,  // measure 170
1000
0010
0110
0010
,  // measure 171
0000
0000
0000
0100
0000
0010
0000
0100
0000
0001
0000
0000
,  // measure 172
1000
0000
0000
0000
0010
0000
0000
0000
0100
0000
0000
0010
0000
0000
0000
0000
,  // measure 173
1000
0000
1001
0000
0000
0001
0100
0000
,  // measure 174
0010
0000
1000
0000
0001
0100
0000
0000
,  // measure 175
0200
0000
0310
0000
0100
0010
0100
0000
,  // measure 176
0001
0000
1000
0001
1000
0000
0002
0000
,  // measure 177
0003
0000
0100
0010
0100
0001
0100
0000
,  // measure 178
0000
0000
0020
0000
0000
0030
1000
0000
,  // measure 179
0000
0000
0001
1000
0010
0000
1010
0000
,  // measure 180
0000
1100
0000
0011
,  // measure 181
0000
1001
0000
2000
,  // measure 182
3000
0020
0030
0200
,  // measure 183
0300
0002
0000
0103
,  // measure 184
0000
0000
0010
0000
1000
0010
1000
0000
,  // measure 185
0010
0000
0001
0000
0010
0000
1000
0010
,  // measure 186
0100
0001
1000
0010
,  // measure 187
0100
0001
0100
0010
1000
0100
0010
0001
,  // measure 188
1000
0010
1000
0000
0000
0000
0000
0000
,  // measure 189
0000
0000
0000
0022
,  // measure 190
0000
0033
0000
0100
,  // measure 191
0000
0010
0000
2000
,  // measure 192
0000
3000
0000
0000
,  // measure 193
0000
0001
0000
0200
,  // measure 194
0300
0010
0000
0120
,  // measure 195
0000
0000
0030
0000
0000
0000
0200
0000
0000
0000
0300
0000
0000
0000
0000
0020
,  // measure 196
0000
0030
0000
0000
;
