#TITLE:La Peche du Pierrot;
#SUBTITLE:;
#ARTIST:Q-Mex;
#TITLETRANSLIT:;
#SUBTITLETRANSLIT:;
#ARTISTTRANSLIT:;
#GENRE:;
#CREDIT:from pop n music 12;
#BANNER:Q-Mex - La Peche du Pierrot.png;
#BACKGROUND:;
#LYRICSPATH:;
#CDTITLE:;
#MUSIC:Q-Mex - La Peche du Pierrot.mp3;
#OFFSET:-0.318000;
#SAMPLESTART:0.171000;
#SAMPLELENGTH:16.000000;
#SELECTABLE:YES;
#BPMS:0.000000=140.000000
,62.500000=108.137001
,78.750000=108.014999
;
#STOPS:
;
#BGCHANGES:;
#KEYSOUNDS:;
#ATTACKS:;

//---------------dance-single - ----------------
#NOTES:
     dance-single:
     :
     Beginner:
     3:
     0.115188,0.184301,0.020943,0.073302,0.000000,77.000000,75.000000,2.000000,7.000000,0.000000,0.000000,0.115188,0.184301,0.020943,0.073302,0.000000,77.000000,75.000000,2.000000,7.000000,0.000000,0.000000:
0000
0000
0000
0000
,
0000
0000
0000
0000
,
0100
0000
0100
0000
,
0100
0000
0100
0000
,
0100
0000
0001
0000
,
0100
0000
0010
0000
,
0100
0000
0001
0000
,
0010
0000
0000
0000
,
0100
0000
0000
0000
,
0010
0000
0001
0000
,
1000
0000
0000
0000
,
2000
0000
3000
0000
,
0002
0000
0003
0000
,
2000
0000
3000
0000
,
0001
0000
1000
0000
,
0000
0000
0000
0000
,
1000
0000
0000
0010
,
0010
0000
0000
0100
,
0100
0000
0100
0100
,
0100
0000
0010
0000
,
1001
0000
1000
0001
,
0001
0000
1000
0001
,
0001
0000
1000
0100
,
1000
0000
0000
0100
,
0100
0000
0000
0010
,
0010
0000
0100
0000
,
0001
0000
1000
0000
,
0001
0000
0100
0100
,
0100
0000
0010
0000
,
0100
0000
0010
0000
,
0200
0000
0300
0000
,
0001
0000
1000
0000
,
0002
0000
0003
0000
,
2000
0000
3000
0000
,
0002
0000
0003
0000
,
1000
0000
0001
0000
,
0010
0000
0010
0000
,
0100
0000
0000
0000
,
0100
0000
0010
0000
,
0100
0000
0000
0000
,
1001
0000
0000
0000
,
1000
0000
0001
0000
,
1000
0000
0000
0000
,
0001
0000
0001
0001
,
0001
0000
0000
0000
;

//---------------dance-single - ----------------
#NOTES:
     dance-single:
     :
     Easy:
     4:
     0.204945,0.256293,0.073302,0.178018,0.000000,137.000000,130.000000,7.000000,17.000000,0.000000,0.000000,0.204945,0.256293,0.073302,0.178018,0.000000,137.000000,130.000000,7.000000,17.000000,0.000000,0.000000:
0000
0000
0000
0000
,
0000
0000
0000
0000
,
0100
0010
0100
0001
,
0100
0010
0200
0000
,
0301
1000
0002
0000
,
0103
0010
0200
0000
,
0310
0000
0100
0000
,
1000
0000
0001
0000
,
0100
0100
0020
0000
,
1030
1000
0002
0000
,
1003
0000
0100
0000
,
2002
0000
3003
0000
,
1000
0010
1000
0010
,
1000
0100
1000
0100
,
1000
0000
1002
0000
,
0000
0000
0003
0000
,
1000
0001
1000
0010
,
0110
0100
0001
0100
,
0110
0000
0002
0103
,
0100
0001
2000
3000
,
0001
0000
1000
0100
,
0020
0030
0100
1000
,
0002
0003
1000
0100
,
2000
3000
0001
0100
,
0100
0000
0010
0010
,
0020
0030
0100
0001
,
0001
1000
1000
0100
,
0020
0030
0100
0100
,
1100
0000
0010
0010
,
0011
0000
0001
0010
,
0100
0010
0001
0000
,
1000
0001
1000
0001
,
2000
3000
0010
0010
,
0100
0100
0001
0000
,
0100
0010
0100
0001
,
0100
0010
1000
0100
,
0010
0001
0010
0000
,
0010
0001
0010
0000
,
0100
0100
1000
0001
,
0001
1000
0100
0000
,
1100
0000
0100
0100
,
0100
0100
1000
1000
,
0001
0100
0001
0100
,
0001
0000
0100
0001
,
0200
0000
0300
0000
;

//---------------dance-single - ----------------
#NOTES:
     dance-single:
     :
     Medium:
     8:
     0.360524,0.349491,0.136131,0.209433,0.036651,241.000000,228.000000,13.000000,20.000000,0.000000,0.000000,0.360524,0.349491,0.136131,0.209433,0.036651,241.000000,228.000000,13.000000,20.000000,0.000000,0.000000:
// measure 0
0000
0000
0000
0000
,  // measure 1
0000
0000
0000
0000
,  // measure 2
0100
0000
0010
0100
0010
0100
0010
0100
,  // measure 3
0010
0000
0100
0010
0200
0000
0001
0000
,  // measure 4
0301
0000
1000
0100
0020
0000
0130
0000
,  // measure 5
1000
0000
0100
0010
0002
0000
0103
0000
,  // measure 6
0010
0000
0100
0000
0001
0010
0001
0010
,  // measure 7
0001
2000
3001
0000
,  // measure 8
0001
0100
0001
0100
0002
0000
1003
0000
,  // measure 9
1001
0000
1000
0100
0020
0000
0130
0000
,  // measure 10
1000
0000
0110
0000
0102
0000
0000
0103
,  // measure 11
0002
0000
0000
0000
1003
0000
0010
0100
,  // measure 12
0020
0000
0030
0100
0001
0100
0001
0100
,  // measure 13
0002
0000
0103
0010
0100
0010
0100
0000
,  // measure 14
0001
1000
0001
0100
0001
0000
0100
0000
,  // measure 15
0000
0000
0000
0000
,  // measure 16
1000
0000
0000
0000
0001
0000
0000
0001
0000
0000
1000
0000
0010
0000
1000
0000
,  // measure 17
0100
0000
0000
0000
0100
0000
0000
0010
0000
0000
0010
0000
0001
0000
0010
0000
,  // measure 18
0100
0000
0000
1000
0000
0000
0100
0000
1000
0000
0100
0000
1000
0000
0100
0000
,  // measure 19
2000
0000
3001
0010
0001
1000
0100
1000
,  // measure 20
0001
0000
1000
0000
0100
0010
0001
0010
,  // measure 21
0200
0300
1100
0011
,  // measure 22
2200
0000
3300
0000
0001
0010
0100
0010
,  // measure 23
0002
0000
0003
0000
0010
0001
0100
0000
,  // measure 24
0210
0000
0300
0000
0010
0100
0001
0100
,  // measure 25
0020
0000
0030
0000
1000
0100
0010
0100
,  // measure 26
0010
0000
0001
0010
0100
0010
0001
0000
,  // measure 27
1001
0000
1100
0000
1000
0100
1000
0100
,  // measure 28
1000
0001
0001
0010
,  // measure 29
0001
0010
0001
0010
0001
0000
0010
0000
,  // measure 30
0010
0000
0001
0000
0001
0000
0010
0001
,  // measure 31
0010
0001
0010
0001
1000
0000
1000
0001
,  // measure 32
1000
0000
0110
0000
0010
0100
0010
0100
,  // measure 33
0001
0000
1000
0100
0010
0000
0100
0010
,  // measure 34
0001
1010
0100
0011
,  // measure 35
0100
0010
0100
0000
0001
0100
0001
0100
,  // measure 36
0010
0000
1000
0000
0010
0000
1000
0000
0100
0000
0000
0010
0000
0000
0000
0000
,  // measure 37
0001
0000
0010
0000
0001
0000
0010
0000
0100
0000
0000
1000
0000
0000
0000
0000
,  // measure 38
0100
0100
1000
0010
1000
0100
0010
0001
,  // measure 39
1000
0000
0100
1000
0200
0000
1300
0100
,  // measure 40
1000
0000
0000
0000
0100
0000
0000
0000
0100
0000
0000
0010
0000
0000
0000
0000
,  // measure 41
0100
0000
0010
0000
0001
0000
0000
0000
0100
0000
0000
0010
0000
0000
0000
0000
,  // measure 42
2001
0000
3001
0000
0001
0100
0001
0100
,  // measure 43
0001
0000
0100
0001
0010
0001
0010
0000
,  // measure 44
0200
0000
0310
0000
;

//---------------dance-single - ----------------
#NOTES:
     dance-single:
     :
     Hard:
     12:
     0.523582,0.582485,0.125660,0.219904,0.502639,350.000000,338.000000,12.000000,21.000000,0.000000,0.000000,0.523582,0.582485,0.125660,0.219904,0.502639,350.000000,338.000000,12.000000,21.000000,0.000000,0.000000:
0000
0000
0000
0000
,
0000
0000
0000
0000
,
0100
0000
0010
0100
0010
0100
0010
0100
,
0010
0100
0010
0100
0020
0000
1000
0000
,
2030
0000
3100
0010
0001
0010
0100
1000
,
0002
0000
0103
0010
0001
0010
0100
0001
,
0010
0001
0100
0000
0001
0100
0001
0010
,
0002
0000
2003
0000
3100
0010
0001
0000
,
0001
0100
0001
0100
0002
0000
2003
0000
,
3001
0010
1000
0010
0002
0000
0103
0001
,
0010
0001
0100
0010
0200
0000
0001
0301
,
0002
0000
1000
0000
1003
0100
0010
0100
,
0010
0100
1000
0100
0020
0001
0031
0100
,
0002
0000
0103
0010
0100
0001
0100
0000
,
0001
1000
0100
0010
0001
0010
0100
1000
,
0020
0000
0000
0030
0000
0000
0000
0000
,
0011
0000
0000
0000
0001
0000
1000
0001
0000
0000
1000
0000
0110
0000
0011
0000
,
0101
0000
0000
0000
0100
0000
0001
0010
0000
0000
0010
0000
0001
0100
0001
0000
,
0100
0000
0100
0010
0001
0100
0001
0010
,
2000
0000
0000
0000
3001
0000
0010
0000
0001
0000
1000
0100
1000
0000
0000
0000
,
0101
0000
0000
0000
0001
0000
0001
0000
0010
0000
0100
0010
0000
0010
0000
0002
,
0000
0000
0000
0000
1003
0000
0000
0000
1000
0000
0100
0010
0000
0010
0000
0001
,
0000
0000
0000
0000
0001
0000
1000
0000
0001
0000
0010
0100
0000
0100
0000
0010
,
0000
0000
0001
0000
1000
0000
0001
0100
0000
0000
0010
0000
0110
0000
0100
0000
,
0020
0000
0000
0000
1030
0000
0100
0000
0010
0000
0100
0010
0000
0001
0000
0020
,
0000
0000
0000
0000
0031
0000
1000
0100
1000
0000
0100
0000
0010
0100
0000
0100
,
0010
0000
0001
0000
1000
0000
0010
0100
0010
0000
0100
0001
0000
0001
0000
0100
,
0001
0000
0000
0000
1100
0000
0000
0000
1000
0100
0010
0100
1000
0100
0010
0100
,
2000
0000
3001
0010
0000
0001
0010
0000
0001
0000
1000
0020
0000
0000
1030
0000
,
0001
0000
0100
0001
0000
0010
0001
0000
0100
0000
0010
1000
0000
1000
0100
0000
,
0100
0000
0000
1000
0000
0001
0100
0000
0001
0000
0010
0001
0000
1000
0100
0000
,
0010
0000
0001
1000
0000
1000
0002
0000
0000
0000
0003
0000
1001
0000
0001
0000
,
1100
0000
0000
0000
0010
0000
0010
0000
0100
0000
0010
0100
0000
0100
0000
0010
,
0000
0000
0000
0000
1000
0000
0100
0000
0010
0000
0100
0000
0100
1000
0000
0001
,
0000
0000
0000
0000
1000
0001
0100
0000
0001
0000
0010
0001
0000
0001
0000
0010
,
0100
0000
1000
0000
0100
0000
0010
0000
0100
0000
0010
0001
0010
0001
0000
0000
,
0010
0000
0001
1000
0001
1000
0000
0001
1000
0000
0100
1000
0000
0110
0000
0000
,
0001
0000
0010
0001
0010
0001
0000
0000
0001
1000
0001
1000
0001
1000
0000
0100
,
0010
0000
0001
0100
0001
0100
0000
0001
0100
0010
0000
0100
0000
1000
0000
0100
,
0010
0000
0100
0010
0100
0010
0000
0100
0000
0001
0010
0100
1000
0100
1000
0100
,
1000
0000
0100
0000
0010
0001
0000
0010
0001
0000
0000
0001
0000
0110
0000
0000
,
0100
0000
0001
0010
0001
0010
0000
0001
0100
0000
0000
0110
0000
1000
0010
0000
,
1000
0000
0100
1000
0100
1000
0000
0010
0100
0010
0000
0100
0000
0001
0100
0000
,
0001
0000
0100
0001
0100
0010
0100
0000
0010
0100
0010
0000
0100
0010
0100
0000
,
0200
0010
0310
0000
;
