#VERSION:0.83;
#TITLE:LUVxREVO;
#SUBTITLE:;
#ARTIST:Kanako Hoshino, TAG with PON;
#TITLETRANSLIT:;
#SUBTITLETRANSLIT:;
#ARTISTTRANSLIT:;
#GENRE:;
#ORIGIN:;
#CREDIT:from pop n music 21 Sunny Park;
#BANNER:20160605175251!SP_DIVA_POP.png;
#BACKGROUND:;
#PREVIEWVID:;
#JACKET:;
#CDIMAGE:;
#DISCIMAGE:;
#LYRICSPATH:;
#CDTITLE:;
#MUSIC:LUVxREVO.ogg;
#OFFSET:-0.424000;
#SAMPLESTART:47.487000;
#SAMPLELENGTH:16.100000;
#SELECTABLE:YES;
#BPMS:0.000=181.000;
#STOPS:;
#DELAYS:;
#WARPS:;
#TIMESIGNATURES:0.000=4=4;
#TICKCOUNTS:0.000=4;
#COMBOS:0.000=1;
#SPEEDS:0.000=1.000=0.000=0;
#SCROLLS:0.000=1.000;
#FAKES:;
#LABELS:0.000=Song Start;
#BGCHANGES:;
#KEYSOUNDS:;
#ATTACKS:
;

//---------------dance-single - ----------------
#NOTEDATA:;
#CHARTNAME:;
#STEPSTYPE:dance-single;
#DESCRIPTION:;
#CHARTSTYLE:;
#DIFFICULTY:Beginner;
#METER:5;
#RADARVALUES:0.219546,0.279756,0.082823,0.036810,0.000000,167.000000,158.000000,9.000000,4.000000,0.000000,0.000000,0.000000,0.000000,0.000000,0.219546,0.279756,0.082823,0.036810,0.000000,167.000000,158.000000,9.000000,4.000000,0.000000,0.000000,0.000000,0.000000,0.000000;
#CREDIT:;
#NOTES:
// measure 0
0000
0000
0000
0000
,  // measure 1
0000
0000
0000
0000
,  // measure 2
0001
0000
1000
0010
,  // measure 3
0100
0000
0001
0100
,  // measure 4
0010
0000
1000
0000
,  // measure 5
0001
0000
0100
0010
,  // measure 6
0100
0000
0001
0000
,  // measure 7
1000
0000
1000
0000
,  // measure 8
0001
0010
0001
0000
,  // measure 9
1000
0100
1000
0000
,  // measure 10
0001
0100
0001
0000
,  // measure 11
0100
0010
0100
0000
,  // measure 12
0001
0000
1000
0000
,  // measure 13
0001
1000
0001
0000
,  // measure 14
0100
0010
0100
0000
,  // measure 15
0010
0000
1000
0000
,  // measure 16
0001
0000
0100
0000
,  // measure 17
0001
1000
0001
0000
,  // measure 18
1000
0000
0100
0000
,  // measure 19
0010
0001
0001
0000
,  // measure 20
0001
0000
1000
0000
,  // measure 21
0010
0000
0100
0000
,  // measure 22
0001
0000
1000
0000
,  // measure 23
0001
0000
0100
0000
,  // measure 24
0110
0000
0010
0000
,  // measure 25
0010
0000
0100
0000
,  // measure 26
0110
0000
0100
0000
,  // measure 27
0100
0000
0010
0000
,  // measure 28
1010
0000
0100
0000
,  // measure 29
0001
0000
0000
0000
,  // measure 30
1010
0000
0100
0000
,  // measure 31
0001
0000
0100
0000
,  // measure 32
0020
0000
0000
0030
,  // measure 33
0100
0000
0000
0000
,  // measure 34
0100
0000
0100
0000
,  // measure 35
0100
0100
0100
0000
,  // measure 36
1001
0000
0001
0000
,  // measure 37
1000
0100
0010
0001
,  // measure 38
1000
0000
0001
0000
,  // measure 39
1000
0000
0000
0000
,  // measure 40
1001
0000
0000
0000
,  // measure 41
0001
0000
0100
0000
,  // measure 42
0010
0000
0000
0000
,  // measure 43
0100
0100
0100
0000
,  // measure 44
1001
0000
0001
0000
,  // measure 45
1000
0001
1000
0001
,  // measure 46
0100
0000
0001
0000
,  // measure 47
0010
0000
0100
0000
,  // measure 48
1000
0000
0001
0000
,  // measure 49
0100
0000
0001
0000
,  // measure 50
1000
0000
1000
0000
,  // measure 51
1000
0001
1000
0000
,  // measure 52
0002
0000
0000
0000
,  // measure 53
0003
0000
0000
0000
,  // measure 54
1001
0000
1000
0000
,  // measure 55
0001
0000
0100
0010
,  // measure 56
0100
0000
0001
0000
,  // measure 57
1000
0000
0010
0000
,  // measure 58
0010
0000
0100
0000
,  // measure 59
0002
0000
0000
0003
,  // measure 60
1000
0000
0000
0000
,  // measure 61
0001
1000
0001
0000
,  // measure 62
1000
0000
0100
0000
,  // measure 63
0010
0001
0001
0000
,  // measure 64
0001
0000
0100
0000
,  // measure 65
0010
0000
1000
0000
,  // measure 66
0001
0100
0010
0000
,  // measure 67
1000
0100
0010
0000
,  // measure 68
0001
0000
0000
0000
,  // measure 69
1000
0000
0000
0000
,  // measure 70
1000
0000
0001
0000
,  // measure 71
0100
0000
0010
0000
,  // measure 72
0110
0000
0100
0000
,  // measure 73
0001
0000
1000
0000
,  // measure 74
0001
0000
0100
0000
,  // measure 75
0010
0000
0200
0000
,  // measure 76
0300
0000
0000
0000
;

//---------------dance-single - ----------------
#NOTEDATA:;
#CHARTNAME:;
#STEPSTYPE:dance-single;
#DESCRIPTION:;
#CHARTSTYLE:;
#DIFFICULTY:Easy;
#METER:8;
#RADARVALUES:0.411484,0.454604,0.312885,0.230063,0.000000,313.000000,279.000000,34.000000,25.000000,0.000000,0.000000,0.000000,0.000000,0.000000,0.411484,0.454604,0.312885,0.230063,0.000000,313.000000,279.000000,34.000000,25.000000,0.000000,0.000000,0.000000,0.000000,0.000000;
#CREDIT:;
#NOTES:
0000
0000
0000
0000
,
0000
0000
0000
0000
,
0000
0000
0000
0000
,
0000
0000
0000
0000
,
0100
0000
0010
0000
0100
0001
0000
0001
,
0000
1000
0000
0001
0000
0100
0001
0000
,
0101
0000
1010
0000
0100
0001
0000
0001
,
0000
1000
0000
1000
0010
0000
0000
0000
,
1000
0010
1000
0001
,
0100
0010
0100
0000
,
2000
0000
3001
0000
0100
0001
0000
0001
,
0000
1000
0000
0010
0000
0000
1001
0000
,
0010
0100
1000
0011
,
0001
0100
0010
0110
,
1000
0001
1000
1001
,
0010
0000
0001
0010
0000
0010
0001
0000
,
0001
0000
1000
0000
0010
0100
0000
0001
,
0000
1000
0000
0010
0000
0100
0010
0000
,
1010
0000
0010
0000
0100
0001
0000
0010
,
0000
0100
0000
1000
0000
0100
1000
0000
,
0020
0030
0200
0300
,
2002
3003
0202
0303
,
0100
0010
0100
0011
,
0110
0000
1000
0100
0000
0010
0001
0000
,
1001
0000
0010
0000
0100
0000
0001
1000
,
0000
0001
0000
1000
0100
0000
1100
0000
,
0010
0000
0001
0000
1000
0000
0001
0100
,
0000
0100
0000
0001
1000
0000
0010
0000
,
2000
3000
0002
1003
,
0001
1000
0001
0000
1000
0000
0010
0000
,
0200
0000
0300
0001
1000
0000
0100
0000
,
1100
0001
1000
1001
,
0220
0000
0330
0000
0001
0000
1000
0001
,
1000
0000
0001
0000
0100
0010
1000
0000
,
0010
0000
0100
0000
0010
0000
0100
0010
,
0000
0010
0100
0000
0002
0000
0003
0000
,
1000
0000
0001
1000
0000
0100
0000
0010
,
0000
0001
0000
0000
1000
0001
1000
0000
,
0010
0000
0010
0100
0000
0001
0000
1000
,
0000
0001
0000
0000
0100
0000
0010
0000
,
0220
0000
0330
0000
,
1001
0001
1100
0010
,
0022
0000
0033
0000
0001
0000
1000
0001
,
0000
1000
0001
0100
,
0101
0000
0010
0100
0000
0001
0000
1000
,
0000
0001
0000
0000
0100
0000
0010
0000
,
0110
0000
0100
0010
0000
1000
0000
0001
,
0000
0100
0000
0000
0010
0000
0100
0000
,
0002
0003
1000
0001
,
1000
0010
0100
0010
,
0110
0000
0100
0010
0000
0100
0000
0001
,
0000
1000
0001
0000
0100
0000
0100
0000
,
0220
0000
0000
0000
,
0000
0330
0000
0001
,
1001
0000
1000
0000
0001
0100
0000
0001
,
0000
0100
0000
0010
0000
0100
0001
0000
,
1001
0000
1000
0000
0010
0100
0000
0010
,
0000
1000
0000
0010
0000
0100
0001
0000
,
0101
1010
0001
0110
,
1000
0001
0100
0010
,
0200
0000
0301
0001
,
2000
0000
0000
3000
,
0001
0100
0002
0003
,
1001
0110
1001
0000
,
0002
0000
1003
0100
,
0010
0000
0001
0100
,
0010
0000
1000
0000
0001
0100
0001
0000
,
1000
0010
0101
0000
,
1001
0000
0001
0000
0100
0001
0000
1000
,
0000
0001
0000
0100
0000
0001
0100
0000
,
0010
0000
0100
0000
0001
1000
0000
1000
,
0000
0001
0000
0001
0000
0100
0010
0000
,
0100
0000
0010
0000
1000
0100
0000
0100
,
0000
0010
0000
0001
0000
1000
0001
0000
,
0001
0000
0001
0000
0001
0100
0000
0010
,
0000
0100
0000
0010
0200
0000
0000
0000
,
0300
0000
0000
0000
;

//---------------dance-single - ----------------
#NOTEDATA:;
#CHARTNAME:;
#STEPSTYPE:dance-single;
#DESCRIPTION:;
#CHARTSTYLE:;
#DIFFICULTY:Medium;
#METER:10;
#RADARVALUES:0.500879,0.524543,0.349695,0.340493,0.000000,381.000000,343.000000,38.000000,37.000000,0.000000,0.000000,0.000000,0.000000,0.000000,0.500879,0.524543,0.349695,0.340493,0.000000,381.000000,343.000000,38.000000,37.000000,0.000000,0.000000,0.000000,0.000000,0.000000;
#CREDIT:;
#NOTES:
0000
0000
0000
0000
,
0000
0000
0000
0000
,
0000
0000
0000
0000
,
0000
0000
0000
0000
,
0100
0000
0010
0000
0100
0001
0000
0110
,
0000
1001
0000
0101
0000
0100
0001
0100
,
0010
0000
1010
0000
0100
0010
0000
1000
,
0000
1001
0000
0001
0100
0000
0020
0000
,
1030
0000
0010
0000
1000
0001
0000
0200
,
0000
0300
0010
1000
0010
0000
0110
0000
,
0001
0000
0001
0000
0100
0010
0000
0100
,
0000
0001
0000
0010
0000
0100
1000
0000
,
0020
0000
0130
0001
0000
0000
1000
0020
,
0000
0000
0130
0010
0100
0000
0010
1000
,
0001
1000
0100
0010
,
0002
0000
0003
0200
0000
0300
0001
0000
,
1001
0000
1010
0000
0010
0100
0000
0100
,
0000
0010
0000
1000
0000
0100
0010
0000
,
0011
0000
0001
0000
0100
0001
0000
0100
,
0000
0010
0000
1000
0000
0100
1000
0010
,
1000
0000
0010
0200
0000
0302
0000
2003
,
0000
0000
3001
0000
0100
0001
0100
0000
,
0011
0001
0100
0010
,
2000
0000
0000
3200
0000
0300
0010
0001
,
1000
0000
0010
0000
0110
0000
0001
1000
,
0000
0101
0000
0100
0010
0000
1000
0010
,
0100
0000
0101
0000
1010
0000
0001
0010
,
0100
1000
0000
0001
1000
0000
0010
0100
,
0002
0000
0003
0000
1000
0010
0000
0010
,
2000
0000
0000
3000
0001
0000
0100
0010
,
0200
0000
0300
0001
1000
0000
0100
0000
,
1100
0011
1000
0001
,
0220
0000
0330
0200
0000
0000
0301
0000
,
1000
0100
0010
0000
0010
0001
1000
0000
,
0010
0000
0100
0010
0000
0000
0100
0010
,
0000
0010
0100
0000
0001
1000
0001
1000
,
0002
0000
1003
1000
0000
0010
0000
0100
,
0000
0001
0000
0000
1000
0100
1000
0100
,
0010
0000
0010
0001
0000
0001
0000
1000
,
0000
0101
0000
0000
0100
0010
0100
0010
,
0200
0000
0000
0320
0000
0000
0130
0000
,
1001
1100
0011
1010
,
0202
0000
0303
0000
0001
0000
1000
0001
,
0000
1000
0001
0000
0001
0010
0100
1000
,
0001
0000
0010
0100
0000
0100
0000
1000
,
0100
0010
0000
0000
0001
1000
0010
0100
,
0001
0000
0100
0010
0000
0010
0000
1000
,
0010
0100
0000
0000
0010
0100
0010
1000
,
0002
0000
0003
2000
0000
0000
3001
0100
,
0001
1000
0110
0001
,
1010
0000
1000
0010
0000
0100
0000
0001
,
0000
1000
1000
0000
0010
0000
0100
0010
,
0200
0000
0010
0000
0010
0010
0000
0010
,
0000
0010
0300
0010
0000
1000
0001
1000
,
0001
0000
1100
0000
0001
0100
0000
0001
,
0000
0110
0000
0020
0030
0100
0010
1000
,
0010
0000
1010
0000
0001
0100
0000
0001
,
0000
1001
0000
0200
0300
0001
1000
0001
,
1000
0010
0100
0101
,
0001
1000
0001
0000
0200
0000
0302
0000
,
0203
0000
0000
0001
0300
0001
0000
0000
,
2000
0010
0010
3010
,
0100
0001
1000
0001
0100
0000
0010
1000
,
0001
0100
0100
0010
1000
0000
0001
0100
,
0002
0000
0103
0010
2000
0000
3001
0000
,
0020
0000
0030
0000
0001
1000
0010
0100
,
0020
0000
0030
0200
0000
0300
0001
0000
,
1001
0000
0100
0000
0001
1000
0001
1000
,
0010
0000
0100
0000
0100
0001
0000
1001
,
0000
0001
0100
0001
0000
1000
0100
0010
,
0001
0000
0100
0000
0001
1000
0000
1100
,
0000
0011
0000
0101
0000
0100
0010
0100
,
0010
0000
0010
0000
1000
0100
0000
0011
,
0000
0001
0010
0001
0000
1000
0001
0010
,
0100
0000
1000
0000
1000
0001
0000
0110
,
0000
0110
0000
0010
0200
0000
0000
0000
,
0300
0000
0000
0000
;

//---------------dance-single - ----------------
#NOTEDATA:;
#CHARTNAME:;
#STEPSTYPE:dance-single;
#DESCRIPTION:;
#CHARTSTYLE:;
#DIFFICULTY:Hard;
#METER:13;
#RADARVALUES:0.628400,0.729529,0.303683,0.395708,0.069019,478.000000,445.000000,33.000000,43.000000,0.000000,0.000000,0.000000,0.000000,0.000000,0.628400,0.729529,0.303683,0.395708,0.069019,478.000000,445.000000,33.000000,43.000000,0.000000,0.000000,0.000000,0.000000,0.000000;
#CREDIT:;
#NOTES:
0000
0000
0000
0000
,
0000
0000
0000
0000
,
0000
0000
0000
0000
,
0000
0000
0000
0000
,
0100
0000
0010
1000
0100
0010
0000
0010
,
0100
1000
0000
0202
0303
0001
0100
0010
,
0100
0000
0010
1000
0100
0010
0000
0011
,
0000
0000
0101
0000
0000
0000
0001
0000
0100
0000
0000
0000
0020
0000
0130
0010
,
0100
0000
0010
0100
0001
0100
0000
0010
,
0100
0001
0010
1000
0010
0000
0011
0000
,
0001
0000
1000
0010
0100
0010
0000
0100
,
0010
0010
0000
0010
1000
0001
1000
0000
,
1100
1000
0100
1000
0100
0010
0001
0020
,
0000
0000
0001
0000
0130
0000
0010
0100
0010
0000
1000
0000
0010
0000
1000
0000
,
1001
0000
1010
0000
0100
0010
0100
0000
,
0001
0011
0000
0210
0000
0310
0010
0100
,
0110
0000
1010
0000
0010
0100
0000
0100
,
0010
0000
0100
0000
0000
0000
0001
0000
1000
0000
0001
0000
0100
0000
0010
0100
,
0001
0000
0001
0000
0100
0010
1000
0001
,
0000
0000
0001
0000
1000
0000
0001
0000
0000
0000
1000
0000
0100
0000
0010
0001
,
0100
0000
0001
0020
0030
0200
0300
2000
,
3000
0000
0100
0000
0010
0000
0001
0000
0100
0000
0001
0100
0001
0000
0000
0000
,
0110
0001
0100
0010
,
1000
0000
0010
0000
0100
0000
0010
0000
0000
0000
0100
0000
0010
0000
0100
0010
,
0100
0000
0001
0100
0101
0000
0001
1001
,
0000
0100
0010
0100
0010
0000
1000
0000
,
0100
0000
0010
0001
0010
0000
0001
1000
,
0010
0100
0000
0100
0001
0000
1000
0001
,
2000
0000
3010
0100
0010
0100
0001
1000
,
0100
0001
0100
0001
0100
1000
0100
0010
,
0002
0000
0003
1000
0002
0000
0103
0010
,
0100
0000
0010
0001
1000
0000
0100
0001
,
0200
0000
0300
0202
0000
0003
0301
1000
,
0000
0000
0100
0000
0010
0000
0001
0000
0100
0000
0010
0100
0010
0000
0000
0000
,
0110
0000
0000
0000
0100
0000
0010
0000
0100
0010
0100
0010
0100
0010
0100
0000
,
0000
0110
0110
0000
0001
1000
0001
1000
,
0002
0000
1003
0100
0010
0001
1000
0001
,
1000
0100
0010
0001
1000
0100
0100
0010
,
0020
0000
0031
1000
0010
0100
0000
2020
,
3030
0202
0303
0000
0010
0100
0010
0100
,
0020
0000
0130
0010
0100
0001
1000
0000
,
0001
0100
0010
0000
0010
1000
0100
0000
,
0010
0001
0010
0001
1000
0100
1000
0001
,
0000
1000
0001
0000
0100
0010
0100
1000
,
0100
0000
0001
0100
0000
0010
1000
0100
,
0000
0010
0011
0000
0001
1000
0010
0100
,
0101
0000
0100
0010
0000
0100
0000
0202
,
0303
2002
3003
0000
0001
0100
0010
1000
,
0200
0000
0310
0002
0000
0000
0103
0001
,
0100
0000
0010
1000
0010
0000
0010
0001
,
0010
0000
1000
0010
0100
0001
0000
1001
,
0000
1000
0010
0100
0010
0000
0110
0000
,
0200
0000
0310
0100
0010
0100
0000
0010
,
1000
0010
0000
0020
0030
1000
0100
0010
,
0011
0000
1000
0001
0100
0100
0000
0010
,
0000
0200
0300
0220
0330
0010
1000
0001
,
0010
0000
0010
0100
1000
0001
0000
0001
,
1000
0010
0000
0200
0300
0001
0100
0001
,
0100
0010
1000
0001
0010
0001
0100
0001
,
0010
0000
0001
0000
1000
0000
0010
0000
0100
0010
0100
0010
0100
0000
0000
0000
,
0020
0000
0000
0000
0000
0000
0100
0000
0030
0000
0100
0000
0010
0100
0010
0000
,
2000
0000
3010
0100
0010
0000
0010
1000
,
0001
0000
1000
0100
1000
0000
0000
0000
0100
0000
0010
0000
0100
0000
0010
0000
,
0001
1000
0001
1000
0010
0000
0100
0010
,
0100
0000
0010
0100
0010
0000
0200
0000
0000
0000
0320
0000
0030
0000
0100
0000
,
0000
0010
0000
0000
2000
3010
0100
0100
,
0002
0000
0103
0020
0000
0130
0001
1000
,
0001
0100
0010
0200
0000
0310
0110
0000
,
1001
0000
0100
0010
0100
0001
0000
1000
,
0010
0100
0000
0002
0000
1003
0100
0010
,
0001
0000
0100
0100
0010
1000
0000
0010
,
0010
0100
0000
0101
0000
0010
0100
0010
,
0100
0000
0010
1000
0001
0001
0000
1000
,
0001
1000
0000
0002
0000
1003
0010
0100
,
0001
0000
1000
0100
1000
0100
0000
0010
,
0000
0001
0000
0110
0110
0000
0000
0000
;
