#TITLE:LOVE BOX;
#SUBTITLE:;
#ARTIST:Megumi upper-slope;
#TITLETRANSLIT:;
#SUBTITLETRANSLIT:;
#ARTISTTRANSLIT:;
#GENRE:;
#CREDIT:from pop n music 10 cs / pop n music 12;
#BANNER:Megumi upper-slope - LOVE BOX.png;
#BACKGROUND:;
#LYRICSPATH:;
#CDTITLE:;
#MUSIC:Megumi upper-slope - LOVE BOX.mp3;
#OFFSET:-0.096000;
#SAMPLESTART:8.730000;
#SAMPLELENGTH:17.000000;
#SELECTABLE:YES;
#BPMS:0.000000=114.000000
;
#STOPS:
;
#BGCHANGES:;
#KEYSOUNDS:;
#ATTACKS:;

//---------------dance-single - ----------------
#NOTES:
     dance-single:
     :
     Beginner:
     2:
     0.110400,0.137172,0.025760,0.064400,0.000000,60.000000,58.000000,2.000000,5.000000,0.000000,0.000000,0.110400,0.137172,0.025760,0.064400,0.000000,60.000000,58.000000,2.000000,5.000000,0.000000,0.000000:
0000
0000
0000
0000
,
0000
0000
0000
0000
,
0000
0000
0000
0000
,
0100
0000
0010
0000
,
1000
0000
0001
0000
,
1000
0000
0001
0000
,
0100
0000
0010
0000
,
0100
0000
0001
0000
,
1000
0000
0001
0000
,
0001
0000
1000
0000
,
0002
0000
0003
0000
,
2000
0000
3000
0000
,
0001
0000
1000
0000
,
0001
0001
0001
0000
,
1000
0000
0001
0000
,
1000
1000
1000
0000
,
0010
0000
0010
0000
,
0100
0000
0010
0000
,
0100
0000
0001
0000
,
0001
0000
1000
0000
,
0001
0000
0001
0000
,
1000
0000
0000
0000
,
1001
0000
0001
0000
,
1000
0000
0001
0000
,
1000
0000
0001
0000
,
0001
0000
1000
0000
,
0002
0000
0000
0000
,
0103
0000
0001
0000
,
1000
0000
0000
0000
,
1000
0000
1000
0000
,
0001
0000
0000
0000
,
0001
0000
1000
0000
,
1000
0000
0000
0000
,
1000
0000
0000
0000
,
2002
0000
0000
0000
,
3003
0000
1000
0000
;

//---------------dance-single - ----------------
#NOTES:
     dance-single:
     :
     Easy:
     4:
     0.196879,0.254138,0.064400,0.025760,0.000000,107.000000,102.000000,5.000000,2.000000,0.000000,0.000000,0.196879,0.254138,0.064400,0.025760,0.000000,107.000000,102.000000,5.000000,2.000000,0.000000,0.000000:
0000
0000
0000
0000
,
0000
0000
0000
0000
,
0100
0010
0100
0001
,
0101
0010
0100
0110
,
0100
0001
1000
0001
,
1000
0100
0010
0001
,
0000
0100
0010
1000
,
0100
0010
0001
1000
,
0000
0001
0010
0001
,
0010
0100
1000
0001
,
1000
1000
0000
0001
,
0001
0000
1000
0001
,
1001
0000
1000
0100
,
0001
0000
0100
1000
,
1000
0000
0100
0000
,
1000
0000
0001
0100
,
0010
0000
0100
0100
,
0100
0100
0100
0000
,
0010
0000
0010
0010
,
0010
0010
0010
0000
,
0100
0000
0001
0001
,
1000
0000
1000
1000
,
0001
0000
1001
0000
,
0100
0000
1000
0000
,
0001
0000
0001
0001
,
0001
1000
1000
1000
,
0002
0000
1003
0000
,
0100
0000
0010
0000
,
0011
0000
0000
0000
,
1000
1000
1000
0100
,
0010
0001
0001
0001
,
0001
0000
1000
0100
,
1000
0010
1000
0100
,
1000
0000
0100
0100
,
0200
0000
0000
0000
,
0300
0000
0000
0000
1000
0000
0000
0001
;

//---------------dance-single - ----------------
#NOTES:
     dance-single:
     :
     Medium:
     8:
     0.329359,0.369655,0.051520,0.012880,0.038640,179.000000,175.000000,4.000000,1.000000,0.000000,0.000000,0.329359,0.369655,0.051520,0.012880,0.038640,179.000000,175.000000,4.000000,1.000000,0.000000,0.000000:
0000
0000
0000
0000
,
0000
0000
0000
0000
,
0100
0000
0010
0100
0010
0000
0100
0010
,
0100
0000
0001
1000
0001
0000
1000
0100
,
0010
0100
1000
0000
0001
0000
0000
0100
,
0000
0010
0000
0100
0000
0001
0000
0010
,
0100
0000
1000
0000
0000
0100
0000
1000
,
0000
0100
0000
0010
0000
1000
0000
0000
,
0001
0010
0001
0000
0000
0100
0000
0010
,
0000
0100
0000
0001
0000
0100
0000
0100
,
0001
0000
1000
0000
0010
0000
0100
0010
,
0010
0000
0100
0010
0100
0000
0010
0100
,
0100
0000
0101
0000
1000
0100
0000
1000
,
0000
0100
0000
0010
0001
0010
0000
0100
,
1000
0000
0001
0000
0100
0001
0000
0010
,
0000
0001
0000
0100
0000
1000
0000
0100
,
0010
0000
0100
0010
0100
0000
0001
1000
,
0001
0000
1000
0001
1000
0000
0001
0001
,
0001
0000
0000
0000
0000
0000
1000
0000
0000
0001
0000
0000
0100
0000
0000
0000
,
0010
0000
0000
0100
0000
0000
0001
0000
0000
0100
0000
0000
0010
0000
0000
0000
,
0110
0000
0010
0000
0100
0100
0001
0000
,
0010
1000
1000
0000
0010
0000
0001
0001
,
0001
0000
1000
0100
0010
0100
1000
0100
,
0010
0100
0010
0001
0000
0001
0000
1000
,
0001
0000
0001
0000
1000
0100
0100
0000
,
0001
0100
0100
0000
0010
0000
0001
1000
,
0001
0000
1000
0000
0100
0000
0010
0100
,
1000
0100
0010
0100
1000
0100
0010
0100
,
1000
0000
0000
0000
0000
0000
0000
0000
0001
0000
0000
0001
0000
0000
0000
0000
,
1000
0000
0000
1000
0000
0000
0000
0000
0001
0000
0000
0100
0000
0000
0000
0000
,
0010
0100
0010
0000
0010
1000
0010
0000
,
0100
0001
0100
0000
0010
0000
0010
0000
,
0110
0000
1001
0000
1000
0100
1000
0010
,
0100
0000
0001
0010
0100
1000
0100
0010
,
0002
0000
0000
1000
0000
1000
0000
1000
,
0003
1000
0000
0100
0000
0010
0000
0100
;

//---------------dance-single - ----------------
#NOTES:
     dance-single:
     :
     Hard:
     13:
     0.537278,0.508275,0.103040,0.283359,0.650438,292.000000,284.000000,8.000000,22.000000,0.000000,0.000000,0.537278,0.508275,0.103040,0.283359,0.650438,292.000000,284.000000,8.000000,22.000000,0.000000,0.000000:
// measure 0
0000
0000
0000
0000
,  // measure 1
0000
0000
0000
0000
,  // measure 2
0100
0000
0010
0100
0010
0000
0100
0010
0100
0000
0000
0100
0010
0000
0010
0100
,  // measure 3
0001
1000
2001
0000
3001
0010
1000
0010
,  // measure 4
0010
0000
0001
0000
1000
0000
0001
0000
0001
1000
0000
0010
0000
0000
0100
0010
,  // measure 5
0100
0000
0010
0000
0100
0000
0001
1000
0000
1000
0001
0000
0100
0000
0010
0000
,  // measure 6
0110
0000
0010
0000
1000
0000
0100
0000
0100
1000
0000
0001
0000
1000
0001
1000
,  // measure 7
0001
0000
0000
0100
0000
0010
0000
0100
0000
0001
1000
0001
1000
0000
0000
0000
,  // measure 8
0001
0000
0010
0001
0020
0000
0130
0000
0100
0010
0000
0010
0000
0001
1000
0001
,  // measure 9
1000
0000
0100
0000
0010
0000
0001
1000
0000
1000
0100
0010
0000
0000
0000
0000
,  // measure 10
0001
0000
1000
0000
0100
0000
0010
0000
0001
0000
0001
0010
0100
0000
0010
0000
,  // measure 11
0000
0000
0001
0000
0100
0000
0010
0000
0100
0000
0001
0000
0010
0100
0000
0100
,  // measure 12
1000
0000
0000
0000
0102
0000
0000
0003
1000
0010
0100
0000
0000
1000
0100
0000
,  // measure 13
0000
0010
0001
0000
0000
1000
0010
0100
0010
0100
0000
0010
0000
0000
0100
0000
,  // measure 14
0001
0000
0000
0000
1200
0000
0000
0300
1000
0001
0100
0000
0001
0000
0100
0001
,  // measure 15
0000
0000
0001
0000
0001
0010
0000
0100
0000
1000
0000
0100
0010
0000
0001
0000
,  // measure 16
0020
0000
0030
0000
0100
0000
0010
0000
0001
0100
0000
0001
0000
1000
0000
0002
,  // measure 17
0000
0000
0003
0000
0000
0100
1000
0100
1000
0100
0000
0001
0010
0001
0000
0000
,  // measure 18
0001
0000
0000
0100
0000
0000
0010
0000
0000
0001
0010
0000
0100
0000
0010
0000
,  // measure 19
1000
0100
0000
0100
0000
0010
0001
0010
0000
0100
0000
0010
0100
0000
0000
0000
,  // measure 20
0110
0000
0000
0000
0010
0100
0000
0100
0000
0010
0000
0010
0000
0001
1000
0010
,  // measure 21
2000
0000
3100
0020
0000
0000
0031
0200
0000
0000
0301
0000
1000
0000
0001
1000
,  // measure 22
0000
0000
0020
2000
0030
0000
3200
0002
0300
0000
0003
0000
0010
0100
0010
0000
,  // measure 23
0001
0100
0010
0000
1000
0100
0010
0000
0001
0010
0100
0000
0010
0000
0001
0000
,  // measure 24
0100
0000
0000
0000
0001
1000
0000
0100
0000
0010
0000
0001
0000
0100
0010
1000
,  // measure 25
0002
0000
0103
0020
0000
0000
0130
0002
0000
0000
1003
0000
0001
0000
1000
0100
,  // measure 26
1000
0000
0000
0000
1000
0000
0100
0010
0100
0010
0100
0010
0100
0010
0001
0000
,  // measure 27
2000
0100
3002
0100
2003
0010
3010
0100
,  // measure 28
0010
0000
0000
0000
0100
0000
0001
0010
0001
0000
1000
0000
1100
0000
0000
0000
,  // measure 29
0001
1000
0000
0000
0001
0100
0000
0000
0010
0001
0000
0000
1000
0000
0000
0000
,  // measure 30
0100
0010
0001
0010
0100
0000
2002
3003
,  // measure 31
0100
0000
0010
0000
0100
0000
0010
0001
0010
0000
0000
0100
0010
0000
0001
0000
,  // measure 32
1000
0000
0001
0000
0001
1000
0000
0100
0000
0010
0000
0001
0000
0000
0101
0000
,  // measure 33
0000
0000
0001
0000
0010
0100
0000
0100
1000
0100
0000
0100
0000
0000
1000
0000
,  // measure 34
0002
0000
1003
0100
0010
0100
1000
0100
,  // measure 35
0000
1000
0000
0100
0000
0010
0100
0010
;
