#VERSION:0.83;
#TITLE:LAZY GIRL;
#SUBTITLE:;
#ARTIST:KMJ Taro;
#TITLETRANSLIT:;
#SUBTITLETRANSLIT:;
#ARTISTTRANSLIT:;
#GENRE:;
#ORIGIN:;
#CREDIT:from pop n music 11 AC / 9 CS;
#BANNER:KMJ Taro - LAZY GIRL.png;
#BACKGROUND:;
#PREVIEWVID:;
#JACKET:;
#CDIMAGE:;
#DISCIMAGE:;
#LYRICSPATH:;
#CDTITLE:;
#MUSIC:KMJ Taro - LAZY GIRL.ogg;
#OFFSET:-0.054000;
#SAMPLESTART:55.160999;
#SAMPLELENGTH:16.000000;
#SELECTABLE:YES;
#BPMS:0.000=160.000;
#STOPS:;
#DELAYS:;
#WARPS:;
#TIMESIGNATURES:0.000=4=4;
#TICKCOUNTS:0.000=4;
#COMBOS:0.000=1;
#SPEEDS:0.000=1.000=0.000=0;
#SCROLLS:0.000=1.000;
#FAKES:;
#LABELS:0.000=Song Start;
#BGCHANGES:;
#KEYSOUNDS:;
#ATTACKS:
;

//---------------dance-single - ----------------
#NOTEDATA:;
#CHARTNAME:;
#STEPSTYPE:dance-single;
#DESCRIPTION:;
#CHARTSTYLE:;
#DIFFICULTY:Beginner;
#METER:2;
#RADARVALUES:0.069022,0.124632,0.010981,0.010981,0.000000,44.000000,43.000000,1.000000,1.000000,0.000000,0.000000,0.000000,0.000000,0.000000,0.069022,0.124632,0.010981,0.010981,0.000000,44.000000,43.000000,1.000000,1.000000,0.000000,0.000000,0.000000,0.000000,0.000000;
#CREDIT:;
#NOTES:
0000
0000
0000
0000
,
0000
0000
0000
0000
,
0000
0000
0000
0000
,
0000
0000
0000
0000
,
0000
0000
0000
0000
,
0000
0000
0000
0000
,
0000
0000
0000
0000
,
0000
0000
0000
0000
,
0000
0000
0000
0000
,
0001
0000
0000
1000
,
0000
0000
0000
0000
,
0001
0000
0000
0000
,
1000
0000
0000
0000
,
0010
0000
0000
0000
,
0100
0000
0000
0000
,
0001
0000
0000
1000
,
0000
0000
0000
0000
,
0001
0000
0000
0000
,
1000
0000
0000
0000
,
0010
0000
0000
0000
,
0100
0000
0000
0000
,
0001
0000
0000
0000
,
1000
0000
0000
0000
,
0001
0000
0000
0000
,
0100
0000
0000
0000
,
0001
0000
0000
0000
,
0000
0000
0000
0100
,
0000
0000
0000
0010
,
0000
0000
0000
0110
,
0000
0000
0000
0001
,
0000
0000
0000
1000
,
0000
0000
0000
0001
,
0000
0000
0000
1000
,
0000
0000
0000
0000
,
0000
0000
0000
0002
,
0000
0000
0003
0000
,
0000
0000
0000
1000
,
0000
0000
0000
1000
,
0000
0000
0000
0001
,
0000
0000
0000
0001
,
0000
0000
0000
1000
,
0000
0000
0000
1000
,
0000
0000
0000
0001
,
0000
0000
0000
0001
,
0000
0000
0000
1000
,
0000
0000
0000
0001
,
0000
0000
0000
1000
,
0000
0000
0000
0001
,
0000
0000
0000
1000
,
0000
0000
0000
1000
,
0000
0000
0000
1000
,
0000
0000
0000
0000
,
0000
0000
0000
0001
,
0000
0000
0000
0000
,
0000
0000
0000
0001
,
0000
0000
0000
0000
,
0000
0000
0000
0001
;

//---------------dance-single - ----------------
#NOTEDATA:;
#CHARTNAME:;
#STEPSTYPE:dance-single;
#DESCRIPTION:;
#CHARTSTYLE:;
#DIFFICULTY:Easy;
#METER:5;
#RADARVALUES:0.203929,0.248715,0.065885,0.043923,0.000000,130.000000,124.000000,6.000000,4.000000,0.000000,0.000000,0.000000,0.000000,0.000000,0.203929,0.248715,0.065885,0.043923,0.000000,130.000000,124.000000,6.000000,4.000000,0.000000,0.000000,0.000000,0.000000,0.000000;
#CREDIT:;
#NOTES:
0000
0000
0000
0000
,
0000
0000
0000
0000
,
0000
0000
0000
0000
,
0000
0000
0000
0000
,
0000
0000
0000
1000
,
0100
0010
0000
0010
,
0001
0001
0000
1000
,
0100
0010
0000
0010
,
0001
1000
0000
0001
,
0001
0000
0000
1000
,
1000
0000
0000
0001
,
0001
0000
0000
0100
,
0100
0000
0000
0010
,
0010
0100
0100
0000
,
0000
0200
0000
0301
,
0001
0001
0000
1000
,
0000
0100
0000
0010
,
0001
0001
0000
1000
,
1000
1000
0000
0010
,
0000
0100
0000
0010
,
0000
0100
0000
0001
,
0001
0010
0000
0100
,
0000
1000
0000
0001
,
0001
1000
1000
0100
,
0000
0001
0000
1000
,
0000
0001
0000
0010
,
0000
0100
0000
1000
,
0000
0100
0000
0010
,
0000
0001
0000
0011
,
0000
0001
1000
0001
,
0000
1000
0001
1000
,
0000
0010
0010
0001
,
0000
0100
0010
1000
,
0000
0100
0000
0002
,
0000
0003
1000
0002
,
0000
0100
0003
0100
,
0000
0010
0010
1000
,
0000
0100
0000
0101
,
0000
0000
0100
0110
,
0000
0010
0000
0100
,
0000
0010
0000
0100
,
0000
0010
0000
0100
,
0000
0000
0010
0110
,
0000
0001
0000
1000
,
1000
0001
0000
0001
,
0000
1000
0000
0001
,
0000
0000
1000
1001
,
0000
0001
0000
0100
,
0000
0010
0000
0100
,
0000
0001
0000
0100
,
0000
0000
0100
0101
,
0000
0000
0000
0001
,
0001
0010
0010
0001
,
0000
1000
0000
0100
,
0000
0010
0000
0002
,
0003
1000
0000
0010
,
0010
0000
0010
0000
0000
0010
0000
0000
;

//---------------dance-single - ----------------
#NOTEDATA:;
#CHARTNAME:;
#STEPSTYPE:dance-single;
#DESCRIPTION:;
#CHARTSTYLE:;
#DIFFICULTY:Medium;
#METER:8;
#RADARVALUES:0.351386,0.373073,0.230597,0.120789,0.000000,224.000000,203.000000,21.000000,11.000000,0.000000,0.000000,0.000000,0.000000,0.000000,0.351386,0.373073,0.230597,0.120789,0.000000,224.000000,203.000000,21.000000,11.000000,0.000000,0.000000,0.000000,0.000000,0.000000;
#CREDIT:;
#NOTES:
// measure 0
0000
0000
0000
0000
,  // measure 1
0000
0000
0000
0000
,  // measure 2
0000
0000
0000
0100
,  // measure 3
0000
0010
0000
0000
0100
0000
0100
0000
,  // measure 4
0000
0010
0000
0000
1000
0000
1000
0000
,  // measure 5
0100
0010
0100
0000
1000
0000
0110
0000
,  // measure 6
0001
1000
0001
0010
,  // measure 7
0100
0010
0100
0000
0010
0000
0011
0000
,  // measure 8
0001
1000
0000
0101
,  // measure 9
0001
0100
0010
2000
,  // measure 10
0000
3002
0103
0001
,  // measure 11
0101
0000
0010
0100
0000
0010
0000
0000
,  // measure 12
0100
0000
0010
0100
0000
0010
0000
0000
,  // measure 13
1000
0100
0010
0002
,  // measure 14
0003
0000
0200
0000
0000
0300
0001
0100
,  // measure 15
0001
0000
0010
0210
,  // measure 16
0000
0310
1000
0110
,  // measure 17
0001
0000
0001
1000
0000
0001
0000
0000
,  // measure 18
1000
0000
0001
1000
0000
0002
0000
0000
,  // measure 19
0003
0000
0100
0000
0010
0100
0010
0000
,  // measure 20
0100
0010
0100
0000
0001
0000
1001
0000
,  // measure 21
1000
0000
0010
0000
0100
0010
0100
0000
,  // measure 22
0001
1000
0100
0001
,  // measure 23
0100
1000
1000
0100
,  // measure 24
0001
0100
1000
1000
,  // measure 25
0001
0100
0001
0100
,  // measure 26
0010
0100
0010
0100
,  // measure 27
0001
0100
0001
0010
,  // measure 28
0100
0001
0100
1100
,  // measure 29
1000
0000
0001
0000
1000
0001
1000
0000
,  // measure 30
0001
0000
1000
0000
0001
0100
0001
0000
,  // measure 31
0100
0000
0010
0100
0010
0000
0101
0000
,  // measure 32
0000
0100
0010
1100
,  // measure 33
0000
0100
0010
0011
,  // measure 34
0000
0001
1000
0002
,  // measure 35
0100
0100
0003
0100
,  // measure 36
0100
0000
0010
1001
,  // measure 37
0000
0100
0000
0010
0100
0000
0110
0000
,  // measure 38
0000
0110
0000
0100
0010
0000
0100
0000
,  // measure 39
0010
0000
0010
1000
0010
0000
0100
0000
,  // measure 40
0001
0100
0010
0000
0100
0000
0001
0000
,  // measure 41
0000
1001
0000
0001
1000
0000
1001
0000
,  // measure 42
0000
1001
0000
1000
0001
0000
0100
0000
,  // measure 43
0000
0001
0010
1000
,  // measure 44
0010
0001
0010
0001
,  // measure 45
0000
1000
0000
0001
1000
0000
1001
0000
,  // measure 46
0000
1001
0000
1000
0001
0000
1001
0000
,  // measure 47
0000
1000
0100
0100
,  // measure 48
0010
0010
0001
0100
,  // measure 49
0000
0100
0000
0000
0100
0000
0100
0000
,  // measure 50
0000
0110
0000
0100
0010
0000
0100
0000
,  // measure 51
0000
0010
0000
1000
,  // measure 52
0001
0001
0100
0200
,  // measure 53
0300
0002
0003
1000
,  // measure 54
0000
0200
0300
2000
,  // measure 55
3000
0100
0000
0010
,  // measure 56
0010
0000
0010
0000
0010
0010
0000
0000
;

//---------------dance-single - ----------------
#NOTEDATA:;
#CHARTNAME:;
#STEPSTYPE:dance-single;
#DESCRIPTION:;
#CHARTSTYLE:;
#DIFFICULTY:Hard;
#METER:12;
#RADARVALUES:0.541197,0.777235,0.307463,0.186674,0.010981,345.000000,317.000000,28.000000,17.000000,0.000000,0.000000,0.000000,0.000000,0.000000,0.541197,0.777235,0.307463,0.186674,0.010981,345.000000,317.000000,28.000000,17.000000,0.000000,0.000000,0.000000,0.000000,0.000000;
#CREDIT:;
#NOTES:
0000
0000
0000
0000
,
0000
0000
0000
0000
,
0000
0000
0000
0000
0000
0000
0100
0010
,
0010
0100
0010
0010
1000
1100
0110
0010
,
0001
0001
0100
0001
0100
0010
0110
1000
,
0100
0010
1000
0001
0100
0010
0011
0001
,
0100
1000
0100
0001
0010
0001
2000
3001
,
0100
0001
0010
0001
0010
0010
0110
1000
,
0010
0100
0110
0110
0110
0110
0101
0101
,
0101
0001
0100
0020
,
1030
0000
1000
0000
0001
0010
0001
0000
,
0100
0001
0010
0100
0000
1000
0000
0100
,
0010
0001
1000
1000
0000
0100
0002
0000
,
0103
0010
0000
0100
0001
0020
0000
0031
,
0001
0001
0100
0010
0100
0010
0110
0110
,
0110
0000
0001
0000
0010
0001
0010
0000
,
0100
0010
0001
0001
0000
1000
1001
0000
,
1000
0000
1000
0100
0000
0100
0001
0010
,
0001
0100
1000
0100
0000
0100
1000
0000
,
1100
0000
0001
0100
0001
0100
0020
0030
,
0100
0002
0003
2000
0000
3000
1001
0000
,
0100
1000
0100
1000
0100
1000
0000
0010
,
0000
0100
0001
0100
0010
0100
0001
0000
,
0010
0100
0010
0000
0100
1000
0010
0100
,
0001
0010
0000
0001
1000
0001
2000
0000
,
3001
0100
0002
0000
0013
0100
1000
0100
,
0010
0001
0100
0000
0110
0000
0001
0000
,
0010
0000
0001
0010
0000
0100
1000
0000
,
0101
0000
0010
0000
0220
0330
0100
0001
,
0100
0001
0200
0000
0001
0000
0301
1000
,
0100
0000
0010
0001
0010
0000
0001
0100
,
0010
0000
1000
0100
1000
0000
0100
0010
,
0100
0000
0010
0000
0001
0000
1000
0100
,
0010
0000
0100
1000
0010
0100
0010
0000
,
1000
0100
0010
0100
1000
0000
0020
0000
,
0030
0000
0010
0010
0000
0010
0000
0100
,
0100
0000
0000
0000
0010
0000
0000
0100
0000
0000
0010
0000
0100
0000
0110
0000
,
0000
0110
0000
0010
1000
0000
0100
0010
,
0001
0000
0101
0000
0000
0000
0010
0000
0100
0000
0010
0000
0100
0000
0000
0001
,
0000
0010
0000
0100
1000
0100
1000
0000
,
0001
0010
0001
0000
0010
0000
0100
0000
,
1000
1100
0000
0010
0100
0001
0100
0000
,
0100
0010
0000
0010
0100
0000
1001
0000
,
0000
2000
3000
0001
0010
0001
0100
0000
,
0010
0001
0000
0100
,
0100
0010
0100
0010
0100
0010
0100
0000
,
0010
0100
0010
1000
0010
0100
0002
0000
,
0003
0100
0000
0000
0010
0000
0010
0010
,
0010
0100
0010
0100
,
0001
0001
0010
0001
0010
0100
0010
0001
,
0000
0010
0001
0010
0100
0010
0001
0000
,
0000
0100
0000
0000
1000
0100
0010
0000
,
0001
0100
0010
0110
,
0200
0300
0020
0030
0100
0000
0010
0100
,
0000
0010
1000
0010
0000
0000
0010
0010
,
0000
0010
0001
0010
0001
0010
0000
0100
,
0100
0100
0100
0000
0010
0110
0000
0000
;
