#TITLE:LA LUNA;
#SUBTITLE:;
#ARTIST:Tomoki Hirata feat. Crystal Mint;
#TITLETRANSLIT:;
#SUBTITLETRANSLIT:;
#ARTISTTRANSLIT:;
#GENRE:;
#CREDIT:;
#BANNER:;
#BACKGROUND:;
#LYRICSPATH:;
#CDTITLE:;
#MUSIC:Tomoki Hirata feat.Crystal Mint - LA LUNA (Summer House Vocal Deep House)-cut.mp3;
#OFFSET:-0.277000;
#SAMPLESTART:22.181000;
#SAMPLELENGTH:17.100000;
#SELECTABLE:YES;
#BPMS:0.000000=128.000000
;
#STOPS:
;
#BGCHANGES:;
#KEYSOUNDS:;
#ATTACKS:;

//---------------dance-single - ----------------
#NOTES:
     dance-single:
     :
     Beginner:
     3:
     0.114307,0.178573,0.053943,0.125866,0.000000,89.000000,83.000000,6.000000,14.000000,0.000000,0.000000,0.114307,0.178573,0.053943,0.125866,0.000000,89.000000,83.000000,6.000000,14.000000,0.000000,0.000000:
// measure 0
0000
0000
0000
0000
,  // measure 1
0000
0000
0000
0000
,  // measure 2
0002
0000
0000
0000
,  // measure 3
0000
0000
0003
0000
,  // measure 4
0000
0000
0000
0000
,  // measure 5
0000
0000
0000
0100
,  // measure 6
0000
0000
0000
0000
,  // measure 7
0000
0000
0000
0020
,  // measure 8
0000
0000
0030
0100
,  // measure 9
0000
0001
0000
0100
,  // measure 10
0000
0010
0000
1000
,  // measure 11
0000
0001
0000
0100
,  // measure 12
0000
0001
0000
0100
,  // measure 13
0000
0010
0000
1000
,  // measure 14
0000
0010
0000
0100
,  // measure 15
0000
0010
0000
0200
,  // measure 16
0000
0000
0300
0010
,  // measure 17
0000
1000
0000
0001
,  // measure 18
0000
0000
0000
1000
,  // measure 19
0000
0001
0000
2000
,  // measure 20
0000
0000
3000
0010
,  // measure 21
0000
0100
0000
0001
,  // measure 22
0000
0000
0000
1000
,  // measure 23
0000
0000
0000
0002
,  // measure 24
0000
0003
0000
0101
,  // measure 25
0000
0010
0000
1000
,  // measure 26
0000
0001
0000
1010
,  // measure 27
0000
0100
0000
1001
,  // measure 28
0000
0100
0000
0010
,  // measure 29
0000
0000
0000
1000
,  // measure 30
0000
0001
0000
0200
,  // measure 31
0000
0300
0000
0010
,  // measure 32
0000
1000
0000
0001
,  // measure 33
0000
0100
0000
0110
,  // measure 34
0000
0001
0000
1000
,  // measure 35
0000
1001
0000
0001
,  // measure 36
0000
0010
0000
0100
,  // measure 37
0000
0000
0000
1000
,  // measure 38
0000
0010
0000
0200
,  // measure 39
0000
0300
0000
0220
,  // measure 40
0000
0330
0000
1000
,  // measure 41
0000
0001
0000
0100
,  // measure 42
0000
0100
0000
0010
,  // measure 43
0000
0010
0000
2000
,  // measure 44
0000
3000
0000
0001
,  // measure 45
0000
0010
0000
0001
,  // measure 46
0000
1000
0000
0100
,  // measure 47
0000
0001
0000
2000
,  // measure 48
0000
3000
0000
0010
,  // measure 49
0000
0100
0000
1000
,  // measure 50
0000
0001
0000
0100
,  // measure 51
0000
0010
0000
0200
,  // measure 52
0000
0300
0000
0001
,  // measure 53
0000
1000
0000
0020
,  // measure 54
0000
0000
0030
0100
,  // measure 55
0000
0100
0000
0200
,  // measure 56
0000
0000
0000
0300
;

//---------------dance-single - ----------------
#NOTES:
     dance-single:
     :
     Easy:
     7:
     0.305676,0.333097,0.125866,0.251733,0.000000,238.000000,224.000000,14.000000,28.000000,0.000000,0.000000,0.305676,0.333097,0.125866,0.251733,0.000000,238.000000,224.000000,14.000000,28.000000,0.000000,0.000000:
0000
0000
0000
0000
,
0000
0000
0000
0000
,
0002
0000
0000
0000
,
0000
0000
0003
0200
,
0000
0000
0000
0000
,
0000
0000
0300
0000
,
0010
0000
0000
0000
,
0000
0000
0000
0020
,
0000
0100
0000
0000
0030
0100
0001
0000
,
0001
1000
0100
0100
,
0010
0000
0010
0001
1000
0000
0001
0000
,
0100
0000
0001
0100
0010
0000
2000
0000
,
0000
0002
3000
0000
0003
2000
0000
3000
,
0001
0000
0100
0000
0010
0000
1000
0001
,
1000
0000
0001
0100
0001
0000
1000
0000
,
0100
0010
0001
2000
,
0000
0200
3000
0000
0300
0020
0000
0030
,
0001
0000
1000
0000
0001
0000
1000
0100
,
0010
0000
0100
1000
0001
0000
1000
0000
,
0100
0000
0010
0001
0010
0000
0002
0000
,
0000
0200
0003
0000
0300
0020
0000
0030
,
1000
0000
0001
0000
0100
0010
0000
0200
,
0000
0000
0300
0002
0000
0000
0003
0100
,
0000
1000
0000
0100
0000
0000
1001
0000
,
1000
0000
0001
0100
0001
0000
1001
0000
,
1000
0010
0100
0101
,
0001
0010
0100
0000
1000
0000
0100
0010
,
0001
1000
1000
1100
,
0001
0000
0001
0100
0010
0000
0100
0001
,
0100
0010
0010
1010
,
0100
0000
0100
0001
1000
0000
0010
1000
,
0010
0200
0302
1003
,
0100
0000
0010
0001
0010
0000
0001
1000
,
0100
0010
0001
1001
,
1000
0000
0010
0100
0001
0000
1000
0001
,
1000
0001
0001
0011
,
0001
0000
1000
0100
0010
0000
0100
1000
,
0010
0100
0100
0101
,
0002
0203
0320
0230
,
0000
0000
0300
1010
,
0010
0000
0100
0001
0100
0000
0010
1000
,
0010
0000
1000
0000
0001
0000
1000
0001
,
1000
0000
0001
0100
0001
0000
1000
0000
,
0100
0010
0001
2000
,
3010
0000
0100
0001
0100
0000
0100
0010
,
1000
0001
0010
0110
,
1000
0000
0010
0100
0001
0000
1000
0100
,
0010
0001
0010
2000
,
3100
0000
0001
0100
0001
0000
0100
0010
,
0100
0001
1000
1001
,
1001
0000
0010
0100
0010
0000
0100
0010
,
0100
0001
0001
2000
,
3010
0000
0100
0010
1000
0000
0010
1000
,
0001
1000
1000
1010
,
1010
0000
0010
1000
0010
0000
1000
0010
,
1000
0001
0001
0200
,
0320
2030
3002
2003
,
3000
0000
0000
0000
;

//---------------dance-single - ----------------
#NOTES:
     dance-single:
     :
     Medium:
     10:
     0.382737,0.409965,0.071924,0.287695,0.211276,298.000000,290.000000,8.000000,32.000000,0.000000,0.000000,0.382737,0.409965,0.071924,0.287695,0.211276,298.000000,290.000000,8.000000,32.000000,0.000000,0.000000:
0000
0000
0000
0000
,
0000
0000
0000
0000
,
0002
0000
0000
0000
,
0000
0000
0003
0200
,
0000
0000
0000
0000
,
0000
0000
0300
0000
,
0010
0000
0000
0000
0000
0000
0000
0010
0000
0000
0000
0000
0000
0000
0000
0000
,
0000
0000
0000
0020
,
0000
0100
0000
0000
0030
0100
0010
1000
,
0001
0000
1000
0010
0100
0001
0100
0010
,
0000
1000
0010
0001
0000
1000
0001
0100
,
0000
0001
0100
1000
0000
0010
2000
0000
,
0000
0001
3000
0001
0000
2000
0000
3001
,
1000
0010
0100
0100
0010
0010
1000
0001
,
1000
0000
0000
0001
0000
0000
0100
0000
0001
0000
0000
1000
0000
0000
0010
0000
,
0110
0000
0010
0100
0010
0000
2000
0000
,
0000
3002
0000
0000
0103
0020
0000
0130
,
0001
0000
0000
1000
0000
0000
0100
0000
0010
0000
0000
0001
0000
0000
0100
0000
,
0010
0000
0000
0100
0000
0000
0100
0000
0101
0000
0000
0001
0000
0000
1000
0000
,
1010
0000
0100
0010
1000
0010
0200
0000
,
0000
0310
0000
0010
0000
2000
0000
3001
,
0010
0100
1000
0100
0000
0010
0001
2000
,
3000
0100
0010
0002
0003
0010
1000
0010
,
0000
0001
0000
0100
0000
0000
1000
0001
,
1000
0000
0000
0001
0000
0000
0100
0000
0010
0000
0000
1000
0000
0000
0010
0000
,
1000
0000
0000
0100
0000
0000
0010
0000
0001
0000
0010
0000
0001
0000
1000
0000
,
0001
0000
0000
0100
0000
0000
0100
0000
0010
0000
0000
1000
0000
0000
1000
0000
,
0001
0000
0000
0001
0000
0000
1000
0000
0100
0000
0010
0000
0001
0000
1000
0000
,
0000
0000
0010
0000
1000
0000
0100
0000
0010
0000
0000
0001
0000
0000
1000
0000
,
0100
0000
0000
0010
0000
0000
0001
0000
0010
0000
0100
0000
1000
0000
0010
0000
,
0100
0000
0000
0001
0000
0000
0100
0000
0001
0000
0000
1000
0000
0000
0010
0000
,
1000
0000
0000
0001
0000
0000
0100
0000
0010
0000
0000
0000
2000
0000
3200
0000
,
0320
0000
0032
0000
0000
0000
1003
0000
0100
0000
0000
1000
0000
0000
0010
0000
,
0100
0000
0000
0001
0000
0000
1000
0000
0001
0000
0100
0000
0001
0000
1000
0000
,
1000
0000
0000
0010
0000
0000
0100
0000
0010
0000
0000
0010
0000
0000
0100
0000
,
0001
1001
1100
0110
,
0002
0203
0320
2030
0000
3010
1000
0010
,
0100
0000
0000
0001
0000
0000
0100
0000
0010
0000
0000
0010
0000
0000
1000
0000
,
0002
0000
0103
0010
0100
0010
0200
0000
,
0301
0001
0000
1010
,
1000
0000
0000
0001
0000
0000
0100
0000
0010
0000
0000
0100
0000
0000
0010
0000
,
0100
0002
1003
0200
0310
0001
0000
0010
,
1000
0000
0000
0001
0000
0000
0100
0000
0010
0000
0000
0010
0000
0000
0100
0000
,
0001
0000
0000
1000
0000
0000
0010
0000
1000
0000
0200
0000
2300
0000
3010
0000
,
0100
0000
0000
0010
0000
0000
0100
0000
0010
0000
0000
0100
0000
0000
0010
0000
,
0100
0000
0000
0001
0000
0000
0100
0000
0010
0000
1000
0000
0001
0000
1000
0000
,
0010
0000
0000
0100
0000
0000
0100
0000
0010
0000
0000
1000
0000
0000
1000
0000
,
0100
0000
0010
0000
0000
0001
0000
0000
0010
0000
0002
0000
2003
0000
3010
0000
,
0100
0000
0000
0001
0000
0000
0100
0000
0001
0000
0000
0010
0000
0000
0001
0000
,
0100
0000
0000
0010
0000
0000
0100
0000
0001
0000
0010
0000
0000
0000
0010
0000
,
0001
0000
0000
0010
0000
0000
0001
0000
0010
0000
0000
0100
0000
0000
1000
0000
,
0010
0000
0000
0100
0000
0000
0001
0000
0001
0000
2000
0000
3002
0000
0103
0000
,
0001
0000
0000
0100
0000
0000
0001
0000
1001
0000
0000
0001
0000
0000
1000
0000
,
0001
0100
0010
1000
0000
0001
1000
0010
,
1000
0000
0000
0001
0000
0000
1000
0000
0001
0000
0000
0001
0000
0000
1000
0000
,
0000
0001
0000
0000
0100
0000
0000
0010
0000
0000
0200
0000
0000
0000
0000
0000
,
0000
0320
0000
0000
,
0030
0000
0000
0000
;

//---------------dance-single - ----------------
#NOTES:
     dance-single:
     :
     Hard:
     12:
     0.493191,0.510209,0.242742,0.332647,0.247238,384.000000,357.000000,27.000000,37.000000,0.000000,0.000000,0.493191,0.510209,0.242742,0.332647,0.247238,384.000000,357.000000,27.000000,37.000000,0.000000,0.000000:
0000
0000
0000
0000
,
0000
0000
0000
0000
,
0110
0000
0010
0100
0000
0000
0020
0000
0000
0000
0000
0000
0000
0000
0000
0000
,
0000
0000
0000
0030
,
0100
0000
0000
0000
,
0000
0000
0000
0000
,
0100
0000
0000
0100
0001
0000
0000
0001
0000
0000
0000
0000
0000
0000
0000
0000
,
0000
0000
0000
2000
,
0000
0002
3000
0000
0103
0010
0100
0010
,
1000
0000
0001
0000
0100
0010
0200
0000
0300
0000
0010
0000
0100
0010
0100
0000
,
0001
0000
1000
0100
0000
0000
1000
0000
1001
0000
0001
0100
0001
0000
0200
0000
,
0300
0000
0010
0000
0100
0001
0100
0000
0001
0000
1000
0000
0002
0000
0000
0000
,
0100
0200
0003
0000
0310
0000
0110
1000
,
0001
0000
0000
0100
0010
0000
0100
0000
0010
0000
1000
0000
0000
0000
0001
0000
,
0101
0000
0000
0001
0100
0000
0010
0000
1000
0000
0100
1000
0100
0000
1000
0000
,
0100
0010
0001
0100
0010
0000
0120
0000
,
0100
0200
0030
0000
0310
0020
0000
0130
,
0001
0000
0000
1000
0001
0000
0100
0000
0001
0000
1000
0100
1000
0000
0001
0000
,
0100
0000
0000
0010
0100
0000
0010
0000
1000
0000
0001
0010
0001
0000
0100
0000
,
0010
0000
0000
1000
0001
0000
0010
0001
0010
0000
0001
0000
2000
0000
0000
0000
,
0010
0020
3000
0000
0130
0100
0110
0000
,
0010
0000
1000
0001
1000
0000
0002
0000
0000
0000
0203
0000
0000
0000
0310
0000
,
0000
0010
0000
0000
0010
0000
0100
0000
0010
0000
1000
0000
0001
0000
2000
0000
,
0000
0000
3000
0000
0000
0000
1001
0010
,
0100
1000
0100
0020
0000
0031
1000
0100
,
0010
0000
0000
0001
0010
0000
0001
0000
0100
0000
1010
0000
0000
0000
1000
0000
,
0100
0000
0010
0000
0100
0000
0010
0000
0001
0000
0100
0001
0100
0000
0001
0000
,
1000
0000
0010
0100
0010
0000
0100
0000
0010
0000
0100
0000
0101
0000
0001
0000
,
0000
0000
1000
0000
0010
0000
0100
0000
0110
0000
0000
0010
1000
0000
0001
0000
,
0100
0000
0010
0100
0001
0000
2000
0000
0000
0000
3002
0000
0000
0000
0103
0000
,
0101
0000
0000
0001
1000
0000
0100
0000
0010
0000
0001
0010
0001
0000
1000
0000
,
0100
1000
0100
0010
0001
1000
1001
0001
,
0100
0020
0000
0230
0000
0301
0100
0001
,
1001
0010
0100
2000
0000
3020
0000
0130
,
0110
0000
0000
0010
0100
0000
0010
0000
1000
0000
0100
0010
0001
0000
1000
0000
,
1001
0001
0100
0010
0100
0001
0100
0010
,
1000
0000
0001
0000
0010
0000
0100
0000
1100
0000
0000
0010
0100
0000
0001
0000
,
0101
0000
0000
0001
0010
0000
0002
0000
0000
0000
2003
0000
0000
0000
3010
0000
,
1010
0000
0000
1000
0010
0000
1000
0000
1100
0000
0000
1000
0100
0000
0010
0000
,
0001
0000
0100
0001
0100
0000
0002
0000
0000
0000
0103
0000
0101
0000
0000
0000
,
0001
0000
0000
1000
0010
0000
0100
0000
0010
0000
1000
0010
1000
0000
0001
0000
,
0100
0020
0000
0130
0000
0100
0000
0010
,
0010
0000
0000
1000
0010
0000
0100
0000
0001
0000
0010
0100
1000
0000
0010
0000
,
0100
0000
0000
0010
0100
0000
0002
0000
0000
0000
2003
0000
0000
0000
3000
0000
,
1001
0000
0000
0001
0100
0000
0010
0000
0100
0000
0001
1000
0100
0000
1000
0000
,
0100
0020
0000
0031
0000
0011
0000
1000
,
1001
0000
0000
0001
0100
0000
0010
0000
1000
0000
0001
0100
0010
0000
1000
0000
,
0001
0000
1000
0000
0000
1000
0000
0000
1000
0000
0002
0000
0000
0000
0103
0000
,
0110
0000
0000
0010
0100
0000
0001
0000
0010
0000
0001
0010
0001
0000
1000
0000
,
0010
0200
0000
0310
0000
0100
0000
0001
,
0101
0000
0000
1000
0010
0000
1000
0000
0010
0000
0100
0001
0100
0000
0001
0000
,
1000
0000
0001
0100
0010
0000
0200
0000
0000
0000
0302
0000
0000
0000
1003
0000
,
1100
0000
0000
1000
0100
0000
0010
0000
0001
0000
1000
0100
1000
0000
0010
0000
,
0010
0000
0100
0001
0100
0000
0002
0000
0000
0000
2003
0000
0000
0000
3001
0000
,
0101
0000
0000
0001
1000
0000
1000
0000
0001
0000
0100
0010
0200
0000
0010
0000
,
0000
0010
0000
0000
0010
0000
0000
0010
0300
0000
0020
0000
0000
0000
0000
0000
,
0000
0000
0000
0130
;
