#TITLE:Konya boku ga kimi no MesiA!;
#SUBTITLE:;
#ARTIST:Iwahashi Seima (Elements Garden) feat. Kobayashi Masanori;
#TITLETRANSLIT:;
#SUBTITLETRANSLIT:;
#ARTISTTRANSLIT:;
#GENRE:;
#CREDIT:from pop n music 22 Lapistoria;
#BANNER:LT_Konya_boku_ga_kimi_no_Messiah!.png;
#BACKGROUND:;
#LYRICSPATH:;
#CDTITLE:;
#MUSIC:Konya_boku_ga_kimi_no_MesiA!.ogg;
#OFFSET:-0.153000;
#SAMPLESTART:38.091999;
#SAMPLELENGTH:17.000000;
#SELECTABLE:YES;
#BPMS:0.000000=155.000000
;
#STOPS:
;
#BGCHANGES:;
#KEYSOUNDS:;
#ATTACKS:;

//---------------dance-single - ----------------
#NOTES:
     dance-single:
     :
     Beginner:
     4:
     0.196861,0.251173,0.117279,0.107506,0.000000,141.000000,129.000000,12.000000,11.000000,0.000000,0.000000,0.196861,0.251173,0.117279,0.107506,0.000000,141.000000,129.000000,12.000000,11.000000,0.000000,0.000000:
// measure 0
0000
0000
0000
0000
,  // measure 1
0000
0000
0000
0000
,  // measure 2
0000
0000
0000
0000
,  // measure 3
0000
0000
0000
0000
,  // measure 4
0000
0000
0001
0000
,  // measure 5
0001
0000
1000
0000
,  // measure 6
1000
0000
0001
0001
,  // measure 7
0001
0000
1000
1000
,  // measure 8
1000
0000
1001
0000
,  // measure 9
0000
0000
0101
0000
,  // measure 10
0000
0000
1010
0000
,  // measure 11
0000
0000
0101
0000
,  // measure 12
0000
0000
0001
0100
,  // measure 13
0001
0000
1000
0010
,  // measure 14
1000
0000
0001
0100
,  // measure 15
0001
0100
0001
0000
,  // measure 16
0000
0000
0100
0010
,  // measure 17
0100
0001
0100
0001
,  // measure 18
1000
0000
0001
0100
,  // measure 19
0001
1000
0100
1000
,  // measure 20
0000
0000
0001
0001
,  // measure 21
0001
0000
1000
0100
,  // measure 22
1000
0000
1000
1000
,  // measure 23
1000
0000
0001
0100
,  // measure 24
0001
0000
0100
0010
,  // measure 25
0100
0000
1000
0001
,  // measure 26
1000
0000
0010
0100
,  // measure 27
0010
0000
0001
1000
,  // measure 28
0001
0000
1000
0000
,  // measure 29
1000
0000
0001
0100
,  // measure 30
0001
0000
2000
0000
,  // measure 31
3000
0000
0002
0000
,  // measure 32
0003
0000
0100
0000
,  // measure 33
0000
0000
0010
0000
,  // measure 34
1000
0000
0001
0000
,  // measure 35
1000
0000
0100
0000
,  // measure 36
0010
0000
0001
0000
,  // measure 37
1000
0000
0001
0000
,  // measure 38
0000
0000
0101
0000
,  // measure 39
0001
0000
0001
1000
,  // measure 40
0001
0000
1000
0100
,  // measure 41
1000
0000
1001
0000
,  // measure 42
0000
0000
0001
0100
,  // measure 43
0001
0100
0002
0000
,  // measure 44
0000
0003
1000
0010
,  // measure 45
0100
0001
2000
0000
,  // measure 46
0000
3000
0001
0000
,  // measure 47
0100
0000
0010
0000
,  // measure 48
1000
0000
0002
0000
,  // measure 49
0003
0000
2000
0000
,  // measure 50
3000
0000
1001
0000
,  // measure 51
0110
0000
2000
0000
,  // measure 52
0000
3000
0001
0000
,  // measure 53
0100
0000
0020
0000
,  // measure 54
0000
0030
0100
0000
,  // measure 55
0100
0000
0010
0000
,  // measure 56
0010
0000
1000
0001
,  // measure 57
1000
0000
0001
1000
,  // measure 58
0001
1000
0002
0000
,  // measure 59
0000
0000
0100
0000
,  // measure 60
0000
0003
1000
0000
,  // measure 61
0001
0000
1001
0000
,  // measure 62
0000
0000
0101
0000
,  // measure 63
0101
0000
0202
0000
,  // measure 64
0000
0303
0000
0000
;

//---------------dance-single - ----------------
#NOTES:
     dance-single:
     :
     Easy:
     7:
     0.316933,0.408156,0.283425,0.224785,0.000000,227.000000,198.000000,29.000000,23.000000,0.000000,0.000000,0.316933,0.408156,0.283425,0.224785,0.000000,227.000000,198.000000,29.000000,23.000000,0.000000,0.000000:
0000
0000
0000
0000
,
0000
0000
0000
0000
,
0000
0000
0000
0000
,
0000
0000
0000
0000
,
0000
0000
0000
0000
0100
0000
0010
0100
,
0010
0000
0000
0000
1000
0000
0001
0100
,
0001
0000
0000
0000
1000
0001
0010
0000
,
0010
0001
1000
0000
1000
0010
0100
0000
,
0100
0001
0010
0000
0001
0000
0000
0000
,
0000
0000
1000
0000
,
0000
0000
0110
0000
,
1001
0000
0101
0000
,
2010
0000
3001
0100
,
0001
1000
0010
0100
,
0010
1001
0001
0001
,
1000
1000
0220
0000
,
0330
0000
0000
0000
0001
0000
1000
0010
,
1000
0000
0001
0100
0000
0100
0000
0010
,
0000
0010
0100
0000
0001
0000
0001
0000
,
1000
0000
0010
0100
0000
0010
0000
0100
,
0000
0020
0000
0030
0100
0000
0101
0000
,
0001
1010
0100
0110
,
0010
0100
0010
0000
2000
0000
0000
0000
,
3002
0000
0203
0000
,
0300
0000
0110
0100
,
0110
0000
0010
0100
0000
0100
0000
0100
,
0000
0100
0001
0000
1000
0000
1001
0000
,
0001
0000
0001
1000
0000
0100
0000
1000
,
0000
0200
0000
0000
1300
0000
0001
0000
,
0100
0101
0001
1010
,
0100
0110
0000
0100
,
0000
0010
0000
1000
,
0001
0100
0200
0300
,
0010
1000
0001
0000
,
0002
0003
0200
0300
,
0010
1000
0001
0000
,
0200
0300
0020
0030
,
0100
0100
0001
1000
,
1000
0001
0000
0100
,
0010
0000
0100
0000
0010
0000
1000
0001
,
1000
0000
0001
1000
0001
0000
0100
0000
,
0010
0000
0110
0000
,
0100
0000
0010
0000
1010
0000
0000
0100
,
0000
0001
0000
2000
0000
0000
0000
0000
,
3001
0000
0000
0000
0001
0000
1000
0001
,
0000
1000
0000
0002
0000
0000
0000
0000
,
0103
0010
0110
0110
,
1000
1000
1001
0011
,
0001
0001
0100
0010
,
0100
0001
2000
0000
,
3001
0000
0000
0000
0101
0000
0000
0001
,
0000
1000
0000
0020
0000
0000
0000
0000
,
0130
0000
0000
0000
0100
0000
0010
0100
,
0000
0100
0000
0200
0000
0000
0000
0000
,
0301
1000
1001
1100
,
0100
1000
0001
0100
,
0010
0100
0020
0000
,
1030
1000
0001
0100
,
0001
1000
2001
0000
,
0001
0000
0001
3000
,
0001
0100
0020
0000
,
0130
0001
1001
0000
,
1010
0000
0100
0000
,
0011
0000
0210
0000
,
0320
0030
0000
0000
;

//---------------dance-single - ----------------
#NOTES:
     dance-single:
     :
     Medium:
     11:
     0.483078,0.595955,0.449570,0.263878,0.092846,346.000000,300.000000,46.000000,27.000000,0.000000,0.000000,0.483078,0.595955,0.449570,0.263878,0.092846,346.000000,300.000000,46.000000,27.000000,0.000000,0.000000:
0000
0000
0000
0000
,
0000
0000
0000
0000
,
0000
0000
0000
0000
,
0000
0000
0000
0000
,
0000
0000
0000
0000
1001
0000
0001
0100
,
0001
0000
0100
0000
0110
0000
1000
0010
,
0100
0000
0001
0000
0101
0001
0100
0000
,
0100
0001
0100
0000
0010
1000
0010
0100
,
0010
0000
0000
0000
0000
0000
0000
0000
0100
0000
0000
0000
0010
0000
0000
0200
,
0000
0000
0000
0000
0300
0000
0000
0000
0001
0000
0000
0000
1000
0000
0000
0200
,
0000
0300
0011
0001
,
0101
0001
2010
0000
,
3100
0000
0000
0000
0000
0000
0000
0000
0110
0000
0000
0000
0010
0000
0000
0001
,
0000
0000
1000
0000
0001
0000
1000
0000
0001
0000
0000
0000
0100
0000
0010
0100
,
0000
0000
0101
0000
0001
1000
0001
0000
,
1000
0000
0010
0000
1000
0000
0000
0000
1001
0000
0000
1001
0000
0000
1001
0000
,
1001
0000
0000
0000
0001
0000
0100
0010
,
1000
0010
0000
0100
0000
0001
0000
1000
,
0000
1000
1010
0000
0101
0001
0010
0001
,
1000
0010
0100
0110
0000
0011
0000
1100
,
0000
0101
0000
0000
0001
0100
0010
1000
,
0001
0100
0010
1000
0000
0001
0000
1000
,
0000
0001
0101
0000
0002
0000
0103
0010
,
0000
1000
0000
1001
0000
0100
0020
0000
,
0100
0000
0130
0001
0101
1000
0010
0100
,
0001
1000
0100
0010
0000
0100
0000
1000
,
0000
0001
0101
0000
0010
0100
0010
1000
,
0001
0001
1000
1100
0000
0110
0000
0011
,
0000
2000
0000
3000
1001
0100
0010
0100
,
0001
1000
0100
0001
0000
0100
0000
0010
,
0000
0001
1000
0002
0000
0000
0003
0100
,
0010
0000
0000
0000
0100
0000
0000
0000
1001
0000
0000
1001
0000
0000
0101
0000
,
0101
0010
0010
0000
,
0100
0001
0010
0002
0000
0003
1000
0100
,
0010
0001
0000
0002
0000
0003
0000
0000
,
1000
0001
0010
0002
0000
0003
0100
0020
,
0000
0130
0000
0110
0000
0000
0010
0000
,
1000
0100
0010
0002
0000
0003
0011
0000
,
0001
0100
0010
2000
0000
3000
1010
0000
,
0101
0001
0100
0020
0000
0030
0100
0200
,
0000
0010
0300
0020
0000
0000
0000
0000
,
0230
0000
0000
0300
0110
0000
0101
0000
,
1000
0000
0100
0000
0010
0000
0001
1000
,
0000
0001
0000
0100
0020
0000
0100
0000
,
0130
0000
0000
0100
0000
0000
0000
0000
0010
0000
0000
0000
1000
0000
0001
0000
,
0000
0001
0100
0020
0000
0000
0130
0000
,
0001
0000
0000
0010
0000
0000
0000
0000
0011
0000
0001
0000
1000
0000
0001
0000
,
0100
0000
0000
0010
0000
0000
0100
0000
0001
0000
0100
0000
0020
0000
0200
0000
,
0030
0000
0310
0000
0010
1000
0010
1000
,
0001
0010
0001
0100
0200
0000
0010
0000
,
0301
0000
0001
1000
1001
0000
0001
1000
,
0000
1000
0000
0010
0200
0000
0001
0000
,
0301
0000
0000
0100
0000
0000
0000
0000
0101
0000
0000
0000
0010
0000
1000
0000
,
0000
1000
0010
1000
0002
0000
0100
0000
,
0013
0000
0000
0010
0000
0000
0000
0000
0001
0000
1000
0000
0010
0000
1000
0000
,
0000
0001
0000
0200
0000
0300
0010
0000
,
0100
0010
0000
0000
0110
0000
0000
0000
0001
0000
1000
0000
0001
0000
0000
0000
,
1000
0010
1000
0000
0010
0000
0001
0000
,
0010
0000
0000
0000
1000
0000
0000
0000
0100
0000
0010
0000
0001
0010
0000
0002
,
0000
0000
0003
0000
0100
0000
0000
0000
0010
0000
0100
0000
0010
0000
1000
0200
,
0000
0300
1000
0000
0001
0100
0001
1000
,
0001
0000
1000
0000
0010
0000
0100
0000
0110
0000
0000
0101
0000
0000
0101
0000
,
0101
0000
0000
0000
1001
0000
0000
0001
,
0101
0000
0000
0100
0000
0000
0010
0000
1000
0000
0000
0001
0000
0000
0100
0000
,
0010
0000
0100
0010
0000
0000
0000
0000
0000
0000
0000
0000
0000
0000
0000
0000
;

//---------------dance-single - ----------------
#NOTES:
     dance-single:
     :
     Hard:
     15:
     0.719033,0.940982,0.439797,0.273651,0.483776,515.000000,470.000000,45.000000,28.000000,0.000000,0.000000,0.719033,0.940982,0.439797,0.273651,0.483776,515.000000,470.000000,45.000000,28.000000,0.000000,0.000000:
0000
0000
0000
0000
,
0000
0000
0000
0000
,
0000
0000
0000
0000
,
0000
0000
0000
0000
,
0000
0000
0000
0000
1001
0000
0001
0100
,
1001
0010
0000
0100
1010
0000
1000
0010
,
0101
0000
0001
0000
0100
0001
0100
0010
,
1000
0000
0010
0000
0100
0000
0001
0000
1000
0100
1000
0100
0010
0001
0010
0001
,
1000
0100
1000
0100
1000
0000
0000
0000
0100
0000
0000
0000
0010
0000
0000
0002
,
0000
0000
0000
0000
0103
0000
0010
0100
0010
0000
0000
0000
1000
0000
0000
0020
,
0000
0000
0000
0000
0130
0000
0001
0100
0001
0000
1000
0010
1000
0010
1000
0010
,
1000
0000
0001
0100
0001
0100
0010
1000
0010
0000
1000
0100
0010
0001
1000
0100
,
1000
0100
1000
0001
0010
0001
0010
0000
0001
0000
0010
0000
0001
1000
0000
0001
,
0000
0000
1000
0100
1000
0000
0001
0000
0010
0000
0001
0000
0100
0000
0010
0200
,
0000
0000
0300
0000
0101
0000
0000
0000
0010
0100
0010
0100
0010
0000
1000
0000
,
0001
0010
0100
1000
0001
0010
0001
0010
0001
0000
0000
0110
0000
0000
1001
0000
,
1001
0000
0000
0000
0000
0000
0001
0100
0001
0100
0000
0000
0001
0000
0000
0010
0000
0000
0100
0000
0000
0010
0000
0000
,
0001
1000
0010
0110
0000
0100
0010
1000
,
0100
1000
0100
0000
1100
0000
0000
0000
0110
0000
1000
0000
0010
0000
1000
0000
,
0001
0100
0010
0110
0000
0011
0000
1010
,
0000
0000
1001
0000
0000
0000
0001
0100
0001
0000
0100
0000
0010
0000
1000
0000
,
1000
0001
0010
1000
0010
0001
0000
1001
,
0000
0100
0001
0000
0101
0000
0000
0000
0001
0100
0001
0010
0001
0000
0010
0000
,
0100
1000
0100
0010
0100
0000
0001
0000
0000
0000
0100
0000
2000
0000
0000
0000
,
3001
0010
0001
0100
0001
0000
0100
0000
0110
0000
1000
0000
0010
0000
1000
0010
,
0001
0010
1000
0000
0001
0000
0010
0000
1000
0000
0100
0000
1000
0000
0010
0000
,
0100
0010
0100
0000
0101
0000
0000
0000
0010
0000
0100
0000
0001
0000
1000
0000
,
0001
0100
0001
0100
0001
0000
0110
0000
0000
0000
1010
0000
0000
0000
0101
0000
,
0000
0000
2000
0000
0000
0000
3001
0000
1100
0000
0100
0000
0010
0000
0001
0010
,
1000
0010
0001
0000
0100
0000
0001
0000
0100
0000
0010
0000
1000
0000
0010
0000
,
0100
0000
0100
0000
0010
0000
2000
0000
0000
0000
0000
0000
3010
0000
0100
0010
,
0200
0300
0011
0000
1000
0001
1000
0001
,
0200
0000
0300
0000
0010
0100
0010
0100
0010
0000
0000
0000
0000
0000
0000
0000
,
0100
0000
0001
0000
0010
0000
0002
0000
0000
0000
1003
0000
0100
0010
0100
0010
,
0001
0010
0001
0000
0000
0000
1000
0000
0000
0000
0100
0000
0010
0001
0010
0001
,
0010
0000
0001
0000
0010
0000
0200
0000
0000
0000
0300
0000
1000
0100
1000
0010
,
1000
0000
0000
0000
0000
0000
0110
0000
0000
0000
0010
0000
0100
0000
0010
0100
,
1000
0000
0100
0000
0010
0000
0002
0000
0000
0000
0103
0000
0010
0000
1000
0001
,
1000
0000
0010
0000
0100
0010
2000
0000
0000
0000
3010
0000
0100
0000
0000
0000
,
0001
0000
0010
0000
0100
1000
0200
0000
0000
0000
0300
0000
0010
0000
0002
0000
,
0000
0013
0001
0020
0000
0000
0100
0100
,
0130
0000
2000
0100
3010
0000
0101
0000
,
0010
0000
1000
0000
0010
0100
0001
1000
,
0010
0100
0001
0000
0100
0000
0010
0000
2000
0000
0100
0000
3100
0000
0000
0000
,
0001
0000
0000
0100
0000
0000
0001
0000
0010
0000
0000
0000
1000
0000
0101
0000
,
0000
0001
0110
0010
0200
0010
0310
0000
,
1000
0000
0000
0010
0000
0000
0100
0000
0110
0000
0001
0000
1000
0000
0001
0000
,
0100
0000
0000
0010
0000
0000
0100
0000
0010
0000
1000
0000
0001
0000
0200
0000
,
0000
0310
0010
0000
0100
0010
0100
0100
,
0001
0010
0001
0010
0001
0000
1000
0000
0100
1000
0100
1000
0100
0000
0010
0000
,
0001
0010
0001
0010
0001
0000
0100
0000
1001
0000
0000
0000
0001
0000
1000
0000
,
0010
1000
0100
0010
0002
0100
0103
0000
,
0010
0000
0000
0100
0000
0000
0010
0000
0110
0000
1000
0000
1010
0000
0010
0000
,
0000
1000
0010
1000
0002
0100
0013
0000
,
0010
0000
0000
0001
0000
0000
1000
0000
1001
0000
0000
0000
1010
0000
1000
0000
,
0100
0010
0000
0010
1000
0010
0001
0010
,
0002
0000
0003
0000
0110
0000
0000
0000
0001
0010
0001
0010
0001
0010
0100
0000
,
1000
0100
0010
0100
1000
0100
0010
0000
0002
0000
0003
0000
0200
0000
0300
0000
,
0020
0000
0030
0000
2000
0000
3000
0000
0110
0000
0100
0000
0001
0010
0000
0010
,
0002
0000
1003
0000
0100
0000
0010
0000
0100
0000
1000
0000
0010
0000
0100
0001
,
0000
0001
1000
0000
0200
0000
0300
0000
0010
0001
1000
0100
0010
0100
1000
0000
,
0010
1000
0100
0010
0100
1000
0001
0000
0100
0000
0000
0110
0000
0000
0101
0000
,
1001
0000
0000
0000
0000
0000
1000
0100
1000
0100
0000
0000
1100
0000
0000
0000
0000
0000
0000
0000
0000
0001
0000
0000
,
0011
0000
0000
0100
0000
0000
0010
0000
0101
0000
0000
0101
0000
0000
1010
0000
,
1001
0000
0100
0010
0000
0000
0000
0000
0000
0000
0000
0000
0000
0000
0000
0000
;
