#TITLE:Kono yoru wo koero! ~Break The Night~;
#SUBTITLE:;
#ARTIST:Kazutoshi Uematsu;
#TITLETRANSLIT:;
#SUBTITLETRANSLIT:;
#ARTISTTRANSLIT:;
#GENRE:;
#CREDIT:from pop n music 11;
#BANNER:Kazutoshi Uematsu - Kono yoru wo koero! ~Break The Night~(cut).png;
#BACKGROUND:;
#LYRICSPATH:;
#CDTITLE:;
#MUSIC:Kazutoshi Uematsu - Kono yoru wo koero! ~Break The Night~(cut).mp3;
#OFFSET:-0.270000;
#SAMPLESTART:4.261000;
#SAMPLELENGTH:12.000000;
#SELECTABLE:YES;
#BPMS:0.000000=116.100998
;
#STOPS:
;
#BGCHANGES:;
#KEYSOUNDS:;
#ATTACKS:;

//---------------dance-single - ----------------
#NOTES:
     dance-single:
     :
     Beginner:
     4:
     0.181119,0.211530,0.085955,0.032233,0.053722,118.000000,110.000000,8.000000,3.000000,0.000000,0.000000,0.181119,0.211530,0.085955,0.032233,0.053722,118.000000,110.000000,8.000000,3.000000,0.000000,0.000000:
// measure 0
0000
0000
0000
0000
0000
0000
0000
0000
0000
0000
0000
0000
0000
0000
0000
1000
,  // measure 1
0000
0000
0000
0000
0000
0000
0000
0001
0000
0000
0000
0000
0000
0000
0000
1000
,  // measure 2
0000
0000
0000
0000
0000
0000
0000
0000
0001
0000
0000
0000
0000
0000
0000
1000
,  // measure 3
0000
0000
0000
0000
0000
0000
0000
0000
0000
0000
0000
0001
0000
0000
0000
0000
,  // measure 4
1000
0000
0001
0000
,  // measure 5
0010
0000
0001
0000
,  // measure 6
0100
0000
0001
0000
,  // measure 7
1000
0000
0010
0000
,  // measure 8
0110
0000
0001
0000
,  // measure 9
1000
0000
1001
0000
,  // measure 10
0100
0000
0010
0000
,  // measure 11
0100
0000
0001
0001
,  // measure 12
0001
1000
1000
0100
,  // measure 13
0010
0001
0001
0010
,  // measure 14
0100
0000
1000
0100
,  // measure 15
0010
0100
0010
0001
,  // measure 16
0000
1000
1000
1000
,  // measure 17
0001
0001
0001
0000
,  // measure 18
2000
3000
0002
0003
,  // measure 19
0100
0000
0010
0100
,  // measure 20
0010
0000
0100
0000
,  // measure 21
0001
0000
1000
0001
,  // measure 22
0001
1000
1000
0100
,  // measure 23
1000
0000
0001
0001
,  // measure 24
0010
0001
0010
0001
,  // measure 25
0001
0100
0001
0000
,  // measure 26
0100
0010
0010
0100
,  // measure 27
0010
0010
0100
0000
,  // measure 28
0001
0000
1000
0000
,  // measure 29
0001
0000
0110
0000
,  // measure 30
1000
0000
0001
0000
,  // measure 31
0001
0000
1000
1000
,  // measure 32
1000
0000
0001
0000
,  // measure 33
0001
0000
0000
0000
0000
0000
0000
0100
0000
0000
0000
0001
0000
0000
0000
0001
,  // measure 34
0000
0000
0000
0000
0000
0000
0000
0000
0011
0000
0000
0000
0000
0000
0000
0100
,  // measure 35
0000
0000
0000
0000
0000
0000
0000
0000
0000
0000
0000
0010
0000
0000
0000
0000
,  // measure 36
0200
0000
0300
0000
,  // measure 37
0001
0000
0001
0000
,  // measure 38
1100
0000
1100
0000
,  // measure 39
0001
0000
0001
0001
,  // measure 40
0001
0000
0100
0000
,  // measure 41
1000
0000
0011
0000
,  // measure 42
0011
0000
0100
0000
,  // measure 43
0010
0000
0100
0001
;

//---------------dance-single - ----------------
#NOTES:
     dance-single:
     :
     Easy:
     8:
     0.368378,0.424268,0.247121,0.053722,0.225632,240.000000,217.000000,23.000000,5.000000,0.000000,0.000000,0.368378,0.424268,0.247121,0.053722,0.225632,240.000000,217.000000,23.000000,5.000000,0.000000,0.000000:
1001
0000
0000
1000
0000
0000
0000
0001
0000
0000
0000
1000
0000
0000
0000
0010
,
0000
0000
0000
0100
0000
0000
0000
0010
0000
0000
0000
0101
0000
0000
0000
1000
,
0000
0000
0000
0001
0000
0000
0000
0000
0110
0000
0000
0100
0000
0000
0000
1000
,
0000
0000
0000
0000
0000
0100
0000
0000
0000
0000
0000
1100
0000
0000
0000
0000
,
1000
0100
1000
0000
0001
0100
0001
0000
,
0010
0100
0010
0000
0110
0000
1000
0000
,
0110
0001
0110
1000
,
0002
0000
1003
0000
0010
0100
0001
0100
,
0010
0000
0100
0000
0001
0100
0001
0000
,
1000
0100
1000
0000
1001
0000
0100
0000
,
0001
0010
0001
0000
0010
0001
0010
0000
,
0001
0000
1000
0000
0001
0100
0001
0000
,
0101
0000
1000
0000
1000
0000
0100
0010
,
0001
0000
0001
0000
0001
0000
0010
0100
,
1000
0000
0100
0000
0010
0000
0001
0001
,
0010
0000
0100
0000
0100
0000
1000
0001
,
0001
0000
0000
0000
1000
0000
0000
1100
0000
0000
0000
0000
1000
0000
0000
0000
,
0001
0000
0000
0100
0000
0000
0000
0000
0001
0000
0000
0000
0110
0000
0000
0000
,
2000
3000
0002
0003
,
1000
0100
0010
0100
,
1000
0001
0100
0010
,
0001
0100
0001
0000
1000
0000
0100
0000
,
0101
1000
1000
0101
,
1000
0000
0100
0000
0001
0010
0001
0000
,
0100
0000
1000
0000
0010
0100
0001
0000
,
0001
0100
0001
0000
0001
0100
0010
0000
,
0010
0100
0001
0000
1000
0000
0100
0000
,
0010
0001
0010
0001
0100
0000
0001
0000
,
1000
0000
0000
0000
0002
0000
0003
0000
2000
0000
3000
0100
0000
0000
0000
0001
,
0000
0000
0000
0100
0000
0000
0000
0110
0000
0000
0000
0001
0000
0000
0000
1000
,
0000
0000
0000
0000
0001
0000
0100
0000
0001
0000
0000
0000
0100
0000
0000
0001
,
0000
0000
0000
0000
0100
0000
0000
0001
0000
0000
0000
0000
1000
0000
0000
0010
,
0000
0000
0000
0000
0100
0000
0010
0000
0100
0000
0001
0000
0100
0000
0010
1000
,
0000
0000
0000
0001
0000
0010
0000
0100
0000
0010
0000
0011
0000
0000
0000
1001
,
0000
0000
0000
0000
0000
0000
0000
0000
0011
0000
0000
0000
0000
0000
0001
0100
,
0000
0000
0001
0000
0000
0100
0000
0000
0001
0000
0000
0010
0000
0000
0000
0000
,
0100
0010
0100
0000
0100
0010
1000
0001
,
1000
0000
0001
0000
1000
0010
0100
0010
,
1000
0000
0001
0000
0010
0001
1000
0100
,
0001
0000
1100
0000
1000
0100
1000
0100
,
1000
0000
0001
0000
0100
0010
1000
0000
,
1001
0000
0000
0100
0000
0100
0000
0000
0011
0000
0000
0100
0000
0100
0000
0000
,
0011
0000
0000
0001
0000
0001
0000
0000
1100
0000
0000
0100
0000
0100
0000
0000
,
1010
0000
0100
0000
0001
0100
0001
0100
;

//---------------dance-single - ----------------
#NOTES:
     dance-single:
     :
     Medium:
     11:
     0.498846,0.520028,0.107444,0.214887,0.499613,325.000000,315.000000,10.000000,20.000000,0.000000,0.000000,0.498846,0.520028,0.107444,0.214887,0.499613,325.000000,315.000000,10.000000,20.000000,0.000000,0.000000:
1001
0000
0001
1000
0000
0001
0000
0200
0000
0000
0300
0010
0000
0100
0000
0020
,
0000
0000
0030
0100
0000
0010
0000
0010
0000
0100
0000
0202
0000
0000
0303
0001
,
0000
0000
0001
0000
0000
0100
0000
0000
0110
0000
0000
0100
0000
0000
0010
1000
,
0000
0000
0200
0000
0000
1000
0300
0000
0100
0000
0000
1100
0000
0000
0000
0000
,
1000
0001
0100
0000
1000
0000
0100
0000
0001
0010
0100
0000
0001
0000
0100
0000
,
1000
0001
0100
0000
0010
0000
0001
0000
0010
0100
0001
0000
0101
0000
0000
0000
,
0100
0010
1000
0000
0100
0000
0010
0000
0001
1000
0010
0000
0001
0000
0010
0000
,
1000
0001
0010
0000
0100
0000
0010
0000
0001
1000
0010
0000
0200
0000
0310
0000
,
0110
0000
0100
0000
0100
0001
0000
0000
0101
0000
0100
0000
0100
0001
0000
0000
,
1000
0000
0100
0000
0010
0100
0000
0000
1000
0000
0010
0000
0100
0001
0000
0000
,
0001
0000
0010
0000
0001
0100
0000
0000
0010
0000
0001
0000
0010
0100
0000
0000
,
0001
0000
1000
0000
1000
0100
0000
0010
0001
0000
0100
0000
0001
0000
0000
0000
,
0110
0000
0000
0000
1000
0000
0100
1000
0000
0000
0010
0000
0100
0000
0010
0100
,
0000
0000
0001
0000
0100
0000
0001
0100
0000
0000
0010
0000
0100
0000
0001
1000
,
0000
0000
0010
0000
0100
0000
0001
0100
0000
0000
0010
0000
0100
0000
0010
1000
,
0000
0000
0001
0000
0100
0000
0010
0100
0000
0000
0001
0000
1000
0000
0001
1000
,
0000
0000
0010
0000
1000
0000
0000
0100
0000
0000
0010
0000
0000
0000
0001
0000
,
0001
0100
0100
0010
0001
0010
0000
1000
,
2000
0000
3000
0100
0200
0000
0300
0010
,
0020
0000
0030
0001
0001
0000
0100
0000
,
0100
0000
0010
0000
0100
0000
0001
0000
0100
0000
0001
0000
0010
0000
0001
0010
,
0000
0000
0001
0000
0001
0000
1000
0000
1000
0000
0100
0000
0100
0000
0010
0001
,
0000
1000
1000
0001
1000
0010
0100
0001
,
1000
0000
0100
0010
0000
0000
0001
0000
0000
0010
0000
0000
0001
0000
0100
0000
,
0010
0100
0010
1000
0010
0100
0001
0000
,
0001
0100
0010
0000
0100
0100
0010
0010
,
0100
0000
0002
0000
0000
0000
0003
0000
1000
0000
0000
0100
0000
0000
0010
0000
,
0002
0000
1003
0001
0100
0010
0100
0001
,
1000
0000
0000
0000
0200
0000
0300
0000
2000
0000
3000
0100
0010
0000
0000
0001
,
0010
0000
0000
0100
1000
0000
0000
0010
0100
0000
0000
0001
0000
1000
0000
1000
,
0000
0100
0000
0010
0001
0000
0100
0001
0000
0100
0000
0010
0100
0000
0001
0100
,
0000
0000
0001
0000
0000
0000
0010
0001
0000
0000
0000
0000
1000
0000
0000
0010
,
0000
0000
0100
0000
0200
0000
0010
0000
0301
0000
0000
0001
0000
0100
0000
1000
,
0000
0100
0000
0001
0000
0000
0000
0100
0000
0001
0000
0010
0000
0100
0000
1000
,
0000
0000
0001
0000
0000
0001
0000
0000
0011
0000
0000
0001
0000
0000
0100
0001
,
0000
0000
0002
0000
0000
0100
0003
0000
0100
0000
0000
0220
0000
0000
0330
0000
,
0100
0000
0010
0000
0000
0100
0000
0000
0010
0000
1000
0000
1000
0000
0001
0000
,
1000
0000
0001
0000
0000
0010
0000
0000
0100
0000
0010
0000
0100
0000
0010
0000
,
0001
0000
1000
0000
0000
0001
0000
0000
0100
0000
0010
0000
0100
0000
0100
0000
,
0001
0000
1000
0000
0000
0001
0000
0000
2000
0000
0100
0000
3200
0000
0010
0000
,
0301
0000
0001
0000
0000
0100
0000
0000
0010
0000
1000
0001
0000
1000
0000
0000
,
0010
0000
0100
0000
0000
0010
0000
0000
0100
0000
0001
0100
0000
0001
0000
0000
,
1000
0000
0100
0000
0000
1000
0000
0000
0100
0000
0010
0001
0000
0010
0000
0000
,
0001
0000
0010
0000
0100
0010
0000
0000
0001
0100
0001
0100
0002
0000
0000
0000
,
0003
0000
0000
0000
;

//---------------dance-single - ----------------
#NOTES:
     dance-single:
     :
     Hard:
     14:
     0.684570,0.685491,0.204143,0.247121,0.988482,446.000000,427.000000,19.000000,23.000000,0.000000,0.000000,0.684570,0.685491,0.204143,0.247121,0.988482,446.000000,427.000000,19.000000,23.000000,0.000000,0.000000:
1001
0000
0001
1000
0000
0010
0000
0200
0000
0000
0300
0020
0000
0130
0000
0020
,
0000
0000
0030
0100
0000
0010
0000
1010
0000
0100
0000
0202
0000
0000
0303
0001
,
0000
0000
0011
0000
0000
0100
0000
0000
0110
0000
0000
0100
0000
0010
0100
0001
,
0000
0000
0100
0000
0000
0101
0000
0000
0100
0000
0000
1000
0100
0010
0001
0000
,
1000
0010
0100
0010
1000
0001
0100
0000
0001
0100
0010
0100
0001
1000
0001
0000
,
1000
0100
0010
0001
0100
0010
1000
0000
0010
0100
0010
0100
0001
0010
1000
0000
,
0010
0100
0010
0001
1000
0010
0100
0000
0100
0001
0100
0001
0010
0001
0000
0010
,
0002
0000
0013
0000
0000
0001
0000
0001
0010
0000
0001
1000
0200
0000
0310
0001
,
0010
0000
0001
0000
0100
0001
0000
0000
0110
0000
0100
0010
0000
0100
0010
0000
,
1000
0000
0100
0001
0000
0100
0000
0000
1000
0000
0010
0000
0100
0001
0000
0000
,
0001
0010
0100
1000
0010
0100
0001
0010
0100
1000
0001
0000
0010
0100
0000
1000
,
0001
0000
1000
0000
1000
0100
0000
0100
1000
0000
0100
0010
0200
0000
0300
0000
,
0110
0000
0000
0000
1000
0000
0100
0010
0000
0000
0001
0000
0010
0001
0010
0100
,
0000
0000
1000
0000
0100
0010
0001
0100
0000
0000
0010
0000
0100
0001
1000
0010
,
0000
0000
0100
0000
0001
0000
0100
0001
0000
0000
0100
0010
0100
0010
0100
0010
,
0000
0000
0100
0000
0001
0000
0010
0100
0000
0000
1000
0000
0100
0000
0010
0001
,
0000
0000
0010
0000
0001
1000
0001
0100
0000
0000
0010
0000
0100
0000
0001
0000
,
0010
0000
0000
0100
0000
0010
0000
0001
0010
0001
0010
0000
0100
0000
1000
0000
,
0020
0000
0000
0100
0030
0000
0001
0000
0200
0000
0001
0000
0301
0000
0010
0001
,
0020
0000
0031
0000
1000
0000
0001
1000
0000
0001
1000
0000
0100
0010
0001
0000
,
0110
0000
0010
0000
0100
0000
1000
0000
0100
0000
0010
0000
0001
0010
0001
0010
,
0000
0000
0001
0000
0010
0000
0100
1000
0000
0100
0010
0000
0001
0000
0010
0001
,
0000
0000
1000
0000
0100
0001
0000
0100
1000
0000
0001
0000
0100
0000
0101
0000
,
1001
0000
0100
0010
0000
0001
0100
0000
0001
0010
0000
0100
0001
0000
0100
0000
,
0110
0000
0100
0000
0010
0000
1000
0010
0000
0100
0001
0000
1000
0100
0010
0100
,
0000
0000
0010
0000
0001
0000
0100
0010
0100
0000
0010
0000
1000
0000
0001
0000
,
0100
0000
0100
0000
0001
1000
0000
1000
0001
0000
0100
0010
0000
0100
0010
0100
,
0002
0000
0000
0000
2003
0000
0000
0000
3100
0000
0100
0010
0100
0010
0001
0000
,
2000
0000
3000
0000
0200
0000
0300
0000
2000
0000
3000
0100
0000
0000
0010
0001
,
0010
0000
0100
1000
0100
0000
0010
0001
0100
0000
0001
1000
0010
1000
0000
0100
,
0000
0100
0010
0001
0000
0010
0100
0010
0000
0100
1000
0010
0100
0000
0001
0100
,
0000
0001
0100
0001
0000
0010
0001
0100
0000
0010
1000
0010
1000
0000
0000
0010
,
0000
0000
0100
0000
0002
0000
0013
0000
0002
0000
0003
1000
0000
0100
0000
1000
,
0000
0100
0010
0001
0000
0100
0001
0100
0001
0010
0000
0110
0000
1100
0000
1001
,
0000
1000
0001
0000
0100
0001
0000
0000
0011
0000
0001
0010
0000
0010
0100
1000
,
0000
0100
0002
0000
0000
0100
0003
0000
0010
0000
0000
0100
0010
0100
0010
0100
,
0010
0000
0100
0000
0000
1000
0000
0000
0010
0100
0000
0100
0000
0010
0001
0010
,
0000
1000
0001
0000
0100
0010
0000
0000
0101
0000
0001
0100
0000
0001
0100
0000
,
0001
0000
1000
0001
1000
0000
0001
0100
0001
0000
0010
0100
0000
0100
0010
0000
,
0001
0000
1100
0000
1000
0001
0000
0001
2000
0000
3100
0010
0001
0010
0100
0000
,
0001
0100
0000
0010
0001
0000
1000
0100
0010
0001
0000
1000
0000
0001
1000
0000
,
0110
0000
0100
0010
0000
0010
0100
0000
0100
0001
0100
0001
0000
0001
1000
0000
,
1000
0100
0010
0100
0000
1000
0001
0000
0010
0100
0010
0100
0000
0001
0100
0010
,
0001
0010
0100
0000
0000
0001
0000
0000
0200
0000
0320
0000
0032
0000
0000
0000
,
0003
0000
0000
0000
;
