#TITLE:Kokoro no collage;
#SUBTITLE:;
#ARTIST:Tsuyoshi;
#TITLETRANSLIT:;
#SUBTITLETRANSLIT:;
#ARTISTTRANSLIT:;
#GENRE:;
#CREDIT:from pop n music 18;
#BANNER:20140310005751!18_J-HOUSE_POP_2.png;
#BACKGROUND:;
#LYRICSPATH:;
#CDTITLE:;
#MUSIC:Kokoro_no_Collage.ogg;
#OFFSET:-0.363000;
#SAMPLESTART:13.889000;
#SAMPLELENGTH:17.100000;
#SELECTABLE:YES;
#BPMS:0.000000=135.000000
;
#STOPS:
;
#BGCHANGES:;
#KEYSOUNDS:;
#ATTACKS:;

//---------------dance-single - ----------------
#NOTES:
     dance-single:
     :
     Beginner:
     4:
     0.160054,0.215523,0.025657,0.128287,0.000000,131.000000,128.000000,3.000000,15.000000,0.000000,0.000000,0.160054,0.215523,0.025657,0.128287,0.000000,131.000000,128.000000,3.000000,15.000000,0.000000,0.000000:
0000
0000
0000
0000
,
0000
0000
0000
0000
,
0000
0000
0000
0000
,
0000
0000
0000
0000
,
1000
0001
0001
0000
,
1000
0100
0100
0000
,
0100
0010
0001
0000
,
1000
0001
1000
0001
,
0200
0000
0310
0000
,
1000
0010
0100
0000
,
0001
1000
0001
0000
,
0100
0010
0100
0000
,
0002
0000
1003
0000
,
1000
0000
0001
0000
,
0100
0100
0020
0000
,
1030
0000
0001
0000
,
1001
0000
0001
0000
,
0100
0000
0010
0000
,
1000
0000
0001
0000
,
0100
0000
0010
0000
,
2000
0000
0000
3000
,
0001
0000
0001
0001
,
0001
1000
1000
0000
,
1000
0000
0001
1000
,
0001
1000
0010
0000
,
0100
0000
0010
0000
,
1000
0001
1000
0000
,
0002
0000
0103
0000
,
0001
1000
0001
0000
,
2000
0000
3010
0000
,
0000
0000
1000
0000
,
0020
0000
1030
0000
,
0000
0000
0001
0000
,
0101
0000
0001
0000
,
1000
0000
0010
0000
,
0200
0000
0000
0300
,
0020
0000
0000
0030
,
1000
0001
1000
0000
,
1001
0000
0001
0000
,
0100
0001
0100
0000
,
1000
0010
1000
0000
,
0001
0100
0001
0000
,
0100
0001
0100
0000
,
1000
0010
1000
0000
,
0002
0000
1003
0000
,
1000
0000
0001
0000
,
0100
0010
0100
0000
,
1000
0010
1000
0000
,
0100
0001
0100
0000
,
0001
0000
1000
0000
,
0010
0010
0010
0100
,
0100
0000
0000
0000
,
0100
0100
0100
0010
,
0010
0000
0000
0000
,
2000
0000
3001
0000
,
0000
0000
0000
0000
,
0002
0000
1003
0000
,
0000
0000
0000
0000
,
0200
0000
0000
0300
,
0000
0000
0000
0000
,
0020
0000
0000
0030
,
0000
0000
0000
0000
,
0000
2000
0000
0000
,
3000
0000
0000
0000
;

//---------------dance-single - ----------------
#NOTES:
     dance-single:
     :
     Easy:
     7:
     0.303003,0.351267,0.248022,0.239470,0.000000,248.000000,219.000000,29.000000,28.000000,0.000000,0.000000,0.303003,0.351267,0.248022,0.239470,0.000000,248.000000,219.000000,29.000000,28.000000,0.000000,0.000000:
0000
0000
0000
0000
,
0000
0000
0000
0000
,
0000
0000
0000
0000
,
0000
0000
0000
0000
,
1000
0001
0001
0100
,
1000
0100
0001
1000
,
0110
1001
0001
0100
,
1000
0001
0010
1000
,
0200
0010
0310
0011
,
1000
0000
0001
1000
0001
0000
1000
0000
,
1001
0100
0110
0001
,
0100
0010
1000
0100
,
0020
0001
0031
1000
,
1100
0000
1000
0000
0001
0000
0100
0010
,
0200
0000
0300
0010
0200
0000
0000
0000
,
0301
1000
0001
0100
,
0101
0000
0002
0000
0003
1000
0000
0001
,
0000
0000
0000
0101
0000
0101
0000
0000
,
1001
0000
0001
0000
2000
0000
3000
0010
,
0000
0110
0000
0220
0000
0000
0000
0330
,
0000
0000
0000
2000
0000
0000
0000
3000
,
0001
0000
0100
0001
0100
0000
0001
0000
,
1001
0000
1000
0100
1000
0000
0010
0000
,
0100
0000
0001
0000
1000
0000
0001
0100
,
0010
1000
1010
0010
,
0100
0001
0010
0100
,
1000
0100
0100
0010
,
0010
0001
0100
0101
,
0001
1000
1001
0001
,
2000
0000
0010
0000
3000
0010
0000
0020
,
0000
0030
1000
0001
,
1002
0000
0000
0000
0003
1000
0000
0001
,
0000
0000
1000
0010
,
0100
0000
0002
0000
0003
1000
0000
2000
,
0000
0000
3000
0001
0000
0002
0000
0000
,
2003
0000
3100
0000
,
0020
0000
0031
0000
,
1001
0001
1001
1000
,
0110
0001
1000
0100
,
0100
0010
0001
1000
,
1100
0010
0110
0001
,
1000
0000
0001
0100
0001
0000
0100
0000
,
0110
1001
0100
0010
,
1000
0000
0001
1000
0001
0000
1000
0000
,
0002
1000
1003
0010
,
1000
0001
1000
0001
1000
0000
0001
0000
,
0101
0001
0100
0010
,
1000
0100
1000
0001
,
0100
0010
1000
1000
,
0001
0000
0001
0000
1000
0001
1000
0001
,
1000
0010
0100
0010
,
0100
1001
0101
0001
,
2000
0000
3100
0010
,
0002
0000
0103
0010
,
2000
0000
0001
0000
3001
0000
0000
2002
,
0000
3003
0001
0100
,
0002
0000
1000
0000
1003
0000
0000
2002
,
0000
3003
0000
0000
,
1000
0000
0001
0100
0000
0001
0000
0100
,
0000
0001
0000
0100
0000
0010
1000
0000
,
0002
0000
1003
0001
0000
1000
0000
0001
,
0000
1000
0000
0010
0000
1000
0010
0000
,
0000
0000
0000
2000
0000
0000
0000
0000
,
0000
0000
0000
3000
0000
0000
0000
0000
0000
0000
0000
0000
0000
0000
0000
0000
;

//---------------dance-single - ----------------
#NOTES:
     dance-single:
     :
     Medium:
     10:
     0.427625,0.459349,0.350652,0.324995,0.008552,350.000000,309.000000,41.000000,38.000000,0.000000,0.000000,0.427625,0.459349,0.350652,0.324995,0.008552,350.000000,309.000000,41.000000,38.000000,0.000000,0.000000:
0000
0000
0000
0000
,
0000
0000
0000
0000
,
0000
0000
0000
0000
,
0000
0000
0000
0000
,
1001
0000
0100
0001
0100
0000
0110
0000
,
1001
0000
0010
1000
0010
0000
0100
0010
,
0100
0001
0100
0010
1000
0000
1000
0000
,
1001
0011
1010
0101
,
0101
0000
0001
0010
0100
0010
0000
0010
,
0000
0100
1000
0010
0000
0100
0100
0002
,
0003
0000
1000
0010
1000
0001
0000
0001
,
2000
0000
3010
0000
0100
0010
0100
0010
,
0110
0000
0001
0200
0000
0000
0301
0100
,
0001
0000
1010
0000
0001
0100
0000
0010
,
2000
0000
0001
0001
3002
0000
0000
0003
,
0101
0000
1010
0000
0001
0010
0100
0010
,
0200
0000
1300
0000
0001
0100
0000
0202
,
0000
0303
0000
0100
0010
1000
0010
1000
,
0010
0000
0200
0000
0310
0010
0000
2002
,
0000
3003
0000
0220
0000
0330
0000
0202
,
0000
0303
0000
2002
0000
3003
0000
0000
,
0001
1000
0010
0100
0001
0000
1000
0010
,
0100
0000
0010
0100
0001
0100
0001
1000
,
1001
0000
0001
1000
1000
0010
0100
0001
,
0000
0100
0000
0010
1000
0100
0010
0001
,
1000
0001
0100
0001
0100
0010
1000
0001
,
0000
1000
0001
0000
0000
0000
0110
0000
0010
0000
0010
0000
0100
0000
0100
0000
,
0002
0000
2003
0000
0010
0000
3010
0100
,
0001
1000
1001
0000
0001
0100
0001
0000
,
1001
0000
0100
0010
0000
0101
0000
1010
,
0000
1000
0000
0001
0010
0001
1000
0010
,
0100
0000
0110
0000
0000
0101
0000
0101
,
0000
0000
0000
0000
0100
0000
0010
0010
,
0000
0100
0200
0000
0300
0101
0000
0101
,
0000
0001
1000
0010
0000
0100
0010
0100
,
0002
0000
0000
1003
0001
0000
0100
0020
,
0100
0000
0130
0000
0100
0100
0100
0000
,
0010
0100
0010
0100
0001
1000
0001
0000
,
1001
0000
1000
0100
0010
0001
0000
1000
,
0000
0100
0010
0001
0000
0001
0010
0100
,
0000
0000
0010
0100
1000
0001
0100
0010
,
0100
1000
0100
0000
0101
0000
1000
0010
,
1010
0000
0000
0100
0020
0000
0030
0100
,
0002
0000
0003
0000
1001
0000
0100
0010
,
0200
0000
0300
0010
2000
0000
0000
0000
,
3001
0100
0001
0000
1000
0010
1000
0100
,
0110
0000
0001
0010
0001
1000
0001
0100
,
0000
0100
0100
0100
0000
0001
0100
0001
,
0100
0000
0100
0010
0100
0001
0000
0100
,
0100
0100
0100
0000
0010
1000
0001
1000
,
0020
0000
0030
0100
0002
0000
0003
1000
,
1000
0000
1001
0000
0101
0000
0010
0001
,
0020
0000
0030
0100
1000
0000
1000
0100
,
0000
0010
0001
0000
1000
0100
1000
0100
,
0010
0000
0002
0000
1003
1001
0000
2020
,
0000
3030
0000
0000
0100
0010
1000
0100
,
0010
0000
0002
0000
0103
0101
0000
2002
,
0000
3003
0000
2020
0000
3030
0000
0000
,
0101
0000
0100
0010
0000
1000
0001
1000
,
0000
0100
0001
0100
0000
1000
0001
1000
,
0001
0100
0001
0010
0000
0100
1000
0100
,
0000
0001
1000
0001
0000
0100
0010
0100
,
0000
0000
0000
0000
0000
0020
0000
0000
0000
0000
0000
0000
0000
0000
0000
0000
,
0000
0000
0000
0030
0000
0000
0000
0000
0000
0000
0000
0000
0000
0000
0000
0000
;

//---------------dance-single - ----------------
#NOTES:
     dance-single:
     :
     Hard:
     13:
     0.574239,0.756575,0.410520,0.393415,0.188155,470.000000,422.000000,48.000000,46.000000,0.000000,0.000000,0.574239,0.756575,0.410520,0.393415,0.188155,470.000000,422.000000,48.000000,46.000000,0.000000,0.000000:
// measure 0
0000
0000
0000
0000
,  // measure 1
0000
0000
0000
0000
,  // measure 2
0000
0000
0000
0000
,  // measure 3
0000
0000
0000
0000
,  // measure 4
1001
0000
0000
0000
0100
0001
0100
0001
0100
0001
0100
0000
0010
0000
1000
0100
,  // measure 5
1000
0100
0010
0001
0010
0001
1000
0000
0010
0000
0100
0010
0100
0010
0100
0000
,  // measure 6
0101
0000
0000
0000
0100
0010
1000
0010
1000
0001
0100
0000
0001
0000
1000
0000
,  // measure 7
1000
0001
0100
0000
0001
0010
0001
0000
1000
0000
0100
0010
0002
0000
0003
0000
,  // measure 8
0101
0000
1000
0010
0100
0010
0000
0010
,  // measure 9
1000
0100
1000
0001
0100
0010
0100
0001
,  // measure 10
0101
0000
1000
0100
0010
0100
0001
0100
,  // measure 11
2000
0000
3010
0100
0010
0100
0010
1000
,  // measure 12
0210
0000
0301
0200
0000
0001
0300
0100
,  // measure 13
0010
0000
1000
0001
0001
0100
0000
0010
,  // measure 14
0200
0000
0010
0310
0020
0000
0100
0130
,  // measure 15
0200
0000
0010
0300
0001
0100
1000
0100
,  // measure 16
0001
0000
0000
0000
1000
0100
0010
0100
0010
0000
0100
0000
1000
0000
2200
0000
,  // measure 17
0000
3300
0000
0000
0010
1010
0010
1001
,  // measure 18
0110
0000
0000
0000
1000
0100
0010
0001
0100
0000
0001
0000
1000
0000
2001
0000
,  // measure 19
0000
3001
0001
0210
0000
0310
0010
2100
,  // measure 20
0000
3100
0100
0201
0000
0301
1001
0011
,  // measure 21
0110
0000
0010
0100
0001
0100
1000
0001
,  // measure 22
0100
0010
1000
0100
0001
0100
1000
0001
,  // measure 23
1001
0000
1000
0001
1000
0000
0001
0000
1010
0000
0100
0000
0100
0000
0010
0000
,  // measure 24
0000
0200
0300
0010
1000
1000
0001
0001
,  // measure 25
1001
0000
0100
0000
0100
0000
0010
0000
0100
0000
0010
0000
1000
0000
0001
1000
,  // measure 26
0001
0000
1000
0000
0010
0100
0010
0000
0100
0000
0001
0000
0100
0000
1000
0000
,  // measure 27
0001
0010
2000
0010
3001
0010
0100
1000
,  // measure 28
0002
0000
0100
0000
1003
0000
0010
0000
0100
0000
0001
1000
0001
1000
0001
0000
,  // measure 29
1001
0000
0220
0000
0330
0001
0100
0101
,  // measure 30
0000
1000
0000
0010
0100
0001
1100
0100
,  // measure 31
0010
0000
0001
0010
0001
0000
0010
0000
0000
0000
0022
0000
0033
0000
0220
0000
,  // measure 32
0000
0330
0000
0000
1000
0000
0100
0010
,  // measure 33
0100
1000
0002
0000
0003
0101
0000
0100
,  // measure 34
0010
1010
0100
0101
0010
1001
0001
0010
,  // measure 35
0200
0000
1300
0100
0110
0000
0011
0100
,  // measure 36
0101
0000
0001
0100
0001
1000
0001
0010
0001
0000
1000
0010
1000
0001
1000
0100
,  // measure 37
1000
0000
0001
0000
1001
0000
0100
0000
0110
0000
0010
0100
0020
0000
0030
0000
,  // measure 38
0101
0000
0000
0000
0001
0000
1000
0000
0100
0000
0010
0001
0010
0000
0001
0000
,  // measure 39
0000
1000
0010
0100
0010
0100
0001
1000
,  // measure 40
1100
0000
0000
0000
0001
0000
0010
0000
0001
0000
1000
0000
0010
0000
0100
0010
,  // measure 41
0100
0000
0010
0000
0100
0001
0101
0010
,  // measure 42
2020
3030
0000
0001
2000
0100
3100
0010
,  // measure 43
0002
0000
0103
0010
0110
1000
1001
0001
,  // measure 44
0200
0000
0310
1000
0002
0000
0103
0010
,  // measure 45
1000
0000
0001
0000
0100
0001
0100
0000
0001
0100
0001
0100
0001
0100
0001
0000
,  // measure 46
0101
0000
1000
0100
0010
0100
0010
0100
,  // measure 47
0001
0100
1000
0010
1000
0001
0100
0010
,  // measure 48
1001
0000
0001
0010
0100
0010
1000
0010
,  // measure 49
0002
0100
0103
0000
0010
1000
0010
1000
,  // measure 50
2020
0000
3030
0100
0020
0000
0030
1000
,  // measure 51
0002
0000
1003
0000
0101
0000
1001
0100
,  // measure 52
0020
0000
1030
0001
0200
0000
0310
0100
,  // measure 53
0000
0000
0100
0000
0001
0000
1000
0100
1000
0000
0001
0000
0100
0000
0010
0000
,  // measure 54
1001
0000
0000
0000
1000
0001
1000
0001
0100
0000
0010
0000
0100
0000
0220
0000
,  // measure 55
0000
0000
0330
0000
0001
0010
0100
1000
,  // measure 56
0100
0000
0000
0000
0010
0001
0010
0001
0010
0000
0100
0000
1000
0000
2002
0000
,  // measure 57
0000
3003
0000
0002
0000
0100
0103
0010
,  // measure 58
1000
0001
1000
0002
0000
0100
0100
0100
,  // measure 59
0003
0010
0010
0010
0000
1000
0001
1000
,  // measure 60
0001
0010
0100
0020
0000
0100
0100
0100
,  // measure 61
0030
0001
0001
0001
0000
1000
0001
0100
,  // measure 62
0000
0000
0000
0000
0000
0020
0000
0000
0000
0000
0000
0000
0000
0000
0000
0000
,  // measure 63
0000
0000
0000
0030
0000
0000
0000
0000
0000
0000
0000
0000
0000
0000
0000
0000
;
