#VERSION:0.83;
#TITLE:Kimi ni todoke;
#SUBTITLE:;
#ARTIST:Manami Fujino;
#TITLETRANSLIT:;
#SUBTITLETRANSLIT:;
#ARTISTTRANSLIT:;
#GENRE:THERAPIE;
#ORIGIN:;
#CREDIT:from pop n music 9 AC / 7 CS;
#BANNER:CS7_THERAPIE.png;
#BACKGROUND:;
#PREVIEWVID:;
#JACKET:;
#CDIMAGE:;
#DISCIMAGE:;
#LYRICSPATH:;
#CDTITLE:Popn_music_9_logo_small.png;
#MUSIC:Fujino Manami - Kimi ni Todoke.ogg;
#OFFSET:-0.174000;
#SAMPLESTART:67.032997;
#SAMPLELENGTH:16.100000;
#SELECTABLE:YES;
#BPMS:0.000=192.017;
#STOPS:;
#DELAYS:;
#WARPS:;
#TIMESIGNATURES:0.000=4=4;
#TICKCOUNTS:0.000=4;
#COMBOS:0.000=1;
#SPEEDS:0.000=1.000=0.000=0;
#SCROLLS:0.000=1.000;
#FAKES:;
#LABELS:0.000=Song Start;
#BGCHANGES:;
#KEYSOUNDS:;
#ATTACKS:
;

//---------------dance-single - ----------------
#NOTEDATA:;
#CHARTNAME:;
#STEPSTYPE:dance-single;
#DESCRIPTION:;
#CHARTSTYLE:;
#DIFFICULTY:Beginner;
#METER:3;
#RADARVALUES:0.119674,0.145649,0.057117,0.066637,0.000000,88.000000,82.000000,6.000000,7.000000,0.000000,0.000000,0.000000,0.000000,0.000000,0.119674,0.145649,0.057117,0.066637,0.000000,88.000000,82.000000,6.000000,7.000000,0.000000,0.000000,0.000000,0.000000,0.000000;
#CREDIT:;
#NOTES:
0000
0000
0000
0000
,
0000
0000
0000
0000
,
0000
0000
0000
0000
,
0001
0000
0000
0100
,
0000
0000
0100
0000
,
0000
0010
0000
0000
,
0010
0000
0000
0100
,
0000
0000
0001
0000
,
0000
1000
0000
0000
,
1001
0000
0000
0001
,
0000
0000
1000
0000
,
0000
0010
0000
0000
,
0100
0000
0000
0001
,
0000
0000
1000
0000
,
0000
0000
0000
0000
,
0020
0030
0000
0100
,
0000
0000
0010
0000
,
0000
0100
0000
0000
,
0020
0030
0000
0100
,
0000
0000
0001
0000
,
0000
1000
0000
0000
,
0010
0000
0000
0100
,
0000
0000
0010
0000
,
0000
0100
0000
0000
,
0001
0000
0000
1000
,
0000
0000
0010
0000
,
0000
0100
0000
0000
,
0110
0000
0000
0001
,
0000
0000
1000
0000
,
0000
0010
0000
0000
,
0010
0000
0000
0100
,
0000
0000
0001
0000
,
0000
0000
0000
0000
,
1000
0000
0000
0001
,
0000
0000
0100
0000
,
0000
0000
0000
0000
,
0001
0000
0000
0100
,
0000
0000
1000
0000
,
0000
0000
0000
0000
,
0110
0000
0000
0001
,
0000
0000
0001
0000
,
0000
0000
0000
0000
,
0110
0000
0000
1000
,
0000
0000
1000
0000
,
0000
0000
0000
0000
,
0002
0000
0003
0000
,
0000
0000
1000
0000
,
0000
0000
0000
0000
,
1001
0000
0000
0100
,
0000
0000
0001
0000
,
0000
0000
0000
0000
,
2000
0000
3000
0000
,
0000
0000
0002
0000
,
0003
0000
0000
0000
,
1000
0000
0000
0100
,
0000
0000
1000
0000
,
0000
0001
0000
0000
,
0010
0000
0000
0001
,
0000
0000
0010
0000
,
0000
0001
0000
0000
,
1000
0000
0000
0100
,
0000
0000
1000
0000
,
0000
0001
0000
0000
,
0010
0000
0000
0001
,
0000
0000
0010
0000
,
0000
0000
0000
0000
,
0011
0000
0000
0000
,
0000
0000
1000
0000
,
0000
1000
0000
0000
,
0002
0000
0000
0003
,
0000
0000
2000
0000
,
0000
3000
0000
0000
,
0001
0000
0000
0000
,
0000
0000
0100
0000
,
0000
0000
0000
0000
,
0001
0000
0000
0100
,
0000
0000
0001
0000
;

//---------------dance-single - ----------------
#NOTEDATA:;
#CHARTNAME:;
#STEPSTYPE:dance-single;
#DESCRIPTION:;
#CHARTSTYLE:;
#DIFFICULTY:Easy;
#METER:5;
#RADARVALUES:0.244788,0.291298,0.133274,0.047598,0.000000,180.000000,166.000000,14.000000,5.000000,0.000000,0.000000,0.000000,0.000000,0.000000,0.244788,0.291298,0.133274,0.047598,0.000000,180.000000,166.000000,14.000000,5.000000,0.000000,0.000000,0.000000,0.000000,0.000000;
#CREDIT:;
#NOTES:
0000
0000
0000
0000
,
0000
0000
0000
0000
,
0000
0000
0000
0000
,
0001
0000
0000
0100
,
0001
0100
0001
0000
,
0000
0110
0000
1000
,
0010
0000
1000
0001
,
0000
0001
1000
0000
,
0010
0100
0000
0000
,
0011
0000
0001
0001
,
1000
0000
1001
0000
,
1000
1000
0100
0000
,
0011
0000
0001
1000
,
0000
1000
0010
0000
,
0010
0100
0000
0000
,
0010
0100
0001
0100
,
0000
0001
0010
0000
,
0100
1000
0000
0001
,
0100
0000
0100
0010
,
0000
0010
1000
0000
,
0001
1000
0000
0001
,
0010
0000
0100
0100
,
0000
0001
0010
0000
,
0100
0100
0000
1000
,
0100
0000
0010
0010
,
0000
1000
0100
0000
,
0010
0010
0000
0000
,
0101
0000
0000
0001
,
0000
1000
0001
0000
,
0001
0100
0000
0000
,
0110
0000
0001
0100
,
0000
0100
0010
0000
,
0010
1000
0000
0000
,
0101
0000
0000
0001
,
0100
0001
0100
0000
,
0010
1000
0000
1000
,
0100
0000
0010
0001
,
0000
0001
1000
0000
,
0001
0100
0000
0000
,
0100
0100
0000
0001
,
0000
1000
0001
0000
,
0001
1000
0001
1000
,
0010
0000
0010
1000
,
0000
0000
0110
0000
,
0010
0001
0000
0000
,
0010
0000
0000
0100
,
0000
0000
1000
0100
,
0010
0001
0000
1000
,
0001
0000
0000
0100
,
0100
0000
0001
0000
,
0001
1000
0001
1000
,
0002
0000
0003
0100
,
0000
0000
0020
0000
,
0030
0100
0000
0000
,
0120
0000
0000
0130
,
0000
0000
1000
0001
,
1000
0001
0000
0000
,
1000
0100
1000
0100
,
0000
0000
0010
0000
,
0000
0001
0010
0001
,
0100
0000
0000
0110
,
0000
0000
1001
0000
,
1000
0001
0000
0001
,
0100
0000
0010
1000
,
0000
0100
0010
0000
,
0000
0001
0000
0000
,
0001
1000
0000
0001
,
0000
0000
1000
0001
,
0000
1000
0000
0000
,
0102
0000
0000
0103
,
0000
0000
2010
0000
,
0000
3010
0000
0000
,
0001
0000
0000
0001
,
0000
0000
1000
0000
,
0000
1000
0000
0000
,
1001
0000
0000
0100
,
0000
0000
0001
0000
;

//---------------dance-single - ----------------
#NOTEDATA:;
#CHARTNAME:;
#STEPSTYPE:dance-single;
#DESCRIPTION:;
#CHARTSTYLE:;
#DIFFICULTY:Medium;
#METER:6;
#RADARVALUES:0.330464,0.364123,0.218950,0.123754,0.000000,243.000000,220.000000,23.000000,13.000000,0.000000,0.000000,0.000000,0.000000,0.000000,0.330464,0.364123,0.218950,0.123754,0.000000,243.000000,220.000000,23.000000,13.000000,0.000000,0.000000,0.000000,0.000000,0.000000;
#CREDIT:;
#NOTES:
// measure 0
0000
0000
0000
0000
,  // measure 1
0000
0000
0000
0000
,  // measure 2
0000
0000
0000
0000
,  // measure 3
0001
0100
0000
0100
,  // measure 4
0010
1000
0100
0010
,  // measure 5
0000
0011
0001
1000
,  // measure 6
0010
0100
0010
0001
,  // measure 7
0010
0100
0020
0030
,  // measure 8
0100
0020
0030
1000
,  // measure 9
1001
0000
0001
1001
,  // measure 10
0000
0100
1001
0000
,  // measure 11
0010
1001
0000
0100
,  // measure 12
0101
0000
0010
1010
,  // measure 13
0000
1000
0100
0010
,  // measure 14
0001
0000
0010
0100
,  // measure 15
0010
0100
1000
0100
,  // measure 16
0010
0001
0020
0030
,  // measure 17
0100
1100
0100
0010
,  // measure 18
0001
0100
0010
0100
,  // measure 19
0000
0001
1001
0000
,  // measure 20
0001
1000
0100
0010
,  // measure 21
0010
0002
0003
0100
,  // measure 22
0100
0000
0010
0010
,  // measure 23
0000
0100
0001
1000
,  // measure 24
0100
0020
0030
0010
,  // measure 25
0001
1000
0100
0000
,  // measure 26
0010
0001
1000
0001
,  // measure 27
1001
0000
0100
0001
,  // measure 28
1000
1000
1001
0000
,  // measure 29
0001
0100
0010
1000
,  // measure 30
0010
0100
0001
0101
,  // measure 31
0000
0100
0010
0000
,  // measure 32
0010
0200
0300
0001
,  // measure 33
0100
0100
0001
1100
,  // measure 34
1100
0000
0100
0010
,  // measure 35
0001
1000
0000
0001
,  // measure 36
0100
0010
1000
0011
,  // measure 37
0011
0000
0001
0100
,  // measure 38
0010
0100
0100
0000
,  // measure 39
0110
0000
1000
0000
,  // measure 40
0010
1000
0001
0000
,  // measure 41
0001
0100
0010
1000
,  // measure 42
0001
0000
0100
0110
,  // measure 43
0000
0000
1001
0000
,  // measure 44
0010
0100
0000
0010
,  // measure 45
0100
0000
0100
0010
,  // measure 46
0000
0010
1000
0000
,  // measure 47
0001
1000
0000
0010
,  // measure 48
1000
0001
0100
0000
,  // measure 49
0200
0300
0001
0000
,  // measure 50
0001
1000
0001
1000
,  // measure 51
0002
0000
0003
0100
,  // measure 52
0010
0100
0020
0000
,  // measure 53
0030
0100
0001
0000
,  // measure 54
0101
0000
0010
0100
,  // measure 55
0010
0000
1010
0000
,  // measure 56
1000
0001
0100
0000
,  // measure 57
0001
0100
1000
0100
,  // measure 58
0001
0000
0010
0100
,  // measure 59
0010
0100
1000
0000
,  // measure 60
1010
0000
0000
0101
,  // measure 61
0000
1000
0001
1000
,  // measure 62
0001
1000
0000
0001
,  // measure 63
0100
0001
0100
0001
,  // measure 64
0000
1000
0010
1000
,  // measure 65
0010
1000
0000
0001
,  // measure 66
0002
0003
0100
0000
,  // measure 67
0010
0000
0010
0020
,  // measure 68
0030
1000
0000
0001
,  // measure 69
0200
0000
0301
0100
,  // measure 70
0010
0000
2000
0000
,  // measure 71
3100
0010
0001
0000
,  // measure 72
1000
0010
0100
0100
,  // measure 73
0000
0000
0010
1000
,  // measure 74
0001
0001
0000
0000
,  // measure 75
1000
0000
0001
0100
,  // measure 76
0000
0100
0001
0000
;

//---------------dance-single - ----------------
#NOTEDATA:;
#CHARTNAME:;
#STEPSTYPE:dance-single;
#DESCRIPTION:;
#CHARTSTYLE:;
#DIFFICULTY:Hard;
#METER:8;
#RADARVALUES:0.352223,0.436947,0.152313,0.209430,0.014279,259.000000,243.000000,16.000000,22.000000,0.000000,0.000000,0.000000,0.000000,0.000000,0.352223,0.436947,0.152313,0.209430,0.014279,259.000000,243.000000,16.000000,22.000000,0.000000,0.000000,0.000000,0.000000,0.000000;
#CREDIT:;
#NOTES:
0000
0000
0000
0000
,
0000
0000
0000
0000
,
0000
0000
0000
0000
,
0001
1000
0010
0100
,
0010
0000
0100
0001
0100
0000
0001
0000
,
1000
0001
0100
0100
,
0100
0000
0001
1000
,
0010
0000
0010
0000
,
0100
0000
0110
0000
0000
0000
0010
0100
,
0010
0100
0000
0010
,
0000
0000
0100
0010
0100
0000
0010
0000
,
0000
1000
0100
0010
,
0001
0000
0001
0010
,
0100
1000
0002
0000
,
0000
0003
0100
0010
,
0100
0000
0000
0000
0001
0000
0000
0100
0000
0000
0000
0000
0010
0000
0000
0000
,
0000
0100
0000
0000
0101
0000
0000
0000
,
1000
0001
1000
0000
0001
0000
0010
0000
,
0100
0000
0000
0000
1000
0000
0000
1000
0000
0000
0000
0000
0001
0000
0000
0000
,
0000
0100
0000
0000
0110
0000
0000
0000
,
0100
0010
0100
0000
0000
0000
0010
0000
,
1000
0000
0010
0100
0000
0000
0100
0000
,
0010
0000
0000
0000
0100
0000
0000
0001
,
0000
0100
0000
0001
,
1000
0000
0001
1000
0000
0000
0001
0000
,
1000
0010
1000
0000
0010
0000
0000
0000
,
0100
0001
0100
0010
,
0110
0000
0000
0000
0010
0000
0000
0100
0000
0000
0000
0000
0001
0000
0000
0000
,
0000
1000
0000
0000
0001
0000
1000
0010
,
1000
0001
0100
0001
,
0100
0000
0010
0100
0000
0000
0110
0000
,
0000
0100
0000
0000
0101
0000
0000
0010
,
0000
1010
0000
0100
,
0001
1000
0010
0100
,
0010
0000
0000
0100
0010
0000
0000
0000
,
0000
0100
0010
0000
0000
0000
1000
0010
,
1000
0001
0010
0100
,
1000
0000
0000
0010
0100
0000
0000
0000
,
0001
0010
0001
0000
0010
0000
0000
0000
,
0200
1000
0300
1000
,
0000
0100
0000
0000
0010
0000
0001
0010
,
0001
0000
0100
0010
0100
0000
0010
0000
,
0100
0001
0001
2000
,
0000
0000
3010
0000
0100
0010
0000
0000
,
0000
0010
0000
0100
,
0100
0001
0000
0001
,
1000
1000
0020
0000
,
0130
0100
0001
0000
,
2000
0001
3001
0000
,
0200
0000
0310
0000
,
0100
0010
0010
0100
,
2002
0000
0000
0003
0000
0000
3002
0000
,
0000
0000
2003
0000
,
0000
3001
0100
0000
,
0110
0000
0000
0100
,
0010
0100
0001
2000
,
3000
1001
0001
0010
,
0100
0010
0000
0011
,
0001
0010
0100
0010
,
0001
0010
0100
0010
,
0100
1000
0000
1100
,
0100
0010
0001
0010
,
0100
1000
0000
0010
,
0200
0300
0010
2000
,
3000
0001
0200
0300
,
0010
0110
1000
0001
,
1001
1000
0010
0110
,
0100
0001
0010
0000
,
0100
1001
1000
0001
,
0200
0000
0000
0302
,
0000
1000
1003
0100
,
0010
0001
0000
1000
,
0002
0203
0000
0310
,
0010
1000
2000
3002
,
0000
0000
0103
0000
0010
0000
0100
0010
,
0200
0300
0010
2000
,
0000
0001
3000
0000
0001
0000
0000
0000
;

//---------------dance-single - ----------------
#NOTEDATA:;
#CHARTNAME:;
#STEPSTYPE:dance-single;
#DESCRIPTION:;
#CHARTSTYLE:;
#DIFFICULTY:Challenge;
#METER:11;
#RADARVALUES:0.511336,0.546184,0.218950,0.209430,0.023799,376.000000,353.000000,23.000000,22.000000,0.000000,0.000000,0.000000,0.000000,0.000000,0.511336,0.546184,0.218950,0.209430,0.023799,376.000000,353.000000,23.000000,22.000000,0.000000,0.000000,0.000000,0.000000,0.000000;
#CREDIT:;
#NOTES:
0000
0000
0000
0000
,
0000
0000
0000
0000
,
0000
0000
0000
0000
,
0001
0000
1000
0010
0100
0000
0110
0000
,
0010
0000
0100
0001
0100
0000
0001
1000
,
0001
1000
0001
0000
0100
0010
1000
0100
,
0010
0000
0001
0000
0010
0100
1000
0000
,
0010
0100
0200
0010
,
0310
0000
0110
0000
1000
0100
0010
0001
,
0100
0010
1000
0010
,
1000
0000
0001
0010
0100
0000
0010
0000
,
0001
0000
1001
0000
0100
0010
0100
0010
,
0100
0000
0001
2000
,
0100
3001
0002
0000
,
0000
0003
0100
0010
,
0100
0000
0000
0000
0001
0000
0000
0100
0000
0000
0000
0000
0010
0000
0100
0000
,
0010
0100
0001
0000
0100
0000
0001
0000
,
1000
0001
1000
0000
0001
0000
0001
0000
,
0100
0000
0000
0000
1000
0000
0000
0100
0000
0000
0000
0000
0001
0000
0000
0000
,
0000
0100
0010
0100
0010
0000
0000
0000
,
1000
0001
1000
0000
0000
0000
0010
0000
,
1001
0000
0010
0100
0000
0100
0001
0000
,
0010
0100
0000
0100
1000
0000
0000
0000
,
0001
0100
0001
0000
0000
0000
1000
0000
,
1001
0000
0001
1000
0000
0010
0100
0000
,
1000
0010
0000
0010
0001
0000
0000
0000
,
0100
0010
0100
0000
0100
0010
1000
0000
,
0110
0000
0000
0000
0010
0000
0000
0100
0000
0000
0000
0000
0001
0000
0010
0000
,
0100
1000
0000
1000
0001
0000
1000
0100
,
0010
0001
1000
0000
0100
0000
0001
0000
,
0100
0000
0010
0001
0000
0000
0011
0000
,
0000
0010
0000
0100
1000
0000
1000
0010
,
0100
0000
1000
0010
0100
0010
0100
0000
,
0001
1001
0010
0110
,
0020
0030
0100
0010
0100
0000
0010
1000
,
0100
0010
0001
0100
0010
0000
1000
0010
,
1000
0001
0010
0110
,
0100
0010
0000
0001
0001
0000
0000
0000
,
1000
0100
0010
0000
0001
0000
0100
0010
,
1000
0000
0001
1000
0001
0000
1000
0000
,
0000
0100
0010
0100
0010
0000
0001
0010
,
0100
0010
0100
1000
0100
0000
0010
0000
,
0011
0100
0011
2200
,
3300
0000
0010
0000
0100
0010
0000
0000
,
0100
0010
0010
0000
0010
0100
0100
0000
,
0001
0100
0001
0100
0010
0000
0010
0000
,
1000
0000
1100
0000
0100
0010
0001
0100
,
0010
0100
0002
0003
,
2000
0100
3010
0001
,
2000
0010
3001
0000
,
0010
0000
0000
0000
0100
0000
0000
0010
0100
0000
0000
0010
0100
0000
0000
0000
,
0200
0301
0001
0010
,
0100
0010
2000
3010
,
0001
0010
0001
0000
1000
0100
0010
0100
,
0010
0001
0100
0010
,
1000
0001
0100
0001
1000
0010
0100
0000
,
0000
0000
0011
0000
0001
0010
0001
0010
,
0100
0010
0001
0000
0100
0000
0101
0000
,
0001
1000
0010
1000
0001
1000
0010
0000
,
0100
0010
0100
0000
0100
0001
1000
0001
,
1000
0001
0100
0110
,
0100
0010
0100
0010
1000
0000
0010
0000
,
0100
0000
0101
0000
0100
0001
0100
0001
,
0100
0000
0010
2000
,
3000
0000
0001
0000
0200
0000
0310
0100
,
0000
0010
0100
0000
0001
0000
0110
0000
,
1001
1000
0010
0110
,
0100
0001
0110
0100
,
1000
0000
1001
0000
2000
3000
0002
0003
,
0200
0000
0000
0302
,
1000
0100
1003
0100
,
0000
0010
0001
0000
1000
0100
1000
0001
,
0010
0001
0020
0000
0030
0000
0010
0001
,
0010
0100
0010
0001
0020
0000
0230
0000
,
0300
0000
1000
0000
0100
1000
0100
0010
,
0002
0000
0003
0000
0010
0100
0020
0000
,
0030
0000
0001
0000
;
