#VERSION:0.83;
#TITLE:Kieta!? Napoleon;
#SUBTITLE:;
#ARTIST:Naya~n dan;
#TITLETRANSLIT:;
#SUBTITLETRANSLIT:;
#ARTISTTRANSLIT:;
#GENRE:GANG;
#ORIGIN:;
#CREDIT:from pop n music 10;
#BANNER:10_GANG.png;
#BACKGROUND:;
#PREVIEWVID:;
#JACKET:;
#CDIMAGE:;
#DISCIMAGE:;
#LYRICSPATH:;
#CDTITLE:;
#MUSIC:Naya~n - Kieta! Napoleon.mp3;
#OFFSET:-0.111000;
#SAMPLESTART:0.070000;
#SAMPLELENGTH:16.000000;
#SELECTABLE:YES;
#BPMS:0.000=106.000;
#STOPS:;
#DELAYS:;
#WARPS:;
#TIMESIGNATURES:0.000=4=4;
#TICKCOUNTS:0.000=4;
#COMBOS:0.000=1;
#SPEEDS:0.000=1.000=0.000=0;
#SCROLLS:0.000=1.000;
#FAKES:;
#LABELS:0.000=Song Start;
#BGCHANGES:;
#KEYSOUNDS:;
#ATTACKS:
;

//---------------dance-single - ----------------
#NOTEDATA:;
#CHARTNAME:;
#STEPSTYPE:dance-single;
#DESCRIPTION:;
#CHARTSTYLE:;
#DIFFICULTY:Beginner;
#METER:2;
#RADARVALUES:0.120717,0.149824,0.055593,0.055593,0.000000,76.000000,71.000000,5.000000,5.000000,0.000000,0.000000,0.000000,0.000000,0.000000,0.120717,0.149824,0.055593,0.055593,0.000000,76.000000,71.000000,5.000000,5.000000,0.000000,0.000000,0.000000,0.000000,0.000000;
#CREDIT:;
#NOTES:
0000
0000
0000
0000
,
0000
0000
0000
0000
,
0100
0000
0000
0100
,
0000
0000
0000
0000
,
0200
0300
0020
0030
,
0100
0000
0010
0000
,
2000
3000
0002
0003
,
1000
0000
0010
0000
,
0110
0000
0000
0110
,
0000
0000
0000
0000
,
0001
0000
1000
0000
,
0001
0000
0100
0000
,
0010
0000
0100
0000
,
0010
0000
0100
0000
,
0100
0000
0001
0000
,
1000
0000
0001
0000
,
1000
0000
0010
0000
,
0100
0000
0001
0000
,
1000
1000
0000
1000
,
0001
0001
0000
0001
,
0001
0000
1000
0000
,
1001
0000
0000
0001
,
0001
0000
1000
0000
,
1000
0000
1000
1000
,
0001
0000
0001
0001
,
1000
0000
0000
0001
,
0100
0000
0001
0000
,
0100
0000
0010
0000
,
0100
0000
0010
0000
,
0100
0000
0001
0000
,
1000
0000
0001
0000
,
1000
0000
0000
0000
,
0001
0000
1000
0000
,
0001
0000
0000
0000
,
0110
0000
0000
0110
,
0000
0000
0000
0001
,
0001
0000
1000
1000
,
1000
0000
0000
0001
,
0002
0000
0003
0000
;

//---------------dance-single - ----------------
#NOTEDATA:;
#CHARTNAME:;
#STEPSTYPE:dance-single;
#DESCRIPTION:;
#CHARTSTYLE:;
#DIFFICULTY:Easy;
#METER:5;
#RADARVALUES:0.238257,0.384010,0.289085,0.144542,0.100068,150.000000,124.000000,26.000000,13.000000,0.000000,0.000000,0.000000,0.000000,0.000000,0.238257,0.384010,0.289085,0.144542,0.100068,150.000000,124.000000,26.000000,13.000000,0.000000,0.000000,0.000000,0.000000,0.000000;
#CREDIT:;
#NOTES:
0000
0000
0000
0000
,
0000
0000
0000
0000
,
0100
0000
0100
0100
,
0000
0100
0200
0300
,
0020
0000
0000
0000
0000
1000
0030
0000
0000
0000
0000
0000
0002
0000
0000
0000
0000
0100
0003
0000
0000
0000
0000
0000
,
0010
0000
0000
0000
0000
0000
0100
0000
0000
0000
0000
0000
2000
0000
0000
0000
0000
0001
3000
0000
0000
0000
0000
0000
,
0002
0000
0000
0000
0000
1000
0003
0000
0000
0000
0000
0000
1000
0000
0000
0000
0000
0001
0000
0000
0000
0000
0000
0000
,
0100
0000
0000
0000
0000
0010
0000
0000
0000
0000
0000
0000
0110
0000
0000
0000
0000
0110
0000
0000
0000
0000
0000
0000
,
0110
0000
0000
0000
0000
0110
0000
0000
0000
0000
0000
1001
0000
0000
0000
0000
0000
0000
1001
0000
0000
0000
0000
0000
,
1001
0000
0000
0000
0000
1001
0000
0000
0000
0000
0000
0000
0000
0000
0000
0000
0000
0010
0000
0000
0000
0000
0000
0000
,
1000
0010
0001
0000
,
0100
0010
0010
0100
,
0100
0000
0000
0000
0000
0000
0000
0000
0000
0000
0000
0000
0010
0000
0000
0000
0000
1000
0000
0000
0000
0000
0000
0000
,
0010
0000
0000
0000
0000
0100
0000
0000
0000
0000
0000
0000
0200
0000
0000
0000
0000
0000
0301
0000
0000
0000
0000
0000
,
0001
1000
2000
3001
,
0001
0010
1000
0010
,
0001
0000
0100
0001
,
1000
0100
0001
0100
,
1000
0000
0001
0010
,
2000
3000
1001
0000
,
1100
0000
1001
1001
,
0200
0301
0000
0001
,
0020
0030
0101
1010
,
2000
3001
1001
0000
,
1000
0010
1010
0110
,
0200
0301
0010
0001
,
0100
0000
0100
0001
,
0010
0001
1000
0000
,
0001
0010
0001
1000
,
0001
0000
1000
0010
,
0001
0010
1000
0000
,
0001
0100
0001
1000
,
0010
0000
0100
0001
,
0010
0000
0000
0000
0000
0000
0000
0000
0000
0000
0000
0000
0110
0000
0000
0000
0000
0110
0000
0000
0000
0000
0000
0000
,
0110
0000
0000
0000
0000
0110
0000
0000
0000
0000
0000
1001
0000
0000
0000
0000
0000
0000
1001
0000
0000
0000
0000
0000
,
1001
0000
0000
0000
0000
1001
0000
0000
0000
0000
0000
1001
0000
0000
0000
0000
0000
0000
0100
0000
0000
0000
0000
0000
,
0001
0000
0000
1000
0000
0000
0020
0000
,
0030
0100
0001
0001
,
0001
0000
0000
0001
0000
0000
0000
0000
;

//---------------dance-single - ----------------
#NOTEDATA:;
#CHARTNAME:;
#STEPSTYPE:dance-single;
#DESCRIPTION:;
#CHARTSTYLE:;
#DIFFICULTY:Medium;
#METER:9;
#RADARVALUES:0.390741,0.406224,0.222373,0.144542,0.605966,246.000000,226.000000,20.000000,13.000000,0.000000,0.000000,0.000000,0.000000,0.000000,0.390741,0.406224,0.222373,0.144542,0.605966,246.000000,226.000000,20.000000,13.000000,0.000000,0.000000,0.000000,0.000000,0.000000;
#CREDIT:;
#NOTES:
0000
0000
0000
0000
,
0000
0000
0000
0000
,
0100
0000
0000
0010
0000
0000
0001
0000
0000
0100
0000
0000
0002
0000
0000
0000
,
0000
0000
0000
0003
0000
0000
0100
0000
0000
0100
0100
0000
,
0010
0000
0000
0100
0000
0001
0000
0000
0010
0000
0000
0000
0010
0000
0000
0001
0000
0100
0000
0000
1000
0000
0000
0000
,
0001
0000
0000
1000
0000
0100
0000
0000
0010
0000
0000
0010
0000
0000
0100
0000
0000
0010
0000
0000
0000
0000
0000
0000
,
1000
0000
0000
0100
0000
1000
0000
0000
0010
0000
0000
0000
0100
0000
0000
0001
0000
0100
0000
0000
1000
0000
0000
0000
,
0100
0000
0000
0001
0000
0010
0000
0000
0001
0000
0000
0010
0000
0000
0100
0000
0000
0010
0000
0000
0000
0000
0000
0000
,
1000
0000
0001
0000
0000
1001
0000
0000
1100
0000
0000
1001
0000
0000
0000
0000
0000
0000
0020
0000
0000
0000
0000
0030
,
0100
0000
0001
0000
0000
0100
0000
0000
0101
0000
0000
1001
0000
0000
0000
0000
0000
2000
0000
0000
0000
0000
0000
0000
,
3001
0000
0000
0010
0000
0001
0000
0000
0100
0000
0000
0000
0010
0000
0000
0100
0000
0001
0000
0000
1000
0000
0000
0000
,
0010
0000
0000
0100
0000
0001
0000
0000
0100
0000
0000
0010
0000
0000
1000
0000
0000
0010
0000
0000
0000
0000
0000
0000
,
0100
0000
0000
0010
0000
1000
0000
0000
0100
0000
0000
0000
0010
0000
0000
1000
0000
0010
0000
0000
0001
0000
0000
0000
,
0100
0000
0000
0001
0000
0010
0000
0000
0010
0000
0000
0100
0000
0000
0010
0000
0000
0100
0000
0000
0000
0000
0000
0000
,
1000
0000
0000
0001
0000
0000
0001
0000
0000
0000
0000
1000
0000
0000
0001
0000
0000
0100
0000
0000
0000
0010
0000
0000
,
0100
0000
0000
0010
0000
0000
0100
0000
0000
0000
0000
0001
0000
0000
1000
0000
0000
0010
0000
0000
0000
0100
0000
0000
,
0010
0000
0000
1000
0000
0000
0001
0000
0000
0000
0000
0100
0000
0000
0001
0000
0000
0100
0000
0000
0000
0001
0000
0000
,
0010
0100
1000
0001
0100
0001
0100
0010
,
1000
0000
0000
0010
0000
0000
0100
0000
0000
0000
0000
0110
0000
0000
0100
0000
0000
0010
0000
0000
0000
0000
0000
0000
,
0001
0000
0000
0100
0000
0000
0001
0000
0000
0000
0000
0100
0000
0000
0010
0000
0000
0100
0000
0000
0000
0000
0000
0000
,
0010
1100
0011
0001
,
1001
0000
0000
0000
0000
0100
0000
0000
0000
0000
0000
0000
0000
0000
1001
0000
0000
0000
0100
0000
0000
0000
0000
0000
,
0010
0000
0000
0000
0000
0020
0000
0000
0000
0000
0000
0000
0030
0000
0000
0000
0000
0000
0200
0000
0000
0000
0300
0000
,
0100
0000
0000
0000
0000
0200
0000
0000
0000
0000
0000
0000
0300
0000
0000
0000
0000
0000
0001
0000
0000
0000
0000
0000
,
2002
0000
0000
0000
0000
3003
0000
0000
0000
0000
0000
0000
0000
0000
0100
0000
0010
0000
0100
0000
0000
0000
0000
0000
,
0010
0000
0000
0000
0000
0020
0000
0000
0000
0000
0000
0000
0030
0000
0000
1000
0000
0001
0000
0000
0000
0100
0000
0000
,
0001
0000
0000
1000
0000
0001
0000
0000
0100
0000
0000
0000
0001
0000
0000
1000
0000
0001
0000
0000
0010
0000
0000
0000
,
0100
0000
0000
1000
0000
0001
0000
0000
0100
0000
0000
0000
0010
0000
0000
1000
0000
0001
0000
0000
0010
0000
0000
0000
,
0001
0000
0000
1000
0000
0001
0000
0000
0100
0000
0000
0000
0001
0000
0000
1000
0000
0001
0000
0000
0010
0000
0000
0000
,
0100
0000
0000
1000
0000
0001
0000
0000
0100
0000
0000
0000
0010
0000
0000
1000
0000
0001
0000
0000
0000
0000
0000
0000
,
0010
0000
0000
0010
0000
0001
0000
0000
0000
0010
0000
0000
0001
0000
0010
0000
0000
0000
0100
0000
0000
0100
0000
1000
,
0000
0000
0000
0100
0000
0000
1000
0000
0100
0000
0000
0000
0011
0000
0000
0000
0000
0010
0000
0000
0000
0000
0000
0000
,
0001
0000
0000
0000
0000
1000
0000
0000
0000
0010
0000
0000
0000
0000
0100
0000
0000
0000
0011
0000
0000
0000
0000
0110
,
0000
0000
0000
1000
0000
0000
0000
0000
0001
0000
0000
0000
0010
0000
0000
0000
0000
0100
0000
0000
0000
0000
0000
0000
,
1000
0000
0001
0000
0000
1001
0000
0000
0110
0000
0000
1001
0000
0000
0000
0000
0000
0000
0200
0000
0000
0000
0000
0000
,
0310
0000
0100
0000
0000
0001
0000
0000
0010
0000
0000
1000
0000
0000
0000
0010
0000
0000
0020
0000
0000
0000
0030
0000
,
0001
0000
0000
0000
0000
0000
0000
0000
0000
1001
0000
0000
0000
0000
0000
0000
0000
0000
1000
0000
0000
0000
0000
0000
0000
0000
0000
0100
0000
0000
0000
0000
0000
0000
0000
0000
0010
0000
0000
0000
0002
0000
0000
0000
0000
0000
0000
0000
,
0000
0000
0003
0000
0000
0000
0010
0000
0000
0001
0000
0000
0200
0000
0000
0000
0300
0000
0001
0000
0000
0000
0000
0000
,
0101
0000
0000
0000
0000
0101
0000
0000
0000
0001
0000
0100
0000
0000
0000
0000
0000
0000
0000
0000
0000
0000
0000
0000
;

//---------------dance-single - ----------------
#NOTEDATA:;
#CHARTNAME:;
#STEPSTYPE:dance-single;
#DESCRIPTION:;
#CHARTSTYLE:;
#DIFFICULTY:Hard;
#METER:13;
#RADARVALUES:0.582935,0.597998,0.144542,0.200136,1.084068,367.000000,354.000000,13.000000,18.000000,0.000000,0.000000,0.000000,0.000000,0.000000,0.582935,0.597998,0.144542,0.200136,1.084068,367.000000,354.000000,13.000000,18.000000,0.000000,0.000000,0.000000,0.000000,0.000000;
#CREDIT:;
#NOTES:
// measure 0
0000
0000
0000
0000
,  // measure 1
0000
0000
0000
0000
,  // measure 2
0100
0000
0000
0000
0000
0000
0010
0000
0000
0100
0000
0000
0001
0000
0000
0010
0000
0000
1000
0000
0000
0001
0000
0000
0100
0000
0000
1000
0000
0000
0010
0000
0000
0100
0000
0000
0002
0000
0000
0000
0020
0000
0000
0000
0000
0000
0000
0000
,  // measure 3
0000
0000
0000
0033
0000
0000
0100
0000
0000
0100
0010
0000
,  // measure 4
0100
0000
0010
0100
0000
0010
0000
0000
0100
0000
0000
0000
0001
0000
0001
0010
0000
0100
0000
0000
1000
0000
0000
0000
,  // measure 5
1000
0000
1000
0100
0000
0010
0000
0000
0001
0010
0000
0100
1000
0000
0100
0000
0000
0020
0000
0000
0000
0030
0000
0000
,  // measure 6
1000
0000
0010
0100
0000
0010
0000
0000
0100
0000
0000
0000
0001
0000
0100
0010
0000
0100
0000
0000
0010
0000
0000
0000
,  // measure 7
1000
0000
0100
0010
0000
0001
0000
0000
1000
0100
0000
0010
0001
0000
0100
0000
0000
0020
0000
0000
0000
0030
0000
0000
,  // measure 8
1000
0000
0001
0000
0000
1001
0000
0000
1100
0000
0000
1001
0000
0000
0000
0000
0000
0000
0020
0000
0000
0000
0000
0030
,  // measure 9
0100
0000
0010
0000
0000
0100
0000
0000
0101
0000
0000
1000
0000
0000
0000
0001
0000
2000
0000
0000
0000
0000
0000
0000
,  // measure 10
3001
0000
0010
0001
0000
0010
0000
0000
0100
0000
0000
0000
1000
0000
0100
1000
0000
0100
0000
0000
0010
0000
0000
0000
,  // measure 11
0001
0000
0010
0001
0000
0001
0000
0000
0100
0001
0000
0010
0100
0000
1000
0000
0000
0002
0000
0000
0000
0003
0000
0000
,  // measure 12
0100
0000
0010
0100
0000
0001
0000
0000
0100
0000
0000
0000
0100
0000
0010
0100
0000
0001
0000
0000
0100
0000
0000
0000
,  // measure 13
0010
0000
0100
0010
0000
1000
0000
0000
0010
1000
0000
0100
0010
0000
0001
0000
0000
2000
0000
0000
0000
3000
0000
0000
,  // measure 14
0001
0000
0010
0001
0000
0010
0001
0000
0010
0000
0000
0100
0000
0000
0010
0000
0000
0001
0010
0000
0000
0100
0000
0000
,  // measure 15
1000
0000
0100
1000
0000
0100
1000
0000
0100
0000
0000
0010
0000
0000
0100
0000
0000
1000
0100
0000
0000
0010
0000
0000
,  // measure 16
0100
0000
0000
1000
0000
0000
0101
0000
0010
0000
0000
0110
0000
0000
0010
0000
0000
0100
0000
0000
0000
0001
0000
0000
,  // measure 17
0010
0000
0100
0010
0000
0100
0010
0000
0100
0000
0000
1000
0000
0000
0100
0000
0000
0010
0001
0000
0001
0010
0000
0000
,  // measure 18
0001
0000
1000
0001
0000
1000
0001
0000
0100
0000
0000
0020
0000
0000
0100
0000
0000
0100
0030
0000
0100
0010
0100
0010
,  // measure 19
1000
0000
0001
1000
0000
0001
1000
0000
0010
0000
0000
0200
0000
0000
0010
0000
0000
0010
0300
0000
0010
0100
0010
0100
,  // measure 20
0010
0000
0100
0010
0000
0100
0010
0000
0100
0010
0000
0100
0000
0000
0010
0000
0000
0100
0001
0000
0000
0010
0000
0000
,  // measure 21
1000
0000
0010
0100
0000
0010
0100
0000
0010
0100
0000
0000
0000
0000
0100
0010
0000
0010
0100
0000
0001
0000
0010
0000
,  // measure 22
0100
0000
0000
0000
0000
2000
0000
0000
0000
0000
0000
0000
3000
0000
0010
0000
0100
0000
0010
0000
0000
0000
0000
0000
,  // measure 23
0100
0000
0000
0010
0000
0200
0000
0000
0000
0000
0000
0000
0301
0000
0010
0000
0001
0000
0010
0000
0000
0000
0000
0000
,  // measure 24
2002
0000
0000
0000
0000
3003
0000
0000
0000
0000
0000
0000
0000
0000
0100
0000
0010
0000
0100
0000
0000
0000
0000
0000
,  // measure 25
0010
0000
0000
0000
0000
0020
0000
0000
0130
0010
0000
0010
0100
0000
0010
1000
0000
0001
0000
0000
0000
0100
0000
0000
,  // measure 26
0001
0000
1000
0001
0000
0100
0000
0000
0100
0000
0000
0000
0001
0000
1000
0001
0000
0010
0000
0000
0010
0000
0000
0000
,  // measure 27
0001
0000
1000
0001
0000
0100
0000
0000
0100
0010
0000
0100
0010
0000
0010
0000
0000
1000
0010
0000
0000
0000
0000
0000
,  // measure 28
1000
0000
0001
1000
0000
0001
0000
0000
0001
0000
0000
0000
1000
0000
0001
1000
0000
0001
0000
0000
0001
0000
0000
0000
,  // measure 29
1000
0000
0001
1000
0000
0010
0000
0000
0010
0100
0000
0010
0100
0000
0100
0000
0000
0001
0100
0000
0001
0000
0000
0000
,  // measure 30
0010
0000
0001
0010
0000
0001
0000
0000
0000
0010
0000
0001
0010
0000
0001
0000
0000
0000
1000
0000
0100
1000
0000
0100
,  // measure 31
0000
0000
0000
1000
0000
0100
1000
0000
0100
0010
0000
0010
0001
0000
0000
0000
0000
0010
0001
0000
0000
0000
0000
0000
,  // measure 32
0001
0000
0000
0100
0000
1000
0000
0000
0000
0100
0000
0000
0010
0000
0001
0000
0000
0000
0010
0000
0000
0100
0000
0100
,  // measure 33
0000
0000
0000
0001
0000
0010
0100
0000
1000
0001
0000
0100
0010
0000
0000
0000
0000
0100
0000
0000
0010
0000
0000
0000
,  // measure 34
1000
0000
0100
0000
0000
1100
0000
0000
0011
0000
0000
1001
0000
0000
0000
0000
0000
0000
0002
0000
0000
0000
0000
0000
,  // measure 35
0013
0000
0001
0000
0000
0011
0000
0000
0110
0000
0000
1001
0000
0000
0000
0010
0000
0000
0020
0000
0000
0000
0030
0000
,  // measure 36
0100
0000
0000
0000
0000
0000
0001
0000
0000
0010
0000
0000
0001
0000
0000
1000
0000
0000
0100
0000
0000
0010
0000
0000
0001
0000
0000
0010
0000
0000
0100
0000
0000
0010
0000
0000
0100
0000
0000
0000
0200
0000
0000
0000
0000
0000
0000
0000
,  // measure 37
0310
0000
0001
0010
0000
0000
0010
0000
0001
0010
0000
0000
0100
0000
1000
0100
0000
0000
0100
0000
1000
0100
0000
0000
,  // measure 38
1000
0001
0000
0000
0000
0100
0001
0000
0000
0001
0100
0000
0000
0000
0000
0000
0000
0000
0000
0000
0000
0000
0000
0000
;
