#VERSION:0.83;
#TITLE:Kibou no Tane;
#SUBTITLE:;
#ARTIST:Cosmos;
#TITLETRANSLIT:;
#SUBTITLETRANSLIT:;
#ARTISTTRANSLIT:;
#GENRE:;
#ORIGIN:;
#CREDIT:;
#BANNER:Cosmos-Kibou-no-tane.png;
#BACKGROUND:;
#PREVIEWVID:;
#JACKET:;
#CDIMAGE:;
#DISCIMAGE:;
#LYRICSPATH:;
#CDTITLE:;
#MUSIC:Cosmos-Kibou-no-tane.ogg;
#OFFSET:-0.182000;
#SAMPLESTART:20.861000;
#SAMPLELENGTH:12.000000;
#SELECTABLE:YES;
#BPMS:0.000=145.000;
#STOPS:;
#DELAYS:;
#WARPS:;
#TIMESIGNATURES:0.000=4=4;
#TICKCOUNTS:0.000=4;
#COMBOS:0.000=1;
#SPEEDS:0.000=1.000=0.000=0;
#SCROLLS:0.000=1.000;
#FAKES:;
#LABELS:0.000=Song Start;
#BGCHANGES:;
#KEYSOUNDS:;
#ATTACKS:
;

//---------------dance-single - ----------------
#NOTEDATA:;
#CHARTNAME:;
#STEPSTYPE:dance-single;
#DESCRIPTION:;
#CHARTSTYLE:;
#DIFFICULTY:Beginner;
#METER:2;
#RADARVALUES:0.086814,0.111545,0.047976,0.039980,0.000000,76.000000,70.000000,6.000000,5.000000,0.000000,0.000000,0.000000,0.000000,0.000000,0.086814,0.111545,0.047976,0.039980,0.000000,76.000000,70.000000,6.000000,5.000000,0.000000,0.000000,0.000000,0.000000,0.000000;
#CREDIT:;
#NOTES:
0000
0000
0000
0000
,
0000
0000
0000
0000
,
0000
0000
0000
0000
,
0000
0000
0000
0100
,
0000
0000
0001
0000
,
0000
1000
0000
0000
,
0001
0000
0000
1000
,
0000
0000
0001
0000
,
0000
0001
0000
0000
,
1000
0000
0000
0010
,
0000
0000
0100
0000
,
0000
0001
0000
0000
,
1000
0000
0000
0001
,
0000
0000
0001
0000
,
0000
1000
0000
0000
,
0100
0000
0000
1000
,
0000
0000
0001
0000
,
0000
1000
0000
0000
,
0001
0000
0000
0100
,
0000
0000
0010
0000
,
0000
0100
0000
0000
,
0001
0000
0000
0100
,
0000
0000
0010
0000
,
0000
0100
0000
0000
,
0010
0000
0000
1000
,
0000
0000
0000
0000
,
0000
0001
0000
0000
,
0000
0000
0000
1000
,
0000
0000
0000
0000
,
0000
0001
0000
0000
,
0000
0000
0000
1000
,
0000
0000
0100
0000
,
0000
1000
0000
0000
,
0000
0000
0000
1002
,
0000
0000
1003
0000
,
0000
1000
0000
0000
,
0001
0000
0000
2000
,
0000
0000
3001
0000
,
0000
0001
0000
0000
,
0100
0000
0000
0002
,
0000
0000
0103
0000
,
0000
1000
0000
0000
,
0010
0000
0000
0100
,
0000
0000
0001
0000
,
0000
0100
0000
0000
,
0010
0000
0000
1000
,
0000
0000
0000
0000
,
0000
1001
0000
0000
,
0000
0000
0000
1100
,
0000
0000
0000
0000
,
0000
0001
0000
0000
,
0100
0000
0000
0001
,
0000
0000
0000
0000
,
0000
1001
0000
0000
,
0000
0000
0000
0110
,
0000
0000
0000
0000
,
0000
0010
0000
0000
,
0100
0000
0000
0020
,
0000
0000
0000
0000
,
0000
0000
0000
0000
,
0030
0000
0000
0200
,
0000
0000
0000
0000
,
0000
0000
0000
0000
,
0300
0000
0000
0001
,
0000
0000
1000
0000
,
0000
1000
0000
0000
,
0000
0000
0000
1001
,
0000
0000
0001
0000
,
0000
0000
0000
0000
,
1000
0000
0000
0001
;

//---------------dance-single - ----------------
#NOTEDATA:;
#CHARTNAME:;
#STEPSTYPE:dance-single;
#DESCRIPTION:;
#CHARTSTYLE:;
#DIFFICULTY:Medium;
#METER:6;
#RADARVALUES:0.214751,0.254574,0.063968,0.079960,0.000000,188.000000,180.000000,8.000000,10.000000,0.000000,0.000000,0.000000,0.000000,0.000000,0.214751,0.254574,0.063968,0.079960,0.000000,188.000000,180.000000,8.000000,10.000000,0.000000,0.000000,0.000000,0.000000,0.000000;
#CREDIT:;
#NOTES:
0000
0000
0000
0000
,
0000
0000
0000
0000
,
0000
0000
0000
0000
,
0000
0000
0000
1000
,
0000
0001
0000
0000
1000
0000
0000
0001
,
0000
0000
1000
0000
0000
0010
0000
0000
,
0100
0000
0000
0110
,
0000
0100
0010
0000
,
0100
0010
0000
1000
,
0001
0000
0000
1001
,
0000
0001
1000
0000
,
0000
1000
0000
0000
,
0001
0000
0100
0010
,
0000
0000
0100
0001
0010
0000
0000
0000
,
0001
1000
0000
0001
,
1001
0000
1000
0100
,
0000
0010
0001
0000
,
1000
0000
0010
0000
0000
0000
0100
0010
,
0100
0000
0001
1000
,
0000
0000
1000
0001
1000
0000
0000
0000
,
0001
0100
0010
0100
,
0001
0000
1000
0010
,
0000
0010
1000
0000
,
0001
0100
0000
0100
,
0001
0000
0000
1000
,
0000
0000
0001
0100
0001
0000
0000
0000
,
1000
0000
0001
0000
0000
0000
1000
0010
,
1000
0000
0001
0101
,
0000
0000
0010
0100
0010
0000
0000
0000
,
1000
0000
0001
0000
0000
0000
1000
0001
,
1000
0000
0001
0200
,
0000
0310
0100
0000
,
0001
2000
0000
3000
,
0001
0000
1000
0002
,
0000
1003
0010
0000
,
0100
0002
0000
1003
,
0001
0000
0000
0000
0001
0100
0001
0000
,
0000
1000
0010
0000
,
1000
0001
0000
0001
,
1000
0000
0001
0200
,
0000
0301
0010
0000
,
0100
1000
0000
0001
,
1000
0000
0000
0000
0001
0100
0001
0000
,
0000
1000
0010
0000
,
0100
0001
0100
0000
0000
0000
0010
0000
,
0110
0000
0000
1000
,
0001
0000
1000
0001
,
0000
0100
0110
0000
,
0110
0100
0000
0100
,
0000
0010
0000
0000
0100
0000
0000
0001
,
0000
1000
0001
1000
,
0001
0100
0001
1000
,
0000
0001
0000
0000
0100
0000
0000
0000
,
0001
0000
0100
0000
0000
0001
0000
0000
,
0100
0000
0100
0001
,
0000
0100
0000
0000
0001
0000
0000
0100
,
0000
0010
1000
0010
,
1000
0000
0001
2000
,
0000
3000
0001
0000
,
0001
2000
0000
3000
,
1001
0000
0010
0200
,
0000
0300
0001
0000
,
0100
0001
0000
0100
,
0001
0100
0001
0100
,
0000
0001
1000
0000
,
0001
0100
0000
0010
,
1000
0000
1000
0002
,
0000
0000
0100
0000
,
0003
0100
0000
0000
,
0010
0100
0010
0200
,
0000
0000
0000
0300
;

//---------------dance-single - from pop n music 13----------------
#NOTEDATA:;
#CHARTNAME:;
#STEPSTYPE:dance-single;
#DESCRIPTION:from pop n music 13;
#CHARTSTYLE:;
#DIFFICULTY:Hard;
#METER:7;
#RADARVALUES:0.278719,0.396004,0.095952,0.175913,0.000000,244.000000,232.000000,12.000000,22.000000,0.000000,0.000000,0.000000,0.000000,0.000000,0.278719,0.396004,0.095952,0.175913,0.000000,244.000000,232.000000,12.000000,22.000000,0.000000,0.000000,0.000000,0.000000,0.000000;
#CREDIT:;
#NOTES:
0000
0000
0000
0000
,
0000
0000
0000
0000
,
0000
0000
0000
0000
,
0000
0000
0000
0001
,
0000
0000
1000
0000
,
0001
0100
0000
0010
,
0100
0000
0001
2000
,
3000
0001
1000
0001
,
0100
0010
0200
0000
0300
0000
0010
0000
,
0110
0001
1000
0010
,
0000
0000
0100
0000
0001
0000
0100
0001
,
0100
0001
0100
0000
0000
0000
0010
0000
,
1001
0000
0000
0000
0001
0100
0001
0000
,
0000
0000
1000
0010
1000
0000
0000
0000
,
0010
1000
0010
0000
0100
0000
0001
0000
,
0010
0000
0001
2000
,
3000
0000
0001
0100
0010
0000
0000
0000
,
0001
0000
1000
0000
0000
0000
0001
0100
,
0010
0000
0000
0000
0100
0010
0100
0000
,
0000
0000
0001
1000
0010
0000
0000
0000
,
0010
1000
0100
0000
0010
0000
0011
0000
,
0101
0000
0010
0100
,
0000
0100
0010
0100
,
0001
1000
0002
2003
,
3020
0030
0100
0101
,
0000
0100
0001
0100
0001
0000
0000
0000
,
0100
0000
0002
0000
0003
1000
0001
1000
,
0001
0000
1000
1001
,
0000
0100
0010
0100
0010
0000
0100
0000
,
0010
0000
0100
0000
0000
0010
1000
0001
,
0100
0000
0001
2000
,
3000
0000
0001
0100
0001
0000
0100
0000
,
0001
0000
1000
0010
1000
0010
1000
0010
,
1000
0010
1000
0000
0001
0000
0200
0000
,
0000
0301
2000
3000
,
0001
0200
0000
0310
,
0100
0000
0000
0000
0100
0010
0020
0000
,
0030
0100
0001
0000
,
1000
0010
0100
0000
0001
0000
1000
0000
,
0001
0000
1000
0002
,
0000
0103
0010
0000
,
0100
0002
0003
1000
,
0010
0000
0000
0000
0010
1000
0010
0000
,
0100
0010
0100
0000
,
0001
0100
0001
0000
0100
0000
0001
0000
,
0100
0001
0100
0010
,
0010
0100
0000
0100
0010
0000
0100
0000
,
0100
0000
0001
0000
1000
0001
0000
0001
,
1000
0001
1000
0001
,
0000
0100
0000
0000
0010
0000
0000
0100
,
0000
0001
1000
0100
,
1000
0010
0100
0001
,
0000
0100
0000
0000
0001
0000
0100
0000
,
0010
0000
0100
0000
0010
0100
0000
0100
,
0010
0100
0001
0100
,
0000
0101
0000
0000
1010
0000
0000
0101
,
0000
0001
0001
1000
,
1000
0010
0100
0020
,
0000
0000
0100
0030
,
0100
0010
0100
0000
0000
0000
0010
0000
,
0100
0010
0100
0102
,
0000
0000
0103
0000
,
0010
0200
0000
0300
,
0010
0100
0010
0102
,
0000
0000
0103
0000
,
0001
1000
0000
1000
,
0001
0100
0001
0200
,
0000
0000
0001
0000
,
0300
0020
0000
0130
,
0100
0010
0010
0220
,
0000
0000
0000
0330
;

//---------------dance-single - ----------------
#NOTEDATA:;
#CHARTNAME:;
#STEPSTYPE:dance-single;
#DESCRIPTION:;
#CHARTSTYLE:;
#DIFFICULTY:Easy;
#METER:4;
#RADARVALUES:0.163348,0.195203,0.055972,0.087956,0.000000,143.000000,136.000000,7.000000,11.000000,0.000000,0.000000,0.000000,0.000000,0.000000,0.163348,0.195203,0.055972,0.087956,0.000000,143.000000,136.000000,7.000000,11.000000,0.000000,0.000000,0.000000,0.000000,0.000000;
#CREDIT:;
#NOTES:
// measure 0
0000
0000
0000
0000
,  // measure 1
0000
0000
0000
0000
,  // measure 2
0000
0000
0000
0000
,  // measure 3
0000
0000
0000
0100
,  // measure 4
0000
0000
0001
0000
,  // measure 5
0000
1000
0000
0010
,  // measure 6
1000
0000
0001
1000
,  // measure 7
0000
0000
0001
0000
,  // measure 8
1000
0001
0000
0100
,  // measure 9
0010
0000
0000
0110
,  // measure 10
0000
0000
0100
0010
,  // measure 11
0100
0010
0000
0000
,  // measure 12
1000
0000
0001
1000
,  // measure 13
0000
1000
0001
0000
,  // measure 14
1000
0100
0100
0100
,  // measure 15
0100
0000
1000
0001
,  // measure 16
0000
0100
0001
0000
,  // measure 17
1000
0010
0000
0100
,  // measure 18
0001
0000
0100
0100
,  // measure 19
0000
0001
0001
0000
,  // measure 20
1000
1000
0000
0001
,  // measure 21
0001
0000
0000
0110
,  // measure 22
0000
0000
1001
0000
,  // measure 23
0000
0100
0010
0100
,  // measure 24
0010
0000
0100
0100
,  // measure 25
0000
0001
1000
0000
,  // measure 26
0001
0001
0000
1000
,  // measure 27
0001
0000
1000
1000
,  // measure 28
0000
0010
0100
0000
,  // measure 29
0001
0100
0000
1000
,  // measure 30
0001
0000
0000
2000
,  // measure 31
0000
0000
3010
0000
,  // measure 32
0000
0200
0000
0000
,  // measure 33
0301
0000
0000
0200
,  // measure 34
0000
0000
0310
0000
,  // measure 35
0000
0020
0000
0000
,  // measure 36
0130
0000
0000
0002
,  // measure 37
0000
0000
1003
0000
,  // measure 38
0000
1000
1000
1000
,  // measure 39
1000
0000
0001
0002
,  // measure 40
0000
0000
1003
0000
,  // measure 41
1000
2000
0000
0000
,  // measure 42
3001
0000
0001
0001
,  // measure 43
0000
0100
0100
0000
,  // measure 44
0010
0010
0000
0100
,  // measure 45
0100
0100
0100
0001
,  // measure 46
0000
0000
1000
0000
,  // measure 47
0000
1100
0000
0000
,  // measure 48
0010
0000
0000
0110
,  // measure 49
0000
0000
0010
0000
,  // measure 50
0000
0100
0100
0000
,  // measure 51
0001
0001
0000
1000
,  // measure 52
0000
0000
0001
0000
,  // measure 53
0000
1001
0000
0000
,  // measure 54
1000
0000
0000
0001
,  // measure 55
0000
0000
1000
0000
,  // measure 56
0000
0010
0010
0010
,  // measure 57
0100
0100
0100
0200
,  // measure 58
0000
0000
0000
0000
,  // measure 59
0000
0001
0000
0000
,  // measure 60
0301
0000
0001
0002
,  // measure 61
0000
0000
1000
0000
,  // measure 62
0003
1000
0000
0010
,  // measure 63
0100
0000
0001
2000
,  // measure 64
0000
3000
0001
0000
,  // measure 65
0000
1000
0000
0000
,  // measure 66
0001
0000
0100
0200
,  // measure 67
0000
0000
0300
0000
,  // measure 68
0000
0010
0000
0000
,  // measure 69
1001
0000
0000
1000
;
