#VERSION:0.83;
#TITLE:Kiba OST - Zed's Fate;
#SUBTITLE:;
#ARTIST:Jun Miyake;
#TITLETRANSLIT:;
#SUBTITLETRANSLIT:;
#ARTISTTRANSLIT:;
#GENRE:;
#ORIGIN:;
#CREDIT:;
#BANNER:;
#BACKGROUND:;
#PREVIEWVID:;
#JACKET:;
#CDIMAGE:;
#DISCIMAGE:;
#LYRICSPATH:;
#CDTITLE:;
#MUSIC:Kiba OST - Zed's Fate.ogg;
#OFFSET:-0.286000;
#SAMPLESTART:19.886999;
#SAMPLELENGTH:17.000000;
#SELECTABLE:YES;
#BPMS:0.000=156.000;
#STOPS:;
#DELAYS:;
#WARPS:;
#TIMESIGNATURES:0.000=4=4;
#TICKCOUNTS:0.000=4;
#COMBOS:0.000=1;
#SPEEDS:0.000=1.000=0.000=0;
#SCROLLS:0.000=1.000;
#FAKES:;
#LABELS:0.000=Song Start;
#BGCHANGES:;
#KEYSOUNDS:;
#ATTACKS:
;

//---------------dance-single - ----------------
#NOTEDATA:;
#CHARTNAME:;
#STEPSTYPE:dance-single;
#DESCRIPTION:;
#CHARTSTYLE:;
#DIFFICULTY:Beginner;
#METER:2;
#RADARVALUES:0.070317,0.094658,0.000000,0.113589,0.000000,39.000000,39.000000,0.000000,9.000000,0.000000,0.000000,0.000000,0.000000,0.000000,0.070317,0.094658,0.000000,0.113589,0.000000,39.000000,39.000000,0.000000,9.000000,0.000000,0.000000,0.000000,0.000000,0.000000;
#CREDIT:;
#NOTES:
0000
0000
0000
0000
,
0000
0000
0000
0000
,
0000
0000
0000
0000
,
0000
0000
0000
0000
,
0000
0000
0000
0000
,
0000
0000
0000
0000
,
0000
0000
0000
1000
,
0000
0000
0000
0001
,
0000
0000
0000
1000
,
0000
0000
0000
0010
,
0000
0000
0000
0100
,
0000
0000
0000
0001
,
0000
0000
0000
1000
,
0000
0000
0000
1000
,
0000
0000
0000
1000
,
0000
0000
0000
0001
,
0000
0000
0000
0001
,
0000
0000
0000
0001
,
0000
0000
0000
0100
,
0000
0000
0000
0100
,
0000
0000
0000
0100
,
0000
0000
0000
0010
,
0000
0000
0000
0010
,
0000
0000
0000
0010
,
0000
0000
0000
2000
,
0000
0000
0000
3000
,
0000
0002
0000
0000
,
0000
0003
0000
2000
,
0000
0000
0000
3000
,
0000
0002
0000
0000
,
0000
0003
0000
0200
,
0000
0000
0000
0300
,
0000
0020
0000
0000
,
0000
0030
0000
2000
,
0000
0000
0000
3000
,
0000
0002
0000
0000
,
0000
0003
0000
1000
,
0000
0000
0000
0001
,
0000
0000
0000
1000
,
0000
0000
0000
0010
,
0000
0000
0000
0100
,
0000
0000
0000
0010
,
0000
0000
0000
1000
,
0000
0000
0000
0001
,
0000
0000
0000
0100
,
0000
0000
0000
0001
,
0000
0000
0000
0001
,
0000
0000
0000
1000
,
0000
0000
0000
0002
,
0000
0000
0000
0000
,
0003
0000
0000
0000
;

//---------------dance-single - ----------------
#NOTEDATA:;
#CHARTNAME:;
#STEPSTYPE:dance-single;
#DESCRIPTION:;
#CHARTSTYLE:;
#DIFFICULTY:Easy;
#METER:4;
#RADARVALUES:0.212754,0.246110,0.037863,0.214557,0.000000,118.000000,115.000000,3.000000,17.000000,0.000000,0.000000,0.000000,0.000000,0.000000,0.212754,0.246110,0.037863,0.214557,0.000000,118.000000,115.000000,3.000000,17.000000,0.000000,0.000000,0.000000,0.000000,0.000000;
#CREDIT:;
#NOTES:
0000
0000
0000
0000
,
0000
0000
0000
0000
,
0000
0000
0000
0000
,
0000
0000
0000
0110
,
0000
0000
0000
1001
,
0000
2000
0000
0000
,
0000
3000
0000
1000
,
0001
0200
0000
0301
,
1000
0020
0000
1030
,
0001
0200
0000
0310
,
0000
0100
0000
0001
,
0000
1000
0000
0010
,
0000
0100
0000
1001
,
0000
0001
0000
1000
,
0200
0300
1000
0001
,
0100
0000
0100
0001
,
0010
0002
0003
1000
,
0200
0300
0010
0001
,
1000
0000
1000
0001
,
0100
0020
0030
1000
,
0002
0003
0100
0010
,
0100
0001
1000
0002
,
0003
1000
1000
0001
,
0002
0003
1000
0001
,
0200
0300
0001
2000
,
0000
0000
0000
3001
,
0001
0002
0000
0000
,
0000
0103
0100
0200
,
0000
0000
0000
0310
,
0010
0020
0000
0000
,
0000
0000
0030
1000
,
0001
1000
0000
0001
,
0100
0001
0000
0100
,
0000
0001
1000
0010
,
0000
1000
0000
0100
,
0010
0002
0000
0000
,
0000
0003
0000
1000
,
0100
1000
0000
0001
,
0100
0000
0100
0001
,
1000
0000
0010
0100
,
0010
1000
0000
0001
,
0010
0001
0100
0001
,
0000
1000
0000
0001
,
0100
0010
0000
1000
,
0100
0000
1000
0010
,
0100
0001
1000
0001
,
0000
0100
0000
0010
,
0100
0000
0010
0100
,
0010
0000
1000
0001
;

//---------------dance-single - ----------------
#NOTEDATA:;
#CHARTNAME:;
#STEPSTYPE:dance-single;
#DESCRIPTION:;
#CHARTSTYLE:;
#DIFFICULTY:Medium;
#METER:7;
#RADARVALUES:0.324540,0.347078,0.075726,0.277662,0.000000,180.000000,174.000000,6.000000,22.000000,0.000000,0.000000,0.000000,0.000000,0.000000,0.324540,0.347078,0.075726,0.277662,0.000000,180.000000,174.000000,6.000000,22.000000,0.000000,0.000000,0.000000,0.000000,0.000000;
#CREDIT:;
#NOTES:
// measure 0
0000
0000
0000
0000
,  // measure 1
0000
0000
0000
0000
,  // measure 2
0000
0000
0000
0000
,  // measure 3
0000
0000
0000
0110
,  // measure 4
0000
0000
1000
0000
0001
0100
0001
0000
,  // measure 5
1000
0000
0001
0100
0001
0000
1000
0000
,  // measure 6
0010
0100
0010
1000
,  // measure 7
0001
0200
0310
0010
,  // measure 8
1000
0002
1003
1000
,  // measure 9
0001
0200
0010
0010
,  // measure 10
0310
0100
0010
0100
,  // measure 11
0001
1000
0001
0100
,  // measure 12
0001
0100
0001
0000
1000
0000
0001
0000
,  // measure 13
0100
0010
0000
0100
0002
0000
0000
0000
,  // measure 14
1003
0010
0100
0001
,  // measure 15
1000
0001
0000
1000
0000
0001
2000
0000
,  // measure 16
0000
3001
0100
0010
,  // measure 17
0010
1000
0001
0001
,  // measure 18
1000
1000
0010
0100
,  // measure 19
0001
0100
0000
0001
2000
0000
0000
0000
,  // measure 20
3001
0100
0010
1000
,  // measure 21
0001
0100
0000
0001
0000
1000
0002
0000
,  // measure 22
0000
1003
0001
0100
,  // measure 23
0010
1001
0001
0100
,  // measure 24
0020
0000
0000
1030
0000
0001
1000
0000
,  // measure 25
0010
0210
0000
0301
,  // measure 26
0100
0020
0000
1030
,  // measure 27
0001
0001
0100
0020
,  // measure 28
0000
0100
0030
1000
,  // measure 29
0001
0100
0100
0010
,  // measure 30
0020
0000
0000
1030
0000
0000
0001
0000
,  // measure 31
1000
0000
0001
0000
0100
0010
0100
0000
,  // measure 32
0001
1000
0100
0110
,  // measure 33
0001
1000
0010
0200
,  // measure 34
0000
0301
0001
1000
,  // measure 35
1000
0000
0020
0000
0000
0130
0000
0000
,  // measure 36
0020
0000
1030
0002
,  // measure 37
0000
1003
0000
0001
1000
0000
0001
0000
,  // measure 38
0100
0001
0100
0010
,  // measure 39
0100
0001
0000
1000
0000
0001
0200
0000
,  // measure 40
0000
0310
0000
0100
0020
0000
0000
0000
,  // measure 41
1030
1001
0000
0001
,  // measure 42
0100
0010
1000
0001
,  // measure 43
0100
0010
0000
0100
0002
0000
0000
0000
,  // measure 44
1003
0010
0010
1000
,  // measure 45
0100
0010
0000
0100
0000
0010
0002
0000
,  // measure 46
0000
1003
0000
0001
0200
0000
0000
0000
,  // measure 47
0310
0110
0000
1000
,  // measure 48
0001
0100
0100
0020
,  // measure 49
0000
0000
0000
0000
,  // measure 50
0030
0000
0000
0000
;

//---------------dance-single - ----------------
#NOTEDATA:;
#CHARTNAME:;
#STEPSTYPE:dance-single;
#DESCRIPTION:;
#CHARTSTYLE:;
#DIFFICULTY:Hard;
#METER:10;
#RADARVALUES:0.457962,0.473288,0.138831,0.164073,0.050484,254.000000,243.000000,11.000000,13.000000,0.000000,0.000000,0.000000,0.000000,0.000000,0.457962,0.473288,0.138831,0.164073,0.050484,254.000000,243.000000,11.000000,13.000000,0.000000,0.000000,0.000000,0.000000,0.000000;
#CREDIT:;
#NOTES:
0000
0000
0000
0000
,
0000
0000
0000
0000
,
0000
0000
0000
0000
,
0000
0000
0000
0000
0000
0000
0100
0110
,
0000
0000
0100
0000
0001
0100
0001
0000
,
1000
0000
0100
0010
0100
0000
0010
0000
,
0001
0000
0100
0000
0010
0000
0000
0000
1000
0000
0100
0000
1000
0001
0000
0100
,
0001
0000
1000
0010
0100
0001
0100
0000
,
0010
0000
1000
0010
0100
0001
0010
0000
,
0100
0000
1000
0100
0010
0001
0100
0101
,
0000
0000
0001
0000
1000
0010
1000
0000
,
0010
0001
0010
0000
1000
0100
0010
0000
,
0001
0100
0010
0000
0100
0000
0001
0000
,
1000
0001
0000
0100
0002
0000
1000
0000
,
0103
0000
0010
0100
0001
0000
1000
0000
,
0001
0100
0000
0100
0000
0001
2000
0000
,
0000
0010
3000
0010
0100
0000
0001
0000
,
1000
0000
0001
0101
0000
0000
1001
0000
,
0100
0000
0010
0100
0000
0100
0002
0000
,
0000
1000
0003
1000
0010
0000
0100
0010
,
1000
0000
0001
0100
0001
0010
0100
0000
,
1000
0100
0000
0010
0000
0001
2000
0000
,
0010
0000
3010
0000
0100
0001
0100
0000
,
0001
0100
0010
1010
0000
0000
0101
0000
,
0001
1000
0000
0100
0000
0010
0001
0000
,
0001
0000
0000
0000
1000
0000
0000
0010
0100
0000
0001
0000
2000
0000
0000
0000
,
0100
0000
0000
0000
3001
0000
0000
0000
0100
0000
0010
0000
0100
0000
0000
0001
,
1000
0002
1000
0103
,
0010
0000
0100
0000
0001
0000
0000
1000
0001
0000
1000
0000
0001
0000
0000
0000
,
0100
0000
0020
0000
0000
0100
0030
0100
,
0001
0000
0001
1000
0000
0100
0001
0000
,
0100
0000
0000
0000
1000
0000
0000
0010
0100
0000
0001
0000
1000
0000
0000
0000
,
0001
0000
0000
0000
0200
0000
0000
0000
0010
0000
0000
0000
0301
0000
0000
0100
,
0001
0000
1000
0010
0100
0000
0002
0000
,
0010
0000
0000
0000
1003
0000
0000
0001
0100
0000
0010
0000
1000
0000
0000
0000
,
0001
0010
0002
0000
0000
0100
0003
0100
,
0010
0000
0010
1000
0000
0001
0201
0000
,
0000
0301
0000
0001
1000
0000
0010
0100
,
0010
0000
1000
0100
0010
0100
0010
0000
,
0001
0010
0000
0100
0000
1000
0001
0000
,
0100
0001
0000
0100
0010
0000
0100
0000
,
0001
0000
1000
1001
0000
0000
0101
0000
,
0001
0100
0000
0010
1000
0001
0100
0000
,
0010
1000
0001
0000
0001
0010
0100
1000
,
0001
0000
1000
0100
0001
0000
0100
0010
,
0001
0010
0000
0001
1000
0001
0200
0000
,
0310
0100
0000
0001
1000
0000
0001
0010
,
0100
1000
0001
0101
0000
0000
1010
0000
,
0100
0001
0100
0010
0000
0010
2000
0000
,
0000
0000
0000
0000
,
3000
0000
0000
0000
;
