#VERSION:0.83;
#TITLE:Keep The Maximum;
#SUBTITLE:;
#ARTIST:Cut'n'Play;
#TITLETRANSLIT:;
#SUBTITLETRANSLIT:;
#ARTISTTRANSLIT:;
#GENRE:House;
#ORIGIN:;
#CREDIT:;
#BANNER:;
#BACKGROUND:;
#PREVIEWVID:;
#JACKET:;
#CDIMAGE:;
#DISCIMAGE:;
#LYRICSPATH:;
#CDTITLE:;
#MUSIC:Arabella_-_Like_Your_Dancing__Club_Force_Mix_.mp3.ogg;
#OFFSET:-0.031000;
#SAMPLESTART:50.160999;
#SAMPLELENGTH:17.000000;
#SELECTABLE:YES;
#BPMS:0.000=134.000,
48.000=134.400,
49.000=134.000,
76.000=134.400,
76.500=134.000;
#STOPS:;
#DELAYS:;
#WARPS:;
#TIMESIGNATURES:0.000=4=4;
#TICKCOUNTS:0.000=4;
#COMBOS:0.000=1;
#SPEEDS:0.000=1.000=0.000=0;
#SCROLLS:0.000=1.000;
#FAKES:;
#LABELS:0.000=Song Start;
#BGCHANGES:;
#KEYSOUNDS:;
#ATTACKS:
;

//---------------dance-single - ----------------
#NOTEDATA:;
#CHARTNAME:;
#STEPSTYPE:dance-single;
#DESCRIPTION:;
#CHARTSTYLE:;
#DIFFICULTY:Beginner;
#METER:3;
#RADARVALUES:0.186324,0.219862,0.121110,0.046581,0.000000,140.000000,127.000000,13.000000,5.000000,0.000000,0.000000,0.000000,0.000000,0.000000,0.186324,0.219862,0.121110,0.046581,0.000000,140.000000,127.000000,13.000000,5.000000,0.000000,0.000000,0.000000,0.000000,0.000000;
#CREDIT:;
#NOTES:
0000
0000
0000
0000
,
0000
0000
0000
0000
,
1001
0000
0000
0000
,
1000
0000
0001
0000
,
1001
0000
0100
0000
,
0001
0000
1000
0000
,
1100
0000
0001
0000
,
0100
0000
0001
0000
,
1010
0000
1000
0000
,
0001
0000
0001
0000
,
1100
0000
0100
0000
,
0100
0000
1000
0000
,
0001
0000
0100
0100
,
0100
0000
0001
0000
,
1000
0000
0001
0000
,
1000
0001
1000
0000
,
0010
0000
0100
0000
,
1001
0000
0001
0000
,
1000
0000
0100
0000
,
0010
0010
0001
0000
,
1000
0000
0001
0000
,
0100
0000
0001
1000
,
0001
0000
1000
0000
,
0100
0000
0010
0000
,
0001
0001
0001
0000
,
1000
0000
0010
0100
,
0010
0000
1000
0000
,
0001
0000
1000
0000
,
1001
0000
0100
0000
,
0010
0100
0010
0000
,
1000
1000
1000
0000
,
0001
0000
0100
0000
,
0101
0000
0001
0000
,
1000
0100
1000
0000
,
0001
0100
0001
0000
,
0100
0001
0100
0000
,
1001
0000
0000
0000
,
0100
0000
0000
0000
,
0001
0000
0000
0000
,
1000
0000
0000
0000
,
2001
0000
3001
0100
,
0010
0000
0010
1000
,
0001
0000
1000
0000
,
0100
0010
0001
0000
,
1002
0000
1003
0010
,
0100
0000
0001
0100
,
0010
0000
0010
0000
,
1000
0001
0010
0000
,
0220
0000
0000
0000
,
0000
0000
0330
0000
,
1000
0000
0001
0100
,
0001
0000
0001
0100
,
0002
0000
1003
0000
,
1000
0001
1000
0000
,
0001
0100
0010
0100
,
0001
0000
1000
0000
,
1001
0000
0000
0000
,
0100
0000
0010
0000
,
1000
0000
0000
0000
,
0001
0000
0000
0000
;

//---------------dance-single - ----------------
#NOTEDATA:;
#CHARTNAME:;
#STEPSTYPE:dance-single;
#DESCRIPTION:;
#CHARTSTYLE:;
#DIFFICULTY:Easy;
#METER:7;
#RADARVALUES:0.334052,0.389650,0.214272,0.186324,0.000000,251.000000,228.000000,23.000000,20.000000,0.000000,0.000000,0.000000,0.000000,0.000000,0.334052,0.389650,0.214272,0.186324,0.000000,251.000000,228.000000,23.000000,20.000000,0.000000,0.000000,0.000000,0.000000,0.000000;
#CREDIT:;
#NOTES:
0000
0000
0000
0000
,
0000
0000
0000
0000
,
1001
0000
0000
0100
,
1001
0000
0010
0100
,
1001
0000
0001
0000
0100
0001
0100
0001
,
1000
0001
1000
0010
,
1100
0000
1000
0000
0001
1000
0001
1000
,
0001
0100
0110
1000
,
1001
0000
0001
0000
0100
0001
0010
0001
,
0100
0001
1010
1000
,
1001
0000
0001
0000
0100
0010
1000
0010
,
0100
0001
0100
0001
,
2000
3001
0200
0310
,
0200
0300
0001
0001
,
1000
0000
0010
0100
0001
1000
0000
0002
,
0000
0003
1000
1000
,
0001
0000
0100
0010
0100
0010
0000
0100
,
0000
0010
1001
1001
,
0001
0000
0100
0001
1000
0000
0000
0000
,
0001
1000
0010
0010
,
1001
0000
0001
0100
0001
0100
0000
0002
,
0000
0000
1003
0000
0100
0010
0001
0000
,
1000
0000
0001
0100
0010
0000
1000
0000
,
1001
0011
1000
0001
,
0101
0000
0001
0100
0010
0100
0010
0000
,
1000
0001
1000
1010
,
0001
0100
0001
0200
0000
0000
0300
0000
,
0010
1001
0100
0001
,
1001
0000
0002
0000
0000
0000
0103
0010
,
0000
0100
0010
0000
1000
0000
0001
0000
,
1001
0001
1000
0001
,
0100
0010
2000
3002
,
1003
0000
0010
0000
0100
0000
0100
0001
,
0000
0100
0001
0000
1000
0000
1000
0000
,
1001
0001
0100
0100
,
0010
1000
0002
2003
,
3010
0000
0000
0000
0100
0000
0001
0100
,
0001
0000
1000
0000
,
0010
0000
0000
0000
1000
0000
0100
1000
,
0100
0000
1000
0000
,
0001
0000
0200
0000
0010
0000
0310
1000
,
0000
0010
1000
0000
0001
0000
1000
0000
,
1001
0001
0100
0100
,
0010
1000
0020
0230
,
0301
0000
1000
0000
0001
0000
0001
1000
,
0000
1000
0001
0000
0100
0000
1001
0000
,
1001
0001
1000
0010
,
0100
0001
0020
0032
,
2003
0000
3100
0100
,
0100
0000
0010
0010
,
0010
0000
0001
0001
,
0001
0000
1000
0001
,
2000
0000
3010
0010
,
0100
0000
0100
0001
,
0001
0000
0001
1000
,
0010
0100
0001
1000
,
1100
0000
0000
0000
0100
0000
0100
0010
,
0001
0000
0000
0000
0001
0000
1000
0100
,
0020
0000
0000
0030
,
0002
0000
0000
0003
;

//---------------dance-single - ----------------
#NOTEDATA:;
#CHARTNAME:;
#STEPSTYPE:dance-single;
#DESCRIPTION:;
#CHARTSTYLE:;
#DIFFICULTY:Medium;
#METER:9;
#RADARVALUES:0.435199,0.445314,0.279486,0.158375,0.027949,327.000000,297.000000,30.000000,17.000000,0.000000,0.000000,0.000000,0.000000,0.000000,0.435199,0.445314,0.279486,0.158375,0.027949,327.000000,297.000000,30.000000,17.000000,0.000000,0.000000,0.000000,0.000000,0.000000;
#CREDIT:;
#NOTES:
0000
0000
0000
0000
,
0000
0000
0000
0000
,
1010
0000
0100
0000
0001
1000
0001
0000
,
0200
0300
0010
1000
,
1001
0000
0001
0000
0100
0001
1000
0001
,
0100
0000
0000
0000
0110
0000
0000
0010
1000
0000
0000
0000
0001
0000
0000
0000
,
1001
0000
0100
0000
0010
0100
0010
1000
,
0100
0000
0000
0000
0010
0000
0000
0000
0011
0000
0000
1000
0001
0000
0000
0000
,
0100
0000
0010
0000
1000
0100
0010
0001
,
1000
0000
0000
0000
0101
0000
0000
0000
0001
0000
0000
1000
0001
0000
0000
0000
,
1000
0000
1001
0000
0100
0010
0100
0001
,
0100
0000
0001
1000
0000
1000
0001
0100
,
0010
0100
0001
1000
,
0002
1003
0010
0100
,
0001
0010
0100
0010
0001
1000
0000
2000
,
0000
0000
0000
0000
3001
0000
0000
0000
0100
0000
0000
0001
1000
0000
0000
0000
,
0001
0000
0100
0010
1000
0001
0000
0100
,
0000
0100
1001
0010
,
0001
0010
0001
0010
0100
0000
1000
0000
,
0100
0010
0000
0010
0000
0010
0001
0000
,
1000
0001
0100
0001
1000
0010
0000
0010
,
0000
1000
0001
0000
1001
0000
0110
0000
,
1000
0001
0100
0001
0000
0100
0001
1000
,
0000
0000
1000
0000
0000
0000
0001
0000
1000
0000
0000
0010
1000
0000
0000
0000
,
0001
0010
0001
0100
0010
1000
0010
0000
,
2000
3001
0110
0110
,
0001
0100
0001
1000
0001
0000
1100
0000
,
0010
0100
0010
0001
0010
0000
0100
0000
,
0101
0000
0002
0000
0100
0000
1003
0010
,
0000
0100
0001
0000
1000
0000
0010
0000
,
1000
0100
0010
0001
0100
0000
0010
1000
,
0001
1000
0001
0000
0200
0300
0020
0030
,
1010
0000
0001
0000
1000
0000
1000
0001
,
0000
1000
0001
0000
0110
0000
1000
0000
,
0001
0010
1000
0010
0001
0000
1000
0001
,
1000
0100
0010
0000
0002
0003
0200
0300
,
0101
0000
0000
0100
0010
0000
1000
0001
,
1000
0000
0000
0001
0100
0000
0001
1000
,
0100
0000
0000
0100
0010
0000
0100
1000
,
0001
0000
0000
0100
0010
0000
0100
0001
,
1001
0000
2000
0000
0100
0000
3001
0100
,
0000
0100
0010
0000
1001
0000
1000
0000
,
0001
0100
0010
1000
0100
0000
0010
0001
,
1000
0001
0100
0000
0020
0030
0200
0300
,
1001
0000
0001
0000
1000
0000
0001
1000
,
0000
1000
0010
0000
0100
0000
1001
0000
,
0001
0010
0100
0010
0001
0000
1000
0010
,
1000
0100
0010
0000
0002
0003
2000
3000
,
0110
0000
0001
0000
1000
0100
1000
0100
,
1000
0101
1001
0100
,
0110
0000
0010
0000
1000
0100
0010
0001
,
1000
0001
1000
0010
0000
0100
0100
0000
,
0001
1000
1001
0010
,
0110
0011
1000
0001
,
0101
0000
0100
0000
0010
0000
1000
0010
,
1000
0010
0100
0100
0000
0001
1000
0000
,
1001
0000
0001
0000
0100
0010
0100
0010
,
0100
0000
0000
0000
0001
0000
0000
0000
1000
0000
0000
0010
1000
0000
0000
0000
,
0002
0000
2003
0000
,
3020
0000
0000
0030
;

//---------------dance-single - ----------------
#NOTEDATA:;
#CHARTNAME:;
#STEPSTYPE:dance-single;
#DESCRIPTION:;
#CHARTSTYLE:;
#DIFFICULTY:Hard;
#METER:13;
#RADARVALUES:0.546994,0.860991,0.251537,0.186324,0.260853,411.000000,384.000000,27.000000,20.000000,0.000000,0.000000,0.000000,0.000000,0.000000,0.546994,0.860991,0.251537,0.186324,0.260853,411.000000,384.000000,27.000000,20.000000,0.000000,0.000000,0.000000,0.000000,0.000000;
#CREDIT:;
#NOTES:
// measure 0
0000
0000
0000
0000
,  // measure 1
0000
0000
0000
0000
,  // measure 2
1001
0000
0000
0000
0000
0000
1000
0001
1000
0000
0010
0000
0100
0000
0001
0000
,  // measure 3
0200
0000
0000
0000
0300
0000
0010
0100
0001
0000
0000
1000
0001
1000
0000
0000
,  // measure 4
1001
0000
0001
0000
0100
0010
1000
0001
,  // measure 5
1001
0000
0000
0000
0110
0000
0000
0000
0100
0000
0000
0010
0100
0010
0000
0000
,  // measure 6
1010
0000
0101
0000
0001
0010
0100
1000
,  // measure 7
0001
0000
0000
0000
1000
0000
0000
0000
0010
0000
0000
1000
0010
1000
0000
0000
,  // measure 8
1001
0000
0011
0000
0010
0100
0010
0001
,  // measure 9
1000
0000
0000
0000
0010
0000
0000
0000
0100
0000
0000
0001
0100
0001
0000
0000
,  // measure 10
1001
0000
1100
0000
0100
0010
0100
1000
,  // measure 11
0001
0000
1000
0001
0000
0001
0100
0010
,  // measure 12
1000
0001
0100
0010
,  // measure 13
1000
0000
0000
0000
0001
0000
0000
0000
1000
0100
1000
0000
0001
0010
0001
0000
,  // measure 14
1000
0001
0100
0010
0100
0001
0000
0002
,  // measure 15
0000
0000
0000
0000
1003
0000
0000
0000
0110
0000
0000
0010
0100
0010
0000
0000
,  // measure 16
1000
0000
0001
0100
0001
0010
0000
0100
,  // measure 17
1000
0000
0001
0010
0001
0000
0000
0000
1000
0000
0010
0100
0010
0000
0000
0000
,  // measure 18
0100
0010
0100
0010
1001
0000
0110
0000
,  // measure 19
1001
0002
0003
2000
3000
0002
0000
0003
,  // measure 20
0101
0000
1000
0010
0100
0001
0000
0001
,  // measure 21
0000
0000
1000
0000
0010
0000
0100
0000
0001
0010
0100
0010
0001
0000
0000
0000
,  // measure 22
1000
0010
0100
0001
0000
0001
1000
0020
,  // measure 23
0030
0000
0200
0000
0300
0000
0001
0000
1000
0000
0000
0001
0010
0001
0000
0000
,  // measure 24
1000
0100
0001
0100
1000
0001
0100
0000
,  // measure 25
0010
0000
0000
0000
1001
0000
0000
0000
0100
0010
0100
0001
1000
0000
0000
0000
,  // measure 26
0001
0010
0001
0100
0000
0100
0001
0000
,  // measure 27
1000
0001
1000
0001
0200
0300
0020
0030
,  // measure 28
0110
0000
2000
0000
0001
0000
3001
0100
,  // measure 29
0000
0000
0100
0000
0001
0000
0000
0000
1000
0000
0010
0100
0010
0100
0000
0000
,  // measure 30
0001
1000
0001
0100
0010
0000
0010
1000
,  // measure 31
0001
0001
0100
0000
0002
0003
0200
0300
,  // measure 32
1000
0000
0100
0000
0001
0000
1000
0001
,  // measure 33
0000
0000
0001
0000
0100
0000
0000
0000
0010
0000
0100
0010
0100
0010
0000
0000
,  // measure 34
1000
0100
0010
0001
0100
0000
0100
0001
,  // measure 35
0010
0100
1000
0000
0002
0003
2000
3000
,  // measure 36
0101
0000
0001
0100
0000
0100
0001
1000
,  // measure 37
0010
0000
0000
0000
0100
0000
0000
0010
0100
0000
0001
0000
1000
0000
0100
0000
,  // measure 38
0020
0000
0000
0000
0031
0000
0000
1000
0001
0000
0100
0000
0010
0000
0100
0000
,  // measure 39
0002
0000
0000
0000
1003
0000
0000
0001
1000
0000
0010
0000
0001
0000
0010
0000
,  // measure 40
1001
0000
0200
0000
0010
0000
0310
0100
,  // measure 41
0000
0000
0001
0000
1000
0000
0000
0000
0001
0000
1000
0001
1000
0001
0000
0000
,  // measure 42
1000
0010
0100
0001
0100
0000
1000
0100
,  // measure 43
0001
0000
0100
0000
0010
0000
0000
0000
1000
0010
0100
0000
0001
0010
0001
0000
,  // measure 44
1001
0000
0110
0000
0010
0000
0010
1000
,  // measure 45
0000
0000
0001
0000
0100
0000
0000
0000
0001
0000
1000
0100
1000
0100
0000
0000
,  // measure 46
0010
0001
1000
0001
0100
0000
0100
0010
,  // measure 47
0010
0000
1000
0000
0100
0000
0000
0000
0010
0001
0100
0000
0001
0100
0001
0000
,  // measure 48
2000
0000
0010
0000
0010
0000
3010
0100
,  // measure 49
0010
0000
0000
0000
0100
0000
0001
0000
1000
0000
0000
0001
0100
0001
0000
0000
,  // measure 50
1001
0000
0100
0010
1000
0001
0100
0001
,  // measure 51
0100
0010
0100
0001
0000
1000
0001
0000
,  // measure 52
0210
0000
1000
0000
0001
0000
0310
1000
,  // measure 53
0001
0000
0000
0000
0110
0000
0000
0000
1000
0000
0001
0010
0001
0010
0000
0000
,  // measure 54
0011
0000
1001
0000
1000
0100
0010
0001
,  // measure 55
0010
0001
1000
0001
0000
0100
0010
0000
,  // measure 56
0210
0000
0301
0000
0001
1000
0001
0100
,  // measure 57
0010
0000
0000
0000
1000
0000
0100
0000
0010
0000
0001
0010
0001
0010
0000
0000
,  // measure 58
0001
1000
0001
1000
0001
1000
0100
1000
0100
1000
0100
1000
0100
0010
0001
0010
,  // measure 59
0001
0010
0001
0010
0001
1000
0010
1000
0010
1000
0010
0000
0000
0000
0000
0000
;
