#VERSION:0.83;
#TITLE:Karisma (Techno Side);
#SUBTITLE:;
#ARTIST:Ray Place;
#TITLETRANSLIT:;
#SUBTITLETRANSLIT:;
#ARTISTTRANSLIT:;
#GENRE:Electro;
#ORIGIN:;
#CREDIT:;
#BANNER:;
#BACKGROUND:;
#PREVIEWVID:;
#JACKET:;
#CDIMAGE:;
#DISCIMAGE:;
#LYRICSPATH:;
#CDTITLE:;
#MUSIC:Ray Place - Karisma Techno Side.ogg;
#OFFSET:-0.248000;
#SAMPLESTART:12.621000;
#SAMPLELENGTH:17.000000;
#SELECTABLE:YES;
#DISPLAYBPM:131.000000;
#BPMS:0.000=130.796,
230.000=133.796,
232.000=131.796;
#STOPS:;
#DELAYS:;
#WARPS:;
#TIMESIGNATURES:0.000=4=4;
#TICKCOUNTS:0.000=4;
#COMBOS:0.000=1;
#SPEEDS:0.000=1.000=0.000=0;
#SCROLLS:0.000=1.000;
#FAKES:;
#LABELS:0.000=Song Start;
#BGCHANGES:;
#KEYSOUNDS:;
#ATTACKS:
;

//---------------dance-single - ----------------
#NOTEDATA:;
#CHARTNAME:;
#STEPSTYPE:dance-single;
#DESCRIPTION:;
#CHARTSTYLE:;
#DIFFICULTY:Beginner;
#METER:3;
#RADARVALUES:0.127035,0.186582,0.027222,0.117961,0.000000,98.000000,95.000000,3.000000,13.000000,0.000000,0.000000,0.000000,0.000000,0.000000,0.127035,0.186582,0.027222,0.117961,0.000000,98.000000,95.000000,3.000000,13.000000,0.000000,0.000000,0.000000,0.000000,0.000000;
#CREDIT:;
#DISPLAYBPM:131.000000;
#NOTES:
0000
0000
0000
0000
,
0000
0000
0000
0000
,
0000
0000
0000
0100
,
0000
0000
0000
0001
,
0000
0000
0000
1000
,
0000
0000
0000
0001
,
0000
0000
0000
1000
,
0000
0100
0000
0010
,
0000
0001
0000
1000
,
0000
0010
0000
0100
,
0000
0001
0000
0100
,
0000
0100
0000
0100
,
0000
0010
0000
0010
,
0000
0100
0000
0010
,
0000
0010
0000
1000
,
0000
0001
0000
0100
,
0000
0001
0000
1000
,
0000
1000
0000
0001
,
0000
0001
0000
0200
,
0000
0000
0000
0302
,
0000
0000
0000
2003
,
0000
0000
0000
3002
,
0000
0000
0000
1003
,
0000
0001
0000
1000
,
0000
0000
0000
0001
,
0000
0100
0000
0001
,
0000
0000
0000
1000
,
0000
0010
0000
1000
,
0000
0001
0000
0100
,
0000
0001
0000
1000
,
0000
0010
0000
0100
,
0000
0000
0000
0220
,
0000
0000
0000
0330
,
0000
0000
0000
0002
,
0000
0000
0000
2003
,
0000
0000
0000
3001
,
0000
0100
0001
0100
,
0000
0001
1000
0001
,
0000
1000
0001
1000
,
0000
0010
0100
0001
,
0000
1000
0000
0001
,
0000
1000
0000
1001
,
0000
0001
0000
1000
,
0000
0010
0000
0200
,
0000
0300
0000
0001
,
0000
0000
0000
2000
,
0000
3000
0000
0001
,
0000
0000
0000
0100
,
0000
0010
0000
1000
,
0000
0000
0000
0001
,
0000
0100
0000
0001
,
0000
1000
0100
0010
,
0000
0001
0000
0010
,
0000
0001
0000
1000
,
0000
0010
0000
0100
,
0000
0001
0010
0100
,
0000
0010
0000
0002
,
0000
0003
0000
2002
,
0000
0000
0000
3003
;

//---------------dance-single - ----------------
#NOTEDATA:;
#CHARTNAME:;
#STEPSTYPE:dance-single;
#DESCRIPTION:;
#CHARTSTYLE:;
#DIFFICULTY:Easy;
#METER:6;
#RADARVALUES:0.247588,0.293201,0.136109,0.154257,0.000000,191.000000,176.000000,15.000000,17.000000,0.000000,0.000000,0.000000,0.000000,0.000000,0.247588,0.293201,0.136109,0.154257,0.000000,191.000000,176.000000,15.000000,17.000000,0.000000,0.000000,0.000000,0.000000,0.000000;
#CREDIT:;
#DISPLAYBPM:131.000000;
#NOTES:
0000
0000
0000
0000
,
0000
0000
0000
0000
,
0000
0000
0000
0100
,
0000
0001
0000
0001
,
0000
1000
0000
1000
,
0000
0100
0000
0001
,
0000
0010
0000
0001
,
0100
0010
0001
1000
,
0100
0001
0100
0010
,
0001
1000
0010
0100
,
0001
1000
0100
0001
,
0100
0010
0001
0100
,
1000
0010
1000
0001
,
0010
1000
0001
0100
,
0001
1000
0100
1000
,
0001
0100
0001
0100
,
0010
0100
0010
1000
,
0001
1000
0100
0001
,
0000
0010
0000
0200
,
0000
1000
1300
0002
,
0000
0100
0103
0020
,
0000
1000
1030
0002
,
0000
0100
0103
1000
,
0001
0100
0010
1000
,
0010
0100
0001
1001
,
0100
0010
0010
1000
,
0100
0100
0010
0011
,
0001
0010
0100
1000
,
0100
0010
0001
0100
,
1001
0001
1001
1000
,
0010
0200
0000
0301
,
0000
0000
0000
0220
,
0000
0000
0330
2200
,
0000
0000
3300
0022
,
0000
0000
0033
2020
,
0000
0000
3030
0101
,
0001
0100
0001
1000
,
0010
0100
1000
0100
,
0001
1000
0001
1000
,
0100
0100
0010
0001
,
0010
1000
0001
0100
,
0010
0001
0100
1000
,
0100
0001
1000
0100
,
0010
0001
0100
1000
,
0100
0001
0010
2000
,
0000
0000
3000
1001
,
0001
0100
0000
0002
,
0000
0000
0003
1010
,
0010
1000
0000
1000
,
0001
0100
0000
0101
,
0100
0100
0000
1001
,
0001
0001
0000
0110
,
0100
0100
0000
1000
,
0001
1000
0001
1000
,
0010
0100
0010
0100
,
0001
0010
0001
0010
,
0100
1000
0100
0010
,
0000
0000
0000
2002
,
0000
0000
0000
3003
;

//---------------dance-single - ----------------
#NOTEDATA:;
#CHARTNAME:;
#STEPSTYPE:dance-single;
#DESCRIPTION:;
#CHARTSTYLE:;
#DIFFICULTY:Medium;
#METER:8;
#RADARVALUES:0.296847,0.372371,0.108887,0.117961,0.081665,229.000000,217.000000,12.000000,13.000000,0.000000,0.000000,0.000000,0.000000,0.000000,0.296847,0.372371,0.108887,0.117961,0.081665,229.000000,217.000000,12.000000,13.000000,0.000000,0.000000,0.000000,0.000000,0.000000;
#CREDIT:;
#DISPLAYBPM:131.000000;
#NOTES:
0000
0000
0000
0000
,
0000
0000
0000
0000
,
0000
0000
0000
0000
0000
0000
0000
0000
0000
0000
0000
0000
0200
0000
0000
0001
,
0000
0000
0000
0000
0001
0000
0000
0000
0301
0000
0000
0000
2000
0000
0000
0001
,
0000
0000
0000
0000
0001
0000
0000
0000
3001
0000
0000
0000
0200
0000
0000
0010
,
0000
0000
0000
0000
0010
0000
0000
0000
0310
0000
0000
0000
0002
0000
0000
1000
,
0000
0000
0000
0000
1000
0000
0000
0000
1003
0000
0000
0000
0001
0000
0000
0100
,
0000
0000
0000
0000
0001
0000
0000
0000
1000
0000
0000
0000
0010
0000
0000
0100
,
0000
0000
0000
0000
0001
0000
0000
0000
1000
0000
0000
0000
0001
0000
0000
1000
,
0000
0000
0000
0000
0010
0000
0000
0000
0100
0000
0000
0000
0001
0000
0000
1000
,
0000
0001
1000
1001
,
0001
0000
0000
0000
0100
0000
0010
0000
0100
0000
0000
0000
0010
0000
0000
0100
,
0000
0000
0000
0000
0001
0000
0000
0000
1000
0000
0001
0000
1000
0000
0000
0001
,
0000
0000
0000
0000
0100
0000
0000
0000
0010
0000
0100
0000
0010
0000
0000
1000
,
0000
0000
0000
0000
0001
0000
0000
0000
0010
0000
0001
0000
0010
0000
0000
0001
,
0000
0000
0000
0000
1000
0000
0001
0000
1000
0000
0000
0000
0010
0000
0000
0100
,
0000
0000
0000
0000
0010
0000
0000
0000
0100
0000
0001
0000
0100
0000
0000
0001
,
0000
0000
1000
0001
1000
0000
0100
0000
,
0010
0001
0000
1000
,
0010
0100
0001
0010
,
0100
0010
0001
1000
,
0100
0010
0001
1000
,
1000
0001
0001
0110
,
0110
0001
0001
1100
,
1100
0010
0100
0011
,
0011
1000
1000
0001
,
0100
0001
0100
0001
,
1001
0001
0101
0001
,
1000
0010
0100
0001
,
1000
0010
0100
0001
,
1000
1000
0010
0200
,
0000
0300
0000
0002
,
0000
1003
0010
0200
,
0000
0301
0010
0002
,
0000
1003
0010
0200
,
0000
0301
0010
0110
,
1000
0000
0001
0000
0100
0001
0100
0000
,
0001
0000
1000
0000
0010
0100
0010
0000
,
1000
0000
0001
0000
0100
0001
1000
0000
,
0010
0000
0100
0000
0001
0010
0001
0000
,
1000
1000
0000
0001
,
0001
0100
0000
0010
,
0010
1000
0000
0100
,
0100
0010
0000
0002
,
0000
0103
0100
0020
,
0000
1030
0000
0110
,
0010
0001
1000
0002
,
0000
0103
0000
0010
,
1000
0001
0100
0001
,
1000
0010
0100
0110
,
0000
0000
0001
0000
1000
0001
1000
0000
,
0000
0000
0001
0000
0100
0001
1000
0000
,
0000
0000
0010
0000
0100
0001
1000
0000
,
0000
0000
0000
0000
0010
0000
0000
0000
0100
0000
0010
0000
1000
0000
0000
0001
,
0000
0000
0000
0000
0100
0000
0000
0000
0010
0000
0000
0000
1000
0000
0000
0001
,
0000
0000
0000
0000
0001
0000
0000
0000
1000
0000
0001
0000
1000
0000
0000
0001
,
0000
0100
0010
2000
,
0000
0000
0000
0000
0000
0000
0000
0000
3000
0000
0000
0000
0001
0000
0000
1000
,
0000
0000
0001
0000
1000
0001
0000
0000
;

//---------------dance-single - ----------------
#NOTEDATA:;
#CHARTNAME:;
#STEPSTYPE:dance-single;
#DESCRIPTION:;
#CHARTSTYLE:;
#DIFFICULTY:Hard;
#METER:11;
#RADARVALUES:0.514621,0.534227,0.272217,0.190552,0.195089,397.000000,367.000000,30.000000,21.000000,0.000000,0.000000,0.000000,0.000000,0.000000,0.514621,0.534227,0.272217,0.190552,0.195089,397.000000,367.000000,30.000000,21.000000,0.000000,0.000000,0.000000,0.000000,0.000000;
#CREDIT:;
#DISPLAYBPM:131.000000;
#NOTES:
// measure 0
0000
0000
0000
0000
,  // measure 1
0000
0000
0000
0000
,  // measure 2
0000
0000
0000
0000
0000
0000
0000
0000
0000
0000
0000
0000
0100
0000
0000
0001
,  // measure 3
0000
0000
1000
0000
0001
0000
1000
0000
0001
0000
1000
0000
0001
0000
0000
1000
,  // measure 4
0000
0000
0001
0000
1000
0000
0001
0000
1000
0000
0001
0000
0100
0000
0000
0001
,  // measure 5
0000
0000
1000
0000
0001
0000
1000
0000
0001
0000
1000
0000
0010
0000
0000
1000
,  // measure 6
0000
0000
0001
0000
0100
0000
0001
0000
1000
0000
0001
0000
0100
0000
0010
0100
,  // measure 7
0000
0000
0001
0000
1000
0000
0001
0000
0100
0000
0001
0000
1000
0000
0000
0001
,  // measure 8
0000
0000
0100
0000
0010
0000
0100
0000
0010
0000
0100
0000
0010
0000
0000
1000
,  // measure 9
0000
0000
0001
0000
0100
0000
0001
0000
1000
0000
0010
0000
0100
0000
0001
0100
,  // measure 10
0000
0000
0010
0000
1000
0000
0001
0000
1000
0000
0010
0000
0100
0000
0000
0010
,  // measure 11
0000
0000
1000
0000
0100
0000
0010
0000
0001
0000
1000
0000
0100
0000
0000
1000
,  // measure 12
0000
0000
0001
0000
0010
0000
0001
0000
0010
0000
0100
0000
1000
0000
0001
1000
,  // measure 13
0000
0000
0100
0000
0010
0000
1000
0000
0001
0000
0100
0000
0010
0000
0000
0001
,  // measure 14
0000
0000
1000
0000
0010
0000
1000
0000
0010
0000
0100
0000
0001
0000
0000
0100
,  // measure 15
0000
0000
0001
0000
0100
0000
0010
0000
1000
0000
0001
0000
0100
0000
0001
1000
,  // measure 16
0000
0000
0010
0000
0100
0000
0001
0000
1000
0000
0010
0000
0100
0000
0000
0001
,  // measure 17
0000
1000
0010
0100
0001
1000
0001
0100
,  // measure 18
0001
0000
0000
1000
0000
0000
0000
0000
0000
0000
0000
0000
0010
0000
0000
0000
,  // measure 19
0100
0000
0001
0000
1000
0010
1000
0000
,  // measure 20
0001
0000
0100
0000
0010
0100
0001
0000
,  // measure 21
1000
0010
0100
0000
0010
0000
0100
0000
,  // measure 22
0001
1000
0001
0000
0100
0010
1000
0000
,  // measure 23
0101
0000
0100
0000
1001
0000
0001
1000
,  // measure 24
1001
0100
0010
1010
,  // measure 25
0100
0001
0101
0000
0001
0000
1000
0000
,  // measure 26
0110
0000
1000
0100
1100
0000
0001
0000
,  // measure 27
0011
0000
1000
0001
1001
0000
0100
0010
,  // measure 28
0110
0000
0000
0100
0000
0000
0000
0000
1000
0000
0100
0000
0001
0000
0000
0000
,  // measure 29
0001
0100
0001
0000
0100
0010
0100
0001
,  // measure 30
0101
0000
0000
0001
0000
0000
0100
0000
0010
0000
0000
0000
2000
0000
0000
0000
,  // measure 31
0000
0000
0000
3001
0000
0000
0000
0000
0000
0000
0000
0000
0001
0000
0100
0001
,  // measure 32
0000
0000
1000
0000
0010
0000
0100
0000
0001
0000
1000
0000
0020
0000
0130
0010
,  // measure 33
0000
0000
1000
0000
0001
0000
0100
0000
0001
0000
0010
0000
0200
0000
1300
0001
,  // measure 34
0000
0000
1000
0000
0001
0000
0100
0000
0010
0000
1000
0000
0002
0000
1003
0010
,  // measure 35
0000
0000
0100
0000
0001
0000
0100
0000
0010
0000
1000
0000
1001
0000
0000
1001
,  // measure 36
0000
0000
0001
0000
0100
0000
0010
0000
1000
0000
0001
0000
0010
0000
0000
0100
,  // measure 37
0000
0000
1000
0000
0100
0000
0001
0000
0100
0000
0010
0000
0001
0000
0010
0001
,  // measure 38
0000
0000
0001
0000
0010
0000
0001
0000
0100
0000
0001
0000
2000
0000
3001
0100
,  // measure 39
0000
0000
0001
0000
0010
0000
1000
0000
0010
0000
0100
0000
1000
0000
0001
0100
,  // measure 40
0000
0000
0001
0000
1000
0000
0010
0000
0100
0000
0001
0000
2000
0000
3001
0100
,  // measure 41
0000
0000
0010
0000
1000
0000
0010
0000
0100
0000
0001
0000
2000
0000
3001
0100
,  // measure 42
0000
0000
0001
0000
1001
0000
0000
0000
0101
0000
0100
0000
0101
0000
0000
0101
,  // measure 43
0000
0001
0110
0000
1001
0100
2000
0000
,  // measure 44
0010
3002
0103
0110
,  // measure 45
0200
0301
2000
3100
0020
0031
2000
0000
,  // measure 46
0001
0000
3200
0000
0310
0001
1001
0000
,  // measure 47
0200
0310
2000
3001
0200
0310
1000
0001
,  // measure 48
0100
0000
0001
0000
1000
0001
0000
1000
0001
0000
0000
0000
0100
0000
0010
0000
,  // measure 49
0100
0000
0001
0000
1000
0001
0000
1000
0001
0000
0000
0000
1001
0000
0000
0110
,  // measure 50
0000
0000
1010
0000
0010
0000
1000
0000
0001
0000
0100
0000
0001
0000
0000
0100
,  // measure 51
0000
0000
0001
0000
1000
0000
0100
0000
0001
0000
0100
0000
0010
0000
0000
0001
,  // measure 52
0000
0000
1000
0000
0001
0000
0100
0000
0010
0000
1000
0000
1010
0000
0000
1001
,  // measure 53
0000
0000
0011
0000
0001
0000
0010
0000
0001
0000
0100
0000
1000
0000
0000
0100
,  // measure 54
0000
0000
0001
0000
1000
0000
0010
0000
0100
0000
0001
0000
1000
0000
0000
0001
,  // measure 55
0000
0000
0100
0000
0010
0000
0100
0000
0010
0000
1000
0000
1001
0000
0000
0101
,  // measure 56
0000
0101
0001
1000
0001
0100
0020
0000
,  // measure 57
0000
0000
0000
0000
1030
0000
0000
0000
0001
0000
0000
0000
0200
0000
0000
0320
,  // measure 58
0000
1030
0001
1000
0001
0200
0000
0300
;

//---------------dance-single - ----------------
#NOTEDATA:;
#CHARTNAME:;
#STEPSTYPE:dance-single;
#DESCRIPTION:;
#CHARTSTYLE:;
#DIFFICULTY:Challenge;
#METER:15;
#RADARVALUES:0.725913,0.801340,0.226848,0.063517,0.580731,560.000000,535.000000,25.000000,7.000000,0.000000,0.000000,0.000000,0.000000,0.000000,0.725913,0.801340,0.226848,0.063517,0.580731,560.000000,535.000000,25.000000,7.000000,0.000000,0.000000,0.000000,0.000000,0.000000;
#CREDIT:;
#DISPLAYBPM:131.000000;
#NOTES:
0000
0000
0000
0000
,
0000
0000
0000
0000
,
0000
0000
0000
0000
0000
0000
0000
0000
0000
0000
0000
0000
0100
0000
0000
0001
,
0000
0000
1000
0000
0100
0000
0010
0000
0001
0000
1000
0000
0001
0000
0000
1000
,
0000
0000
0001
0000
0010
0000
0100
0000
1000
0000
0001
0000
0100
0000
0000
0001
,
0000
0000
0100
0000
0010
0000
1000
0000
0001
0000
0100
0000
0010
0000
0000
1000
,
0000
0000
0001
0000
0100
0000
0010
0000
1000
0000
0001
0000
0110
0000
0010
0100
,
0010
0000
0100
0000
1000
0000
0100
0000
0001
0000
1000
0000
0100
0000
0010
0001
,
0010
0000
0100
0000
1000
0000
0100
0000
1000
0000
0001
0000
0011
0000
0001
0010
,
0001
0000
1000
0000
0001
0000
0100
0000
1000
0000
0100
0000
0001
0000
0100
0010
,
1000
0000
0010
0000
1000
0000
0001
0000
1000
0000
0010
0000
0100
0000
0010
0100
,
0001
0000
1000
0000
0100
0000
0010
0000
0001
0000
1000
0000
1100
0000
1000
0100
,
0010
0000
0001
0000
0010
0000
0001
0000
0010
0000
0100
0000
1001
0000
0001
1000
,
0010
0000
0100
0000
0001
0000
1000
0000
0001
0000
0100
0000
1010
0000
0100
0001
,
1000
0000
0001
0000
0010
0000
1000
0000
0010
0000
0100
0000
1100
0000
0100
0010
,
0100
0000
0010
0000
0001
0000
0010
0000
0001
0000
1000
0000
1010
0000
0010
0100
,
0001
0000
0010
0000
0100
0000
1000
0000
0001
0000
0010
0000
1100
0000
0001
0100
,
0001
1000
0010
0100
0100
0010
0010
0100
,
0001
0000
0000
1000
0000
0000
1000
0001
0010
0001
0010
0000
0001
0010
0001
0010
,
0001
0010
0001
0000
1000
0100
1000
0100
1000
0100
1000
0000
0010
1000
0010
0100
,
0010
0100
0001
0000
0100
0010
0100
0010
1000
0100
1000
0000
1000
0001
1000
0100
,
1000
0100
0010
0000
0001
1000
0001
0100
0001
0100
0001
0000
0100
0010
0100
0010
,
1000
0001
1000
0001
0100
0010
0100
0010
0100
0010
0100
0000
0001
0000
0100
0000
,
0101
0000
0001
0100
0001
0000
1000
0100
1000
0000
0001
0000
0001
1000
0001
0100
,
0001
0000
1000
0100
1000
0010
0100
0000
0010
0100
0010
0100
0010
0100
0001
0100
,
0001
0000
0100
0001
0010
0001
1000
0000
0001
1000
0001
0100
0001
1000
0001
0100
,
0010
0000
1000
0100
1000
0010
0100
0000
0001
0100
0001
0100
0001
0010
0001
0010
,
0001
0000
1000
0001
1000
0000
0001
0000
1001
0000
0000
0000
0100
0000
0010
0000
,
1001
0000
0000
0100
0000
0000
0000
0010
1000
0010
1000
0001
0100
0000
0010
0000
,
1001
0000
0101
0000
0110
0000
0100
0010
,
0110
0000
0000
0001
0000
0000
0000
0000
1000
0001
1000
0001
2000
0000
0000
0000
,
0000
0000
0000
3001
0000
0000
0000
0000
0000
0000
0000
0000
0001
0000
0100
0001
,
1000
0000
1000
0000
0010
0000
0100
0000
0001
0000
1000
0001
0100
0000
0010
0100
,
0010
0000
1000
0000
0001
0000
0100
0000
0010
0000
1000
0100
1000
0000
0001
0100
,
0001
0000
1000
0000
0001
0000
0100
0000
0110
0000
1000
0000
1001
0000
0001
0100
,
0010
0000
0100
0000
1001
0000
0100
0000
1010
0000
1000
0000
1001
0000
0000
0110
,
0000
0000
0001
0000
0100
0000
0010
1000
0001
0000
1000
0000
0010
0000
0100
0010
,
1000
0000
1000
0000
0100
0000
1000
0000
0100
0000
0010
0001
0010
0000
0001
1000
,
0100
0000
0010
0000
0001
0000
1000
0000
0100
0000
0001
0100
0010
0000
0001
0100
,
0010
0000
1000
0000
0010
0000
1000
0000
0010
0000
0100
0000
0101
0000
0001
0100
,
0001
0000
1000
0000
1000
0000
0001
0000
0001
0000
1000
0000
1100
0000
0100
1000
,
0100
0000
1000
0000
1000
0000
0010
0000
0010
0000
0100
0000
0101
0000
0001
0100
,
0001
0000
1000
0000
0010
0000
0100
0000
0001
0000
1000
0000
0101
0000
0001
0100
,
0001
0000
1000
0010
1000
0000
0001
0000
0010
0000
0100
0000
0020
0000
0000
0000
,
1030
0000
0000
0000
0001
0100
0000
0010
1000
0000
0001
0100
0002
0000
0000
0000
,
1003
0000
0010
0000
0100
0000
0001
0000
1000
0000
0001
0000
0100
0000
0010
0100
,
0010
0000
1000
0000
0001
0100
0000
0100
0001
0000
1000
0010
2000
0000
0000
0000
,
3001
0000
0100
0000
0010
0000
1000
0000
0001
0000
0100
0000
0010
0100
0010
0100
,
0010
0000
1000
0000
0001
0100
0001
0100
0001
0000
1000
0000
0010
0100
0010
1000
,
0100
0000
0010
0000
0001
0000
1000
0001
0100
0001
1000
0001
0200
0000
0000
0310
,
0000
0000
0010
0000
1000
0000
0001
0000
0100
0000
0001
0000
1000
0000
0010
1000
,
0010
0000
0100
0001
0100
0000
0001
0000
1000
0001
1000
0001
1000
0000
0010
0100
,
0001
0000
1000
0000
0010
0000
0100
0000
0010
0000
0100
0001
0100
0000
0001
0010
,
0001
0000
1000
0000
0001
0000
0100
0000
0001
0010
0001
0010
0001
0000
1000
0001
,
1000
0000
0001
0000
0100
0000
0010
0000
1000
0000
0010
0100
0001
0000
0010
0100
,
1000
0000
0001
0000
1000
0000
0001
0000
0100
0010
0100
0010
1000
0000
0001
0100
,
0001
1000
0100
0010
0001
0010
0200
0000
,
1300
0000
0000
0000
0010
0100
0010
0000
0100
0010
0100
0010
0100
0000
0000
0010
,
0000
1000
0100
0001
0100
2000
0000
3000
;
