#VERSION:0.83;
#TITLE:Karasu;
#SUBTITLE:;
#ARTIST:Kuroodori Shachu;
#TITLETRANSLIT:;
#SUBTITLETRANSLIT:;
#ARTISTTRANSLIT:;
#GENRE:;
#ORIGIN:;
#CREDIT:from pop n music 11;
#BANNER:Kuroodori Shachu - Karasu.png;
#BACKGROUND:;
#PREVIEWVID:;
#JACKET:;
#CDIMAGE:;
#DISCIMAGE:;
#LYRICSPATH:;
#CDTITLE:;
#MUSIC:Kuroodori Shachu - Karasu (mp3cut.net).mp3;
#OFFSET:-0.056000;
#SAMPLESTART:1.765000;
#SAMPLELENGTH:16.000000;
#SELECTABLE:YES;
#BPMS:0.000=140.000;
#STOPS:;
#DELAYS:;
#WARPS:;
#TIMESIGNATURES:0.000=4=4;
#TICKCOUNTS:0.000=4;
#COMBOS:0.000=1;
#SPEEDS:0.000=1.000=0.000=0;
#SCROLLS:0.000=1.000;
#FAKES:;
#LABELS:0.000=Song Start;
#BGCHANGES:;
#KEYSOUNDS:;
#ATTACKS:
;

//---------------dance-single - ----------------
#NOTEDATA:;
#CHARTNAME:;
#STEPSTYPE:dance-single;
#DESCRIPTION:;
#CHARTSTYLE:;
#DIFFICULTY:Beginner;
#METER:2;
#RADARVALUES:0.134414,0.172498,0.081312,0.046464,0.000000,81.000000,74.000000,7.000000,4.000000,0.000000,0.000000,0.000000,0.000000,0.000000,0.134414,0.172498,0.081312,0.046464,0.000000,81.000000,74.000000,7.000000,4.000000,0.000000,0.000000,0.000000,0.000000,0.000000;
#CREDIT:;
#NOTES:
0000
0000
0000
0000
,
0000
0000
0000
0000
,
0000
0000
0000
0000
,
0100
0000
0000
0000
,
0001
0000
0000
0000
,
1000
0000
0001
0000
,
1000
0000
0001
0000
,
0100
0000
0001
0000
,
0100
0000
0000
0000
,
0110
0000
0010
0000
,
0010
0000
0000
0000
,
0110
0000
0100
0000
,
0100
0000
0000
0000
,
0001
0000
1000
0000
,
0001
0000
0000
0000
,
1000
0000
0100
0000
,
0100
0000
0010
0000
,
0001
0000
0001
0000
,
1000
0000
0000
0000
,
1000
0000
0100
0000
,
0100
0000
0010
0000
,
0001
0000
0001
0000
,
1000
0000
0000
0000
,
1000
0000
0100
0000
,
0100
0000
0000
0000
,
0001
0000
1000
0000
,
0001
0000
0000
0000
,
1100
0000
0000
0000
,
0110
0000
0000
0000
,
0011
0000
0000
0000
,
0011
0000
0000
0000
,
0110
0000
0000
0000
,
1000
0000
1000
0000
,
1000
0000
0000
0000
,
2000
0000
0000
3000
,
0001
0000
0001
0000
,
0002
0000
0000
0003
,
1000
0000
1000
0000
,
2000
0000
0000
3000
,
0001
0000
0001
0000
,
0002
0000
0000
0003
,
1000
0000
0001
0000
,
1000
0000
0001
0000
,
0001
0000
1000
0000
,
0001
0000
1000
0000
,
0001
0000
0100
0000
,
0001
0000
0100
0000
,
0001
0000
0100
0000
,
0001
0000
1000
0000
,
0001
0000
1000
0000
;

//---------------dance-single - ----------------
#NOTEDATA:;
#CHARTNAME:;
#STEPSTYPE:dance-single;
#DESCRIPTION:;
#CHARTSTYLE:;
#DIFFICULTY:Easy;
#METER:3;
#RADARVALUES:0.185856,0.229997,0.081312,0.116160,0.000000,112.000000,105.000000,7.000000,10.000000,0.000000,0.000000,0.000000,0.000000,0.000000,0.185856,0.229997,0.081312,0.116160,0.000000,112.000000,105.000000,7.000000,10.000000,0.000000,0.000000,0.000000,0.000000,0.000000;
#CREDIT:;
#NOTES:
0000
0000
0000
0000
,
0000
0000
0000
0000
,
0000
0000
0000
0000
,
0002
0003
2000
3000
,
0002
0003
0200
0300
,
0001
0000
0010
0000
,
0100
0000
1000
0000
,
0100
0000
0010
0000
,
0001
0000
0100
0000
,
0001
0000
0010
0000
,
0100
0000
0010
0000
,
0001
0000
1000
0000
,
0100
0000
0010
0000
,
0100
0000
1000
0000
,
0001
0000
0010
0000
,
0100
0000
0010
0000
,
0001
0000
1000
0000
,
0100
0000
0010
0000
,
0001
0000
0100
0000
,
0010
0000
1000
0000
,
0100
0000
0010
0000
,
0001
0000
0100
0000
,
0010
0000
1000
0000
,
0001
0000
0001
0000
,
2000
0000
3000
0000
,
1001
0000
0001
0000
,
1000
0001
1000
0000
,
1001
0000
1000
0000
,
0001
1000
0001
0000
,
1001
0000
1000
0000
,
0100
0010
0100
0000
,
1001
0000
0101
0000
,
1000
0000
0001
0000
,
0002
0003
0000
0000
,
2000
3000
0000
0000
,
0001
0010
0100
1000
,
0002
0003
1000
0000
,
1000
0100
0010
0001
,
2000
3000
0010
0000
,
0100
0010
0100
0010
,
0200
0300
0010
0000
,
0110
0000
0010
0000
,
0110
0000
0100
0000
,
0010
0000
1000
0000
,
0001
0000
1000
0000
,
0001
0010
0100
0000
,
0001
0010
0100
0000
,
1000
0100
1000
0000
,
1000
0100
1000
0000
,
0001
0010
0001
0000
;

//---------------dance-single - ----------------
#NOTEDATA:;
#CHARTNAME:;
#STEPSTYPE:dance-single;
#DESCRIPTION:;
#CHARTSTYLE:;
#DIFFICULTY:Medium;
#METER:7;
#RADARVALUES:0.368394,0.432334,0.383329,0.104544,0.000000,222.000000,189.000000,33.000000,9.000000,0.000000,0.000000,0.000000,0.000000,0.000000,0.368394,0.432334,0.383329,0.104544,0.000000,222.000000,189.000000,33.000000,9.000000,0.000000,0.000000,0.000000,0.000000,0.000000;
#CREDIT:;
#NOTES:
// measure 0
0000
0000
0000
0000
,  // measure 1
0001
0000
1000
0000
0100
0010
0001
0000
,  // measure 2
1000
0000
0001
0000
0010
0100
1000
0000
,  // measure 3
0001
0000
1000
0000
0100
0010
0001
0000
,  // measure 4
1000
0000
0001
0000
0010
0100
1000
0000
,  // measure 5
0001
0000
1001
0000
1000
0100
1000
0000
,  // measure 6
0001
0000
0101
0000
1000
0001
1000
0000
,  // measure 7
0001
0000
1000
0000
0001
0100
0001
0000
,  // measure 8
1001
2000
0000
3000
,  // measure 9
0011
0101
1100
0110
,  // measure 10
0001
1000
0001
1000
,  // measure 11
1001
0011
0110
1100
,  // measure 12
0001
0100
0001
0100
,  // measure 13
0001
1000
0001
1000
,  // measure 14
0100
0010
0001
0100
,  // measure 15
0010
1000
0100
0010
,  // measure 16
0001
0100
0010
1000
,  // measure 17
0001
0000
1000
0000
0100
0010
0001
0000
,  // measure 18
1000
0000
0001
0000
0100
0010
0001
0000
,  // measure 19
1000
0001
0010
0100
,  // measure 20
0002
0000
2003
0000
,  // measure 21
3001
1001
1001
0110
,  // measure 22
0010
0000
0100
0000
0010
0100
0010
0000
,  // measure 23
0110
0110
1001
1001
,  // measure 24
0002
0000
2003
0000
,  // measure 25
3001
0000
0011
0000
0001
0010
0001
0000
,  // measure 26
0010
0001
0010
0000
0001
0000
0001
0000
,  // measure 27
1000
0100
1000
0000
1000
0100
1000
0000
,  // measure 28
0001
0010
0001
0010
,  // measure 29
0110
0000
0010
0100
0000
0100
0000
1001
,  // measure 30
0000
1100
0000
0011
0000
1000
0000
0001
,  // measure 31
0000
0100
0000
0001
0000
1000
0000
1000
,  // measure 32
0000
1001
0000
1001
0000
0000
0000
0000
,  // measure 33
1001
0100
1000
0100
,  // measure 34
0010
0001
0100
0010
,  // measure 35
1000
0100
0001
0010
,  // measure 36
0110
0000
0000
0000
,  // measure 37
2000
3001
2000
3001
,  // measure 38
1001
0000
0010
0000
,  // measure 39
0200
0310
0200
0310
,  // measure 40
0001
0000
1001
0000
,  // measure 41
1000
0100
0010
0000
,  // measure 42
0100
1000
0100
0000
,  // measure 43
0001
0010
0100
0000
,  // measure 44
1000
0000
0001
0000
0100
0010
0100
0000
,  // measure 45
0001
1000
0010
0000
,  // measure 46
0010
1000
0001
0000
,  // measure 47
1000
0100
0010
0001
,  // measure 48
1001
0000
0000
0000
1001
0000
0000
1100
,  // measure 49
0000
0000
0011
0000
0000
1000
0000
0000
;

//---------------dance-single - ----------------
#NOTEDATA:;
#CHARTNAME:;
#STEPSTYPE:dance-single;
#DESCRIPTION:;
#CHARTSTYLE:;
#DIFFICULTY:Hard;
#METER:13;
#RADARVALUES:0.660454,0.662912,0.243936,0.034848,0.348481,398.000000,377.000000,21.000000,3.000000,0.000000,0.000000,0.000000,0.000000,0.000000,0.660454,0.662912,0.243936,0.034848,0.348481,398.000000,377.000000,21.000000,3.000000,0.000000,0.000000,0.000000,0.000000,0.000000;
#CREDIT:;
#NOTES:
0000
0000
0000
0000
,
0001
0000
0100
0000
0001
0000
0100
0000
0001
0000
1000
0001
1000
0000
0001
0000
,
0100
0000
0001
0000
0100
0000
0001
0000
0100
0000
0001
0100
0001
0000
1000
0000
,
0001
0000
1000
0000
0001
0000
1000
0000
1000
0100
1000
0100
1000
0000
0001
0000
,
0010
0000
0001
0000
0100
0000
0001
0000
0010
0001
0010
0001
0010
0000
0000
0000
,
0011
0001
1000
0100
0001
0100
1000
0100
,
0010
0100
0010
0100
0010
0001
0100
0001
,
0010
0000
0100
0000
0010
0000
0100
0000
0010
0100
0010
0100
0010
0000
0000
0000
,
0001
0000
1000
0000
0000
0000
0001
0000
1000
0000
0001
0010
0001
0010
0000
0000
,
0011
0000
0001
1000
0001
0000
1000
0001
1000
0000
0001
1000
0001
0000
1000
0100
,
1000
1100
1100
0101
,
0001
0000
0010
0001
0010
0000
0001
0010
0001
0000
0010
0001
0010
0000
0000
0000
,
0001
0000
0000
1001
0000
0000
0001
0000
0100
0000
0010
0100
0010
0100
0010
0000
,
0100
0000
0000
0000
1001
0000
1000
0000
0100
0000
1000
0000
0100
0000
0010
0001
,
0010
0000
0001
0000
1000
0000
0010
0000
0100
0000
0001
0000
0100
0000
0010
0100
,
0010
0000
0100
0000
0001
0000
1000
0000
0001
1000
0001
1000
0001
0000
1000
0000
,
0001
0100
0010
0100
0110
0010
0200
0000
,
0310
0010
0100
0001
1000
0001
1001
1000
,
0001
0000
1000
0000
0010
0000
0100
0000
0010
0000
1000
0000
0100
0000
1000
0100
,
1000
0001
0010
0100
0010
0001
0010
0100
,
0110
0000
0000
0000
0001
0010
0001
0010
0001
0000
0000
0000
0010
0000
0000
0000
,
0011
0000
0000
0000
0001
0000
1000
0100
1000
0000
0000
0000
0001
0000
0001
0000
,
0001
0000
0000
1000
0000
0000
0001
0000
1001
0000
0000
0000
0110
0000
0000
0000
,
0010
0100
1000
0001
0001
0000
1001
0000
,
1000
0000
0000
1000
0000
0000
0001
0000
0002
0000
0003
0000
2000
0000
3000
0000
,
0001
0001
0000
0001
0000
1000
0100
0010
,
0000
0001
0010
0100
0000
0010
0100
1000
,
0000
0100
0010
0100
0000
0100
0010
0001
,
0000
0001
0010
0100
0000
0010
0100
0010
,
0000
0010
0100
1000
0000
0010
0100
0010
,
0000
0100
0001
0100
0000
0001
0000
0001
,
0001
0000
1000
0001
0000
0000
1000
0000
1000
0000
0001
1000
0000
0000
0001
0000
,
0100
0000
0001
0100
0000
0100
0001
0000
0100
0000
0100
0000
0101
0000
0000
0000
,
0001
0000
1000
0000
1001
0000
0000
0000
0100
0000
0010
0100
0010
0000
0000
0000
,
0100
0000
0010
0100
0010
0000
0100
0000
0010
0000
0100
0010
0100
0000
0000
0000
,
0110
0000
0010
0000
1000
0000
1000
0000
0001
1000
0001
1000
0001
0000
1000
0000
,
0100
0000
1000
0000
0100
0000
0010
0000
0100
1000
0100
1000
0100
0000
0000
0000
,
1000
1100
0100
0000
,
0010
0000
0000
0000
0001
0010
0001
0010
0001
0000
0000
0000
0001
0000
0000
0000
,
0011
0000
0010
0100
0010
0000
0001
0010
,
0100
0000
0010
0000
0001
0000
0000
0000
1000
0000
0001
1000
0001
1000
0001
0000
,
1000
0000
0000
0000
0100
0000
1000
0000
0100
0000
1000
0100
1000
0000
0000
0000
,
0001
0000
0010
0000
0001
0000
0010
0001
0010
0000
0001
0010
0001
0000
0000
0000
,
0011
0000
0000
0000
0010
0000
0001
0000
0010
0001
0010
0001
0010
0000
0000
0000
,
0001
0000
0100
0000
0001
0000
0000
0000
0100
0001
0100
0001
0100
0000
0000
0000
,
0101
0000
0000
0000
0001
0000
1000
0000
0100
0000
0010
0001
0010
0000
0001
0000
,
1000
0000
0001
0000
1000
0000
0001
0000
0100
0000
0001
0010
0001
0000
0010
0000
,
0001
0000
1000
0000
0100
0000
0010
0000
0001
0010
0001
0010
0001
0000
0000
0000
,
0001
0000
0000
0100
0001
0000
0001
0000
0000
0100
0001
0000
0001
0000
0000
0010
,
0001
0000
0001
0000
0000
1000
0100
0000
0100
0000
0100
0000
0000
0000
0000
0000
;
