#VERSION:0.83;
#TITLE:Kanojo wa kaitou Ranma;
#SUBTITLE:;
#ARTIST:mami;
#TITLETRANSLIT:;
#SUBTITLETRANSLIT:;
#ARTISTTRANSLIT:;
#GENRE:;
#ORIGIN:;
#CREDIT:from pop n music 22 Lapistoria;
#BANNER:20160605215547!LT_Kanojo_wa_kaitou_Ranma.png;
#BACKGROUND:;
#PREVIEWVID:;
#JACKET:;
#CDIMAGE:;
#DISCIMAGE:;
#LYRICSPATH:;
#CDTITLE:;
#MUSIC:Kanojo_wa_kaitou_Ranma.ogg;
#OFFSET:-0.349000;
#SAMPLESTART:43.286999;
#SAMPLELENGTH:17.100000;
#SELECTABLE:YES;
#BPMS:0.000=169.000;
#STOPS:;
#DELAYS:;
#WARPS:;
#TIMESIGNATURES:0.000=4=4;
#TICKCOUNTS:0.000=4;
#COMBOS:0.000=1;
#SPEEDS:0.000=1.000=0.000=0;
#SCROLLS:0.000=1.000;
#FAKES:;
#LABELS:0.000=Song Start;
#BGCHANGES:;
#KEYSOUNDS:;
#ATTACKS:
;

//---------------dance-single - ----------------
#NOTEDATA:;
#CHARTNAME:;
#STEPSTYPE:dance-single;
#DESCRIPTION:;
#CHARTSTYLE:;
#DIFFICULTY:Beginner;
#METER:4;
#RADARVALUES:0.170543,0.236047,0.116279,0.054264,0.000000,154.000000,139.000000,15.000000,7.000000,0.000000,0.000000,0.000000,0.000000,0.000000,0.170543,0.236047,0.116279,0.054264,0.000000,154.000000,139.000000,15.000000,7.000000,0.000000,0.000000,0.000000,0.000000,0.000000;
#CREDIT:;
#NOTES:
0000
0000
0000
0000
,
0000
0000
0000
0000
,
0000
0000
0001
0000
,
1000
0000
0100
0000
,
0010
0000
0001
1000
,
0001
0000
1000
0001
,
1000
0000
0010
0100
,
0010
0000
1000
0010
,
1000
0000
0001
0000
,
0000
0000
0100
0000
,
0000
0000
0010
0000
,
1000
0000
0100
0000
,
0010
0000
0001
0000
,
0100
0000
0010
0000
,
1000
0000
0001
0000
,
0100
0000
0010
0000
,
1000
0000
0001
0000
,
0001
0000
1000
0000
,
0000
0000
1001
0000
,
0001
0000
1000
0000
,
1000
0000
0010
0000
,
0100
0000
0001
0000
,
0000
0000
1001
0000
,
0000
0000
1000
0000
,
0001
0000
0100
0000
,
0000
0000
0001
0000
,
1000
0000
0010
0000
,
1000
0000
0001
0000
,
1000
0000
0001
0000
,
0100
0000
0002
0000
,
0003
0000
0100
0000
,
0100
0000
0010
0000
,
0010
0000
1000
0000
,
1000
0000
0001
0000
,
0001
0000
1000
0000
,
0100
0000
0010
0000
,
0100
0000
1000
0000
,
0000
0000
0001
0000
,
0000
0000
1001
0000
,
0000
0000
0110
0000
,
0000
0000
0011
0000
,
0001
0000
1000
0000
,
0001
0000
1001
0000
,
0000
0000
1100
0000
,
0000
0000
1001
0000
,
0000
0000
0001
0000
,
0100
0000
0010
0000
,
0000
0000
1000
0000
,
0010
0000
0100
0000
,
0000
0000
0001
0000
,
0001
0000
0100
0000
,
0001
0000
0001
0000
,
0100
0000
0010
0000
,
0000
0000
1000
0000
,
0100
0000
1000
0000
,
0000
0000
0100
0000
,
0000
0000
0000
0000
,
0000
0000
0110
0000
,
0000
0000
0001
0000
,
0100
0000
0001
0000
,
0000
0000
1000
0000
,
0010
0000
1000
0000
,
0001
0000
1000
0000
,
0001
0000
0100
0000
,
0001
0000
0100
0000
,
0000
0000
0101
0000
,
0000
0000
1001
0000
,
0000
0000
1010
0000
,
1000
0000
1000
0000
,
0001
0000
0001
0000
,
0100
0000
0001
0000
,
0000
0000
1000
0000
,
0001
0000
1000
0000
,
0001
0000
1000
0001
,
1000
0000
0010
0100
,
0010
0000
0200
0000
,
0300
0000
0002
0000
,
0003
0000
2000
0000
,
3000
0000
0010
0000
,
0010
0000
0110
0000
,
0000
0000
1001
0000
,
0000
0000
0011
0000
,
0001
0000
1000
0000
,
0000
0000
1000
0000
,
0000
0000
0002
0000
,
0000
0003
0200
0000
,
0000
0300
0020
0000
,
0030
0000
0000
0000
;

//---------------dance-single - ----------------
#NOTEDATA:;
#CHARTNAME:;
#STEPSTYPE:dance-single;
#DESCRIPTION:;
#CHARTSTYLE:;
#DIFFICULTY:Easy;
#METER:9;
#RADARVALUES:0.401993,0.469380,0.333333,0.263566,0.000000,363.000000,320.000000,43.000000,34.000000,0.000000,0.000000,0.000000,0.000000,0.000000,0.401993,0.469380,0.333333,0.263566,0.000000,363.000000,320.000000,43.000000,34.000000,0.000000,0.000000,0.000000,0.000000,0.000000;
#CREDIT:;
#NOTES:
0000
0000
0000
0000
,
0000
0000
0000
0000
,
0000
0000
0001
0010
,
1000
0000
0100
0010
,
0001
0000
1000
0010
,
1000
0000
1000
0100
,
1000
0100
0010
0001
,
0010
0000
0001
1000
,
0010
0000
0100
0000
1001
0000
0000
1001
,
0000
0000
0110
0000
0000
1001
0000
0000
,
0000
0000
0020
0030
,
2000
3000
0020
0030
,
0200
0300
0002
0003
,
2000
3000
0010
0100
,
0100
0010
0110
0000
,
2000
3000
0010
0010
,
1000
0001
1001
0000
,
0001
0000
1000
0010
1000
0010
1000
0000
,
0000
0100
1001
0100
,
0101
0000
0010
0000
1000
0000
0100
1000
,
0100
0010
0011
0001
,
0100
0000
0010
0200
0000
0000
0300
0000
,
0000
0000
1001
0001
,
1000
0100
1000
0000
0001
0010
0001
0000
,
0100
0000
0010
0000
1000
0100
1000
0000
,
1000
0000
0001
0000
0001
0010
0001
0000
,
0001
0100
0010
1000
,
1001
0001
0101
0001
,
1010
1000
0020
0030
,
0100
0000
0100
0020
0000
0000
0030
0000
,
0100
0010
1010
1010
,
0100
0000
0001
0000
0010
0000
0100
1000
,
0100
0000
0100
1000
0001
0000
1000
0000
,
1001
0101
0001
1000
,
0101
0000
0001
0000
1000
0100
0010
0000
,
0001
0000
1000
0010
1000
0000
0001
0100
,
0001
0000
0001
0010
0001
0000
1000
0000
,
1000
0100
0100
0010
,
0011
0000
0000
0000
2000
0000
0000
3000
,
0100
0000
0010
0000
0012
0000
0000
0003
,
1000
0000
0100
0000
0021
0000
0000
0030
,
0001
0000
1000
0000
2100
0000
0000
3000
,
0010
0100
1001
0001
,
1000
0100
1000
0100
1000
0000
0001
0000
,
0100
0001
0100
0000
0001
0000
0100
0000
,
0010
1000
0010
1000
0010
0000
0100
0000
,
0020
0030
2000
3000
,
0002
0003
2000
3010
,
0002
0103
0020
1030
,
0200
0310
0001
0100
,
0101
0000
0100
0010
,
0110
0000
0001
1000
,
1100
0000
0100
0010
,
0011
0000
0000
0000
2000
0000
3000
0020
,
0000
0030
0100
0000
0100
0000
0000
0010
,
0000
0200
0000
0000
,
0300
0000
0010
0000
,
0200
0300
0110
0010
,
0010
0000
1000
0000
0001
0010
0100
0010
,
0002
0003
1000
0010
,
1010
0000
0010
0000
1000
0100
0010
0100
,
1000
0000
0001
0100
,
0001
0000
0100
0010
1000
0000
0001
0000
,
0110
0000
0100
0000
0001
0000
1000
0010
,
0100
0001
0100
0101
,
0000
0000
0100
0000
0001
0000
1000
0010
,
1000
0010
1000
0000
0001
0010
0001
0000
,
0001
0000
0100
0000
1000
0100
1000
0100
,
1000
0000
0001
0010
0001
0000
0100
0000
,
0001
1000
1001
0001
,
0110
0110
0001
1000
,
1010
0000
1000
0000
0001
0010
0100
0000
,
1000
0000
0010
0100
0010
0000
0100
0010
,
0100
0001
1001
0001
,
1001
1001
1000
0100
,
0010
0000
0001
0000
0200
0000
0000
0300
,
0010
0000
1000
0000
0102
0000
0000
0003
,
0010
0000
0100
0000
1002
0000
0000
0003
,
0100
0001
0010
0100
,
0010
0100
1000
0100
,
0010
0001
0010
0000
0001
0000
0010
0000
,
0100
1000
0100
0000
0010
0000
0001
0000
,
0100
0001
0100
0000
0010
0000
0000
2000
,
0000
0000
3200
0000
0300
0002
0000
0000
,
0103
1000
0200
0300
,
0020
0030
0100
0110
,
0110
0010
1001
0000
;

//---------------dance-single - ----------------
#NOTEDATA:;
#CHARTNAME:;
#STEPSTYPE:dance-single;
#DESCRIPTION:;
#CHARTSTYLE:;
#DIFFICULTY:Medium;
#METER:13;
#RADARVALUES:0.612403,0.640698,0.325581,0.410853,0.197674,553.000000,511.000000,42.000000,53.000000,0.000000,0.000000,0.000000,0.000000,0.000000,0.612403,0.640698,0.325581,0.410853,0.197674,553.000000,511.000000,42.000000,53.000000,0.000000,0.000000,0.000000,0.000000,0.000000;
#CREDIT:;
#NOTES:
// measure 0
0000
0000
0000
0000
,  // measure 1
0000
0000
0000
0000
,  // measure 2
0000
0000
0001
1000
,  // measure 3
0010
0000
0000
0000
0000
0000
0000
0000
0100
0000
0000
0000
0010
0000
0000
0000
0100
0000
0000
0000
0010
0000
0000
0000
0100
0000
0000
0000
0000
0000
0000
0000
0000
0010
0000
0000
1000
0000
0000
0000
0000
0000
0001
0000
0000
0000
0000
0000
,  // measure 4
0100
0010
1000
0100
1000
0001
0010
0001
,  // measure 5
1000
0000
0002
0000
0003
0000
1000
0000
0100
0000
0000
0010
0001
0000
1000
0000
,  // measure 6
0020
0000
0030
0100
0020
0000
0130
0000
0010
0000
1000
0000
0001
0000
0100
0000
,  // measure 7
0010
2000
3000
1000
0001
0100
1000
0100
,  // measure 8
0010
0000
0000
0000
0100
0000
0010
0000
1001
0000
0000
1001
0000
0000
2002
0000
,  // measure 9
0000
0000
3003
0000
0110
0000
0000
1001
0000
0000
0220
0000
0000
0000
0330
0000
,  // measure 10
0000
0000
0100
0000
0010
0010
0000
1000
,  // measure 11
0100
1000
0000
0001
0010
0001
0100
0000
,  // measure 12
0020
0000
1030
0000
0001
0001
0000
1000
,  // measure 13
0100
0010
0000
0010
0100
1000
0001
0000
,  // measure 14
0110
0000
0000
0100
0010
0000
0000
0000
0100
0000
0110
0000
0000
0000
0010
0000
,  // measure 15
1000
0010
0000
0010
1000
0001
0100
0000
,  // measure 16
1000
0000
0100
0001
2001
0000
3002
0000
,  // measure 17
0103
0000
0010
0100
0001
0010
1000
0000
,  // measure 18
0010
0000
0001
0100
0101
0000
0110
0000
,  // measure 19
0101
0000
0000
0000
0010
0000
1000
0000
0100
0000
0000
0100
0010
0000
0100
0000
,  // measure 20
0010
0000
0001
0000
1000
0001
0100
0000
,  // measure 21
0100
0010
1000
0200
0000
0010
0300
0010
,  // measure 22
0010
0000
0000
0000
1000
0001
0001
1000
,  // measure 23
0100
0000
1100
0000
0100
0010
0001
1000
,  // measure 24
0100
0000
0010
0000
0011
0001
0001
1000
,  // measure 25
0100
0000
0010
0000
0001
0010
0001
0100
,  // measure 26
0010
0000
1000
0010
1000
0100
1000
0010
,  // measure 27
1010
0000
0001
0100
0101
0001
0001
1000
,  // measure 28
1100
0000
1000
0010
0200
0000
0301
0000
,  // measure 29
0100
0010
0100
0020
0030
0100
0220
0000
,  // measure 30
0330
0000
0010
1000
1000
0100
0010
0001
,  // measure 31
0101
0000
0001
1000
1010
0000
0100
1000
,  // measure 32
0010
0000
0000
0100
0010
0000
1000
0000
0010
0000
1000
0000
1100
0000
0000
0000
,  // measure 33
0002
0000
0203
0000
0302
0000
0003
0000
1000
0000
0000
0010
1000
0000
0001
0000
,  // measure 34
0001
0000
0001
0100
1001
0001
1000
0010
,  // measure 35
0110
0000
0010
0100
1010
0000
0001
0100
,  // measure 36
0110
0000
0000
0010
0001
0000
0010
0000
0001
0000
1000
0000
0100
0000
0000
0000
,  // measure 37
2000
0000
3200
0000
2300
0000
3000
0000
0010
0000
0000
0100
0001
0000
0100
0000
,  // measure 38
0101
0000
0000
0000
0020
0000
0030
0000
1000
0100
0000
1000
0000
0100
1000
0000
,  // measure 39
0100
0000
0000
0000
0010
0000
0000
0000
0001
0010
0000
0001
0000
0010
0001
0000
,  // measure 40
0010
0000
0000
0000
0100
0000
0000
0000
0010
0000
0001
0010
0000
0001
0010
0000
,  // measure 41
0001
0000
0100
0010
0001
0000
0010
0000
,  // measure 42
2000
0000
3000
0000
0200
0000
0300
0000
1000
0100
0000
1000
0000
0100
1000
0000
,  // measure 43
0001
0000
0000
0000
1010
0000
0000
0000
1000
0001
0000
0100
0000
0001
0100
0000
,  // measure 44
0001
0000
0000
0000
0100
0000
0000
0000
0001
0010
0000
0001
0000
0100
0001
0000
,  // measure 45
0100
0000
0010
1000
0010
0100
0002
0000
,  // measure 46
1003
0100
2000
0000
3100
1000
0200
0000
,  // measure 47
1300
0010
2000
0000
3100
1000
0020
0000
,  // measure 48
0130
0001
0200
0000
0301
0100
0020
0000
,  // measure 49
2030
0000
0000
3000
0001
0010
0100
0000
,  // measure 50
0100
1000
0010
0100
0001
1000
1010
0000
,  // measure 51
0100
0010
0100
0000
0010
0100
0010
1000
,  // measure 52
1000
0001
0100
0000
0100
0010
0100
0001
,  // measure 53
0010
0001
1000
0001
2000
0000
3000
0020
,  // measure 54
0000
0030
0100
0010
0200
0000
0300
0020
,  // measure 55
0000
0030
0200
0000
0000
0000
0000
0000
,  // measure 56
0300
0000
0000
0000
0010
0000
0000
0100
,  // measure 57
0200
0000
0300
0000
0010
1000
0010
0100
,  // measure 58
0001
0000
1000
0000
0100
0010
0001
0010
,  // measure 59
0200
0000
0300
0000
1010
0010
0000
1000
,  // measure 60
1010
0000
0010
0100
0001
0010
0100
1000
,  // measure 61
0001
0000
0100
0001
0100
0010
0100
0010
,  // measure 62
1001
0000
0100
0001
1000
0001
0100
0010
,  // measure 63
0110
0100
0010
0100
0020
0000
1030
0000
,  // measure 64
0100
0100
0010
0000
0010
0001
0001
0000
,  // measure 65
1000
0000
0100
0000
0011
0000
1000
0001
,  // measure 66
0100
0010
1000
0001
0011
0000
0101
0000
,  // measure 67
0101
0000
0100
0010
1000
0001
0100
0010
,  // measure 68
1000
0000
0001
0010
0100
0000
0100
1000
,  // measure 69
0001
0000
0000
1000
0001
0000
0100
0000
0010
0000
0100
0000
0101
0000
0000
0000
,  // measure 70
0200
0000
0320
0000
0230
0000
0300
0000
0001
0000
0000
1000
0010
0000
1000
0000
,  // measure 71
1010
0000
1000
0100
0010
0010
0100
1000
,  // measure 72
0010
0000
0010
0100
0110
0000
0100
0001
,  // measure 73
0100
0001
0010
0010
0100
1000
1001
0000
,  // measure 74
2000
0000
3020
0000
0230
0000
0300
0000
0010
0000
0000
0100
0010
0000
0100
0000
,  // measure 75
0010
0000
0000
0000
2000
0000
0000
0000
3010
0100
0000
0010
0000
0100
0010
0000
,  // measure 76
0100
0000
0000
0000
0010
0000
0000
0000
0100
0001
0000
0100
0000
0001
0100
0000
,  // measure 77
0010
0000
0000
0000
0100
0000
0000
0000
0001
0000
1000
0001
0000
1000
0001
0000
,  // measure 78
1000
0100
0010
0000
0011
0000
0110
0000
,  // measure 79
1000
0000
0010
0000
0100
0000
0000
0000
1000
0100
0000
1000
0000
0100
1000
0000
,  // measure 80
0100
0000
0000
0000
0010
0000
0000
0000
0001
0010
0000
0001
0000
0010
0001
0000
,  // measure 81
0100
0000
0000
0000
0100
0000
0000
0000
0010
0100
0000
0010
0000
0100
0010
0000
,  // measure 82
1000
0001
1000
0002
0000
0003
0000
0200
,  // measure 83
0000
0000
0320
0000
0000
2030
0000
0000
,  // measure 84
0000
3000
0001
0000
0100
0010
0000
0010
,  // measure 85
0100
0010
0000
0010
1000
0001
0100
0010
,  // measure 86
1000
0001
0001
0100
0020
0000
0000
0000
,  // measure 87
0030
0000
0000
0000
;

//---------------dance-single - ----------------
#NOTEDATA:;
#CHARTNAME:;
#STEPSTYPE:dance-single;
#DESCRIPTION:;
#CHARTSTYLE:;
#DIFFICULTY:Hard;
#METER:16;
#RADARVALUES:0.777409,0.843023,0.527132,0.387597,0.437984,702.000000,634.000000,68.000000,50.000000,0.000000,0.000000,0.000000,0.000000,0.000000,0.777409,0.843023,0.527132,0.387597,0.437984,702.000000,634.000000,68.000000,50.000000,0.000000,0.000000,0.000000,0.000000,0.000000;
#CREDIT:;
#NOTES:
0000
0000
0000
0000
,
0000
0000
0000
0000
,
0000
0000
0000
0000
0000
0000
0000
0000
0001
0000
1000
0100
1000
0000
0010
0100
,
0010
0000
0000
0000
0000
0000
0000
0000
0100
0000
0000
0000
0010
0000
0000
0000
0100
0000
0000
0000
0010
0000
0000
0000
0110
0000
0000
0000
0000
0000
0000
0000
0000
0010
0000
0000
1000
0000
0000
0000
0000
0000
0001
0000
0000
0000
0000
0000
,
0101
0000
0001
0010
0001
0010
0100
1000
0001
0000
0100
0010
0100
0000
0001
0010
,
0001
0000
2000
0000
3000
0000
1000
0000
0100
0000
0001
0100
0001
0000
0100
0000
,
2000
0000
3000
0100
0010
0000
0001
0000
1000
0000
0100
1000
0100
0000
0010
0001
,
0010
0000
0200
0000
0300
0000
1000
0000
1001
0000
0100
0000
1000
0000
0100
0010
,
0100
0000
0010
0001
0010
0100
0010
0001
1001
0000
0000
0110
0000
0000
2002
0000
,
0000
0000
3003
0000
0110
0000
1000
0100
1000
0100
2000
0000
0000
0000
0000
0000
,
3000
0000
0110
0000
0010
0010
0000
1000
,
0100
0010
0001
0001
0010
0100
1000
0000
,
0010
0000
0100
0010
0100
0000
0000
0000
0001
0000
1000
0000
0000
0000
1000
0000
,
0100
0010
0100
0010
0100
1000
0001
0000
,
0101
0000
0000
0100
0010
0000
0100
0000
0110
0000
0110
0000
0000
0000
0010
0000
,
1000
0010
0100
0010
1000
0001
0100
0000
,
0010
0000
0100
0010
0200
0000
0320
0000
,
0130
0000
0001
1000
0001
1000
0010
0000
,
0110
0000
0000
0100
0001
0000
0100
0000
0110
0000
0000
0000
0110
0000
0001
0000
,
0101
0000
0000
0000
0010
0000
1000
0000
1001
0000
0000
0100
0010
0000
0100
0000
,
0110
0000
0000
0000
0001
0000
0000
0000
1001
0000
0001
0000
0100
0000
0000
0010
,
0100
0010
1000
2020
0000
0000
3000
0000
,
1030
0000
0001
0000
1000
0100
0001
0100
,
0010
0000
0001
0000
0100
0010
0110
1000
,
1001
0000
1000
0010
1000
0000
0000
0000
0011
0000
0001
0000
0001
0000
1000
0000
,
0100
0010
0001
0000
0001
0010
0100
1000
,
0010
0000
1000
0100
1000
0000
0010
0000
1010
0000
0100
0010
0100
0000
0010
0000
,
0110
0000
0001
0010
0001
0000
0010
0000
0011
0000
0001
0000
1000
0000
0001
0000
,
0100
0000
0100
0010
0200
0000
0301
0001
,
0100
0010
0100
0002
0003
0100
0020
0000
,
0030
0000
0010
1000
0110
0010
0001
0010
,
0110
0000
1000
0100
0011
0000
0100
1000
,
0010
0000
0000
0100
0001
0000
1000
0000
0010
0000
0001
0000
0010
0000
1000
0000
,
0002
0000
0203
0000
0320
0000
0030
0000
1000
0000
0000
0010
1000
0000
0001
0000
,
0101
0000
0000
0000
0001
0100
0001
0000
0101
0000
0001
0000
0001
0000
1000
0000
,
0110
0000
0010
0100
0110
0000
0001
0100
,
0001
0010
0001
0010
0100
1000
0100
0000
,
2000
0000
3200
0000
0320
0000
0030
0000
0001
0000
0000
0100
0001
0000
0100
0000
,
0101
0000
0001
0010
0001
0000
0000
0000
1000
0100
0000
0010
0000
0100
0010
0000
,
0001
0000
0001
0000
0010
0000
0001
0000
0010
0001
0000
0010
0000
0100
0010
0000
,
0001
0000
0100
0010
0100
0000
0000
0000
0001
0000
0100
0010
0100
0010
1000
0000
,
0001
0010
0100
0100
1100
0000
0010
1000
,
0020
0000
0030
0000
0200
0000
0300
0000
0010
0100
0000
0001
0000
0100
0010
0000
,
0100
0000
0010
0000
1010
0000
1000
0000
0001
0100
0000
0001
0000
0001
0100
0000
,
0010
0000
0200
0000
0000
0000
0300
0000
0001
0010
0000
0110
0000
1000
0100
0000
,
0110
0001
0010
1000
0010
0100
0020
0000
,
0130
1000
0002
0000
0103
1000
0200
0000
,
0310
1000
0002
0000
0103
1000
0200
0000
,
0301
0010
0002
0000
0013
1000
0020
0000
,
0130
0000
0000
0000
0100
0000
0000
0000
0010
0000
0000
0000
0010
0000
0000
0010
0000
0000
0001
0000
0000
1000
0000
0000
,
0100
0000
1000
0100
0000
0100
0010
0000
0001
0010
0001
0010
0001
0000
1000
0000
,
0100
0000
0010
0100
0000
0001
0100
0000
0010
0001
0100
0001
0100
0000
0010
0000
,
1000
0000
0001
0100
0000
0010
1000
0000
0001
0100
0010
0100
0001
0000
1000
0000
,
1010
0000
0001
1000
0000
0001
1000
0000
0002
0000
0000
0000
0003
0000
0220
0000
,
0000
0000
0330
0000
0100
0010
0100
0010
2000
0000
0000
0000
3001
0000
0010
0100
,
0010
0000
0100
0010
0200
0000
0000
0000
0000
0000
0000
0000
0000
0000
0000
0000
,
0300
0000
0000
0000
0000
0000
0000
0000
1000
0000
0000
0000
0000
0000
0100
0010
,
1000
0000
0010
0000
0110
1000
0001
0100
,
0001
0100
1000
0100
0001
0010
0001
0010
,
0100
1000
0010
0000
0100
0020
0030
0100
,
0110
0010
0010
0000
1000
0001
1000
0001
,
0100
0000
0000
0000
0100
0000
0001
0000
0100
0001
0100
0001
0100
0000
0001
0000
,
1000
0100
1000
0100
1000
0000
0001
0000
0100
0000
0001
0010
0001
0000
0010
0000
,
0100
1000
0100
0000
0010
0000
0001
0100
0020
0000
0000
0000
1030
0000
1100
0000
,
0000
0000
0100
0000
0010
0000
0011
0000
0000
0000
0001
0000
1001
0000
0100
1000
,
0100
1000
0010
0100
0002
0003
1000
0001
,
0100
0010
1000
0001
1001
0100
0101
0000
,
0202
0303
0100
0010
1010
1000
1000
0010
,
0100
0000
0001
0010
0001
0000
0010
0000
0100
0000
0000
0000
0100
0000
1000
0000
,
0010
0000
0000
1000
0001
0000
0100
0000
0010
0000
0100
0000
0110
0000
0010
0000
,
0200
0000
0320
0000
0230
0000
0300
0000
0001
0000
0000
1000
0010
0000
1000
0000
,
0010
0000
0000
0000
1000
0100
0010
0000
0110
0000
0010
0000
0001
0000
1000
0010
,
1000
0001
0010
0100
1000
0001
0100
1000
,
0100
0001
0010
0100
0010
0001
1001
0001
,
0200
0000
0302
0000
0203
0000
0300
0000
0010
0000
0000
0100
0010
0000
0100
0000
,
0010
0000
1000
0100
2000
0000
0000
0000
3010
0100
0010
0100
0010
0000
0010
0000
,
0100
0000
0001
0000
0010
0000
0100
0000
1000
0001
0000
0101
0000
0001
0100
0000
,
0110
0000
2000
0000
0000
0000
3000
0000
0001
0000
1000
0001
0100
0001
1000
0000
,
0110
0000
0001
0010
0001
0000
1000
0000
1001
0000
0010
0000
0010
0000
0000
0000
,
1100
0000
0010
0000
0001
0000
0000
0000
1000
0100
0000
0010
0000
0001
1000
0000
,
0100
0000
0010
0000
0110
0000
0001
0000
0010
0100
0000
0010
0000
0100
1000
0000
,
0100
0000
0010
0001
0100
0000
0000
0000
0010
0100
0000
0110
0000
1000
0010
0000
,
1010
0000
0001
0000
1001
0000
0001
0000
0101
0000
0000
0101
0000
0000
0120
0000
,
0000
0000
0030
0000
1010
0000
1000
0100
1000
0010
0200
0000
0000
0000
0000
0000
,
0300
0000
0001
0000
0100
0110
0000
0010
,
0100
0010
1000
0000
0001
0000
0010
0000
1001
0000
0001
0000
0101
0000
0010
0000
,
1010
0000
1000
0000
0100
0010
0100
0000
0020
0000
0000
0000
0000
0000
0000
0000
,
0030
0000
0000
0000
;
