#VERSION:0.83;
#TITLE:KARAKARA;
#SUBTITLE:;
#ARTIST:sei☆shin×KEN;
#TITLETRANSLIT:;
#SUBTITLETRANSLIT:;
#ARTISTTRANSLIT:sei shinXKEN;
#GENRE:;
#ORIGIN:;
#CREDIT:;
#BANNER:LT_KARAKARA.png;
#BACKGROUND:;
#PREVIEWVID:;
#JACKET:;
#CDIMAGE:;
#DISCIMAGE:;
#LYRICSPATH:;
#CDTITLE:;
#MUSIC:KARAKARA.ogg;
#OFFSET:-0.249000;
#SAMPLESTART:17.951000;
#SAMPLELENGTH:18.000000;
#SELECTABLE:YES;
#BPMS:0.000=188.000;
#STOPS:;
#DELAYS:;
#WARPS:;
#TIMESIGNATURES:0.000=4=4;
#TICKCOUNTS:0.000=4;
#COMBOS:0.000=1;
#SPEEDS:0.000=1.000=0.000=0;
#SCROLLS:0.000=1.000;
#FAKES:;
#LABELS:0.000=Song Start;
#BGCHANGES:;
#KEYSOUNDS:;
#ATTACKS:
;

//---------------dance-single - ----------------
#NOTEDATA:;
#CHARTNAME:;
#STEPSTYPE:dance-single;
#DESCRIPTION:;
#CHARTSTYLE:;
#DIFFICULTY:Beginner;
#METER:6;
#RADARVALUES:0.286991,0.333495,0.187827,0.179661,0.000000,246.000000,223.000000,23.000000,22.000000,0.000000,0.000000,0.000000,0.000000,0.000000,0.286991,0.333495,0.187827,0.179661,0.000000,246.000000,223.000000,23.000000,22.000000,0.000000,0.000000,0.000000,0.000000,0.000000;
#CREDIT:;
#NOTES:
// measure 0
0000
0000
0000
0000
,  // measure 1
0000
0000
0000
0000
,  // measure 2
0000
0000
0000
1000
,  // measure 3
0000
0001
0101
0000
,  // measure 4
0001
2000
3000
0010
,  // measure 5
0000
0100
0110
0000
,  // measure 6
0001
0000
0000
0000
0000
1000
0000
0000
,  // measure 7
0000
0001
0000
0000
0000
0100
0000
0000
,  // measure 8
0000
0010
0000
0000
0000
1000
0000
0000
,  // measure 9
0001
0000
0000
0000
0200
0000
0000
0300
,  // measure 10
0000
0010
0100
0000
,  // measure 11
0000
0110
0000
0000
0000
1000
0000
0000
,  // measure 12
0001
0100
0010
1000
,  // measure 13
0000
0001
0000
0100
,  // measure 14
0010
0000
0100
0000
0000
0110
0000
0000
,  // measure 15
0000
0101
0000
0000
0000
1010
0000
0000
,  // measure 16
0000
1001
0000
0000
0000
0000
0001
0000
,  // measure 17
0000
0100
0000
0000
0002
0000
0000
0000
,  // measure 18
0003
1000
0010
0100
,  // measure 19
0010
0000
0100
0000
,  // measure 20
0010
0000
0100
0001
,  // measure 21
0010
0001
0000
2000
,  // measure 22
0000
0000
0000
3000
0000
0000
0001
0000
,  // measure 23
0100
0000
0100
0010
,  // measure 24
1000
0000
0001
0100
,  // measure 25
0010
0000
0100
0100
,  // measure 26
0001
0001
0000
1000
,  // measure 27
0010
0000
0100
0001
,  // measure 28
0100
0000
0010
1000
,  // measure 29
0010
0100
0010
0200
,  // measure 30
0000
0302
0003
1001
,  // measure 31
0000
1000
0010
0100
,  // measure 32
0001
1001
0000
0002
,  // measure 33
0000
0103
0010
1000
,  // measure 34
0001
0100
0000
0001
,  // measure 35
0001
1000
1000
0000
,  // measure 36
0010
0100
0000
0101
,  // measure 37
0000
0110
0000
1000
,  // measure 38
0000
0110
0000
0011
,  // measure 39
0000
0001
1000
0001
,  // measure 40
0000
1000
0010
1000
,  // measure 41
0000
0001
0100
1000
,  // measure 42
0100
0001
0000
1000
,  // measure 43
0100
0010
0001
1000
,  // measure 44
0001
1001
0000
0010
,  // measure 45
0000
0020
0030
0100
,  // measure 46
0000
0200
0300
0001
,  // measure 47
0000
0010
0100
0001
,  // measure 48
0000
0101
0000
0001
,  // measure 49
0000
1000
0100
0001
,  // measure 50
0000
0100
0000
0110
,  // measure 51
0000
0001
1000
0010
,  // measure 52
0000
1000
0010
0100
,  // measure 53
0000
0000
0110
0000
0000
0220
0000
0000
,  // measure 54
0330
0000
0000
0000
,  // measure 55
0000
0000
0000
0000
0000
0001
0000
0000
,  // measure 56
0000
1000
0000
0000
0000
0100
0000
0000
,  // measure 57
0000
1000
0000
0000
0000
0000
0001
0000
,  // measure 58
0000
0100
0000
0000
0200
0000
0000
0000
,  // measure 59
0300
0000
0010
0000
0000
0100
0000
0000
,  // measure 60
0000
0010
0000
0000
0000
0100
0000
0000
,  // measure 61
0001
1000
0000
1001
,  // measure 62
0000
0010
0000
1000
,  // measure 63
0001
0010
0100
1000
,  // measure 64
0000
0001
0000
0000
0000
0100
0000
0000
,  // measure 65
0000
0010
0000
0000
0000
1000
0000
0000
,  // measure 66
0000
0001
0000
0000
0002
0000
0000
0000
,  // measure 67
0003
0100
1000
0001
,  // measure 68
0000
1000
0001
1000
,  // measure 69
0000
0001
0100
0020
,  // measure 70
0030
2000
3000
0002
,  // measure 71
0003
1000
0001
0100
,  // measure 72
0000
0100
0100
0100
,  // measure 73
0000
0010
0010
0020
,  // measure 74
0000
0030
0000
1000
,  // measure 75
0100
0010
0000
0010
,  // measure 76
0001
1000
0000
0001
,  // measure 77
0100
0010
0000
0001
,  // measure 78
0010
0100
0000
1000
,  // measure 79
0010
0100
0000
0010
,  // measure 80
0100
0001
0000
0001
,  // measure 81
1000
0100
0000
0001
,  // measure 82
0100
0001
1000
0020
,  // measure 83
0000
0130
0000
0101
,  // measure 84
0000
0101
0000
2000
,  // measure 85
0000
3000
0002
0000
,  // measure 86
0003
0000
0000
0010
,  // measure 87
0100
0010
0000
1000
,  // measure 88
0100
0010
0000
0001
,  // measure 89
0000
1001
0000
0000
0220
0000
0000
0000
,  // measure 90
0330
0001
0010
0100
;

//---------------dance-single - ----------------
#NOTEDATA:;
#CHARTNAME:;
#STEPSTYPE:dance-single;
#DESCRIPTION:;
#CHARTSTYLE:;
#DIFFICULTY:Easy;
#METER:10;
#RADARVALUES:0.467818,0.592064,0.302157,0.326656,0.000000,401.000000,364.000000,37.000000,40.000000,0.000000,0.000000,0.000000,0.000000,0.000000,0.467818,0.592064,0.302157,0.326656,0.000000,401.000000,364.000000,37.000000,40.000000,0.000000,0.000000,0.000000,0.000000,0.000000;
#CREDIT:;
#NOTES:
0000
0000
0000
0000
,
0000
0000
0000
0000
,
0000
0000
0000
0000
0000
0000
1000
0001
,
0000
0000
0001
0000
0100
0010
0000
0000
,
1000
0000
0010
0200
0000
0000
0301
0001
,
0000
0000
0100
0000
0010
0100
0000
0001
,
0000
1000
0010
0000
0010
1000
0000
1010
,
0000
0001
0000
0101
0000
0010
0000
0110
,
0000
1000
0000
1001
0000
0001
0100
0001
,
0000
0100
0000
0010
0200
0000
0300
0000
,
0010
0000
2000
0000
3010
0100
0000
0010
,
0000
1000
0000
0001
0200
0000
0300
0000
,
1001
0000
0010
0000
1001
0000
0010
0001
,
0000
1000
0000
0001
0200
0000
0300
0010
,
0010
0000
0100
0000
0000
0110
0000
1001
,
0000
0100
0000
1001
0000
0010
0000
1001
,
0000
0010
0000
1100
0000
1000
0000
1001
,
0000
0010
0000
0010
0200
0000
0300
0000
,
0000
0000
1000
0000
0001
0100
0000
0010
,
0000
1000
0000
1000
0200
0000
0300
0000
,
0010
0001
0100
0020
,
0000
0230
0000
0301
,
1000
0001
0000
0101
,
0001
0000
1000
0100
0010
0000
0001
0000
,
0100
0000
0010
0100
1000
0000
0100
0000
,
0001
0000
1000
0010
1000
0000
0001
0000
,
0100
0000
0100
0010
0100
0000
0001
0000
,
1000
0010
0100
0000
0001
0000
1000
0000
,
0010
1000
0010
0000
0100
0000
0001
0000
,
1000
1100
0110
0011
,
2000
0002
3000
0103
,
0000
0000
0010
0000
0000
0100
0000
0001
,
0100
0010
0000
1000
0010
0000
1001
0000
,
0001
1000
0000
0001
0000
0200
0000
0010
,
0000
0300
0000
0010
0100
0000
0210
0000
,
0300
0001
0000
1000
0002
0000
0003
0000
,
0100
0000
0000
0010
0100
0000
0100
0010
,
0000
2000
0000
0001
3001
0000
0000
0000
,
0001
0000
1000
0010
,
0100
0001
0100
0001
0100
0000
0010
0000
,
1000
1001
0001
0201
,
0000
0001
0300
0000
0100
0000
0010
0000
,
1000
0001
1000
0000
0001
0000
1000
0000
,
0100
0010
0001
0000
0001
0000
0010
0100
,
1000
0010
0100
0002
,
0003
0100
0100
0001
,
0101
0100
0100
0010
,
0000
0100
0000
0000
0010
0200
0000
0000
,
0301
0001
0000
0000
0000
1000
0001
0000
,
0000
0001
1000
0000
0000
0010
0000
0000
,
0000
0100
0010
0000
0200
0000
0310
0000
,
0001
0000
1000
0000
0010
1000
0000
0001
,
0100
0001
0000
0000
0100
0000
0220
0000
,
0000
0000
0330
0000
0000
0120
0000
0000
,
0000
0030
0100
0000
0000
2000
0000
3000
,
0000
0000
0001
0000
0000
1001
0000
1100
,
0000
1100
0000
1001
0000
0100
0000
0001
,
0000
0100
0000
0001
0000
1000
0010
1000
,
0000
0001
0000
0100
0002
0000
0003
0000
,
0100
0000
0010
0000
0100
0001
0000
1000
,
0000
1000
0000
0001
0100
0010
0000
0000
,
0100
0100
0100
0110
,
0000
0010
0000
1000
0010
0000
0000
1000
,
0001
0000
0200
0000
0310
0010
0000
0110
,
0000
0101
0000
1010
0000
0101
0000
0101
,
0000
1010
0000
1100
0000
0000
0001
0100
,
0000
0100
0000
0010
0100
0020
0000
0000
,
0130
0000
0020
0000
1030
1000
0000
1001
,
0000
0001
0000
0100
0020
0000
0030
0000
,
1000
0000
0100
0000
0010
0001
1000
0000
,
0001
0000
0010
0001
0010
0000
0100
1000
,
0100
0000
0010
0001
1000
0000
0002
0000
,
0000
0100
0003
0100
0000
0010
0000
0000
,
1000
1000
0000
0001
0100
0000
0002
0000
,
0000
0000
1003
0000
0001
0000
1000
0010
,
0000
0100
0000
0001
0000
1000
0010
1000
,
0001
1000
0001
0000
0001
0000
0100
0010
,
0000
0100
0000
0001
0000
1000
0001
0100
,
0010
1000
0001
0000
1000
0000
0001
1000
,
0000
0010
0000
0100
0000
0001
1000
0010
,
0100
0001
1000
0001
1000
0000
0002
0000
,
0003
0200
0300
0010
,
0100
0000
0001
1000
0001
1000
0002
0000
,
0003
0200
0300
0020
,
0030
2002
3003
0000
,
1000
0100
0020
0031
,
0200
0310
1000
0001
,
1000
0000
0010
0000
0100
0000
0001
0001
,
0001
0000
1000
1000
1000
0000
0002
0000
,
0003
0100
0100
0000
0010
0010
0000
0100
,
0001
0000
1000
0001
1000
0010
0000
0000
;

//---------------dance-single - ----------------
#NOTEDATA:;
#CHARTNAME:;
#STEPSTYPE:dance-single;
#DESCRIPTION:;
#CHARTSTYLE:;
#DIFFICULTY:Medium;
#METER:14;
#RADARVALUES:0.715143,0.777084,0.334822,0.236826,0.142912,613.000000,572.000000,41.000000,29.000000,0.000000,0.000000,0.000000,0.000000,0.000000,0.715143,0.777084,0.334822,0.236826,0.142912,613.000000,572.000000,41.000000,29.000000,0.000000,0.000000,0.000000,0.000000,0.000000;
#CREDIT:;
#NOTES:
0000
0000
0000
0000
,
0000
0000
0000
0000
,
0000
0000
0000
0000
0000
0000
1000
0001
,
0000
0100
0010
0100
0010
0110
0000
0001
,
0001
1000
1000
0020
0000
0030
0100
0110
,
0000
0010
0001
1000
0100
0010
0000
0001
,
0000
1000
0010
0000
0100
0020
0000
0230
,
0000
0301
0000
1000
0000
0010
1000
0001
,
0000
1000
0100
0010
0000
0001
0010
0100
,
1000
2000
0000
3100
0010
0001
0000
0001
,
0100
0010
0100
0010
0100
0010
0000
0100
,
0000
0010
0000
1000
0001
1000
0000
0001
,
0100
0000
0000
0001
0100
0000
0000
0000
0010
0000
1000
0000
0010
0000
0100
0000
,
0000
0001
0000
1000
1100
0000
0000
1000
,
0100
0000
0010
0001
0010
0001
0010
0001
0010
0000
0001
0000
0000
0000
2000
0000
,
0000
3020
0000
0130
0000
0002
0000
1003
,
0000
1000
0100
0010
0001
0010
0001
1000
,
0000
0010
0100
0010
0200
0010
0300
0000
,
0010
1000
0001
0001
0001
1000
0000
1000
,
0010
0100
0000
0100
0001
1000
0000
0100
,
1000
0000
0001
0000
0100
0000
0010
0000
0100
0000
0001
1000
0001
0000
1000
0000
,
0000
0002
0000
0000
0003
0100
0010
0000
,
0200
0300
0002
0003
2000
3000
1001
0000
,
0001
0010
0100
1000
0100
0000
0010
0001
,
0010
1000
0010
0001
0100
0010
0110
1000
,
0100
0001
0100
1000
0010
0001
1000
0100
,
0001
1000
1010
0101
,
0001
0000
1000
0100
1000
0000
0001
0000
0100
0000
0010
0100
0010
0000
0100
0000
,
0001
0100
1000
0100
0001
1000
0001
0100
,
0001
0100
0001
1000
0010
1000
0010
0100
,
0001
0100
0001
2000
0010
0000
3020
0000
,
0130
0000
0001
1000
0010
0100
0000
0010
,
0010
0100
0000
0001
1000
0001
1000
0000
,
0010
0100
0000
0101
0000
1000
0000
1002
,
0000
0000
1003
0010
0100
0000
0210
0000
,
0301
1000
0001
1000
0020
0000
0130
0000
,
0010
1000
0001
1000
0100
0010
0011
0011
,
0000
1100
1100
0000
0110
0110
0000
0001
,
0000
1000
0102
0000
0103
0000
0100
0000
,
0110
1000
0010
0100
0001
1000
1001
0000
,
0010
0000
0100
0010
0100
0000
0000
0000
0002
0000
0003
0000
0100
0000
0010
0100
,
0010
0000
1000
0000
0001
1000
0001
0000
0100
0000
0000
0000
0010
0000
0100
0000
,
0001
0000
1000
0100
0010
0000
0000
0000
0011
0000
0000
0000
1000
0000
0100
1000
,
0100
0000
0010
0000
0001
0010
0001
0000
1000
0000
0000
0000
0001
0000
0100
0000
,
0101
0000
1010
0000
0100
0000
0001
0001
,
0001
0000
0000
0000
1000
0000
0100
0000
1000
0000
0000
0001
0100
0000
0001
0000
,
0010
1000
0020
0030
0001
0001
1001
0000
,
0100
0010
0000
0100
0101
0101
0000
0000
,
0001
1000
0000
0010
0100
0001
0101
0000
,
1010
0010
0100
0001
0000
1000
0010
0000
,
0100
0100
0010
0000
2000
3000
0002
0000
,
0003
0100
0000
0010
0100
0010
0000
0010
,
1000
0010
0000
0000
0100
0000
0101
0000
,
1010
0000
0001
0100
0000
0202
0000
0303
,
0100
0000
0001
0101
0000
0101
0000
0001
,
1000
0001
1000
0000
0001
0100
0000
0100
,
0000
0010
1000
0010
0000
0100
0001
0100
,
0000
0001
1000
0001
1000
0100
0010
0001
,
0100
0010
0000
0100
0220
0000
0330
0000
,
0010
0000
1000
1000
1000
0001
0100
0001
,
0000
1000
0010
0100
0001
0000
0101
0000
,
0100
0000
0000
0010
0100
0000
0001
0000
0100
0000
0010
0000
1000
0000
0001
0100
,
0001
0000
1000
0000
0010
0000
1000
0100
1000
0000
0001
0000
0000
0000
0100
0000
,
0010
0100
0001
0000
0001
1001
0000
1100
,
0000
0010
0000
0011
0000
0100
0010
1000
,
0000
0001
0100
0010
0100
0010
1000
0001
,
0000
1000
0000
0001
0101
0101
0000
0000
,
0001
0100
0010
0010
0100
0010
0000
1000
,
0010
0100
0001
0001
0100
0000
0010
1000
,
0001
1000
0001
0000
0100
0010
0100
0010
,
0000
0010
0000
1000
0001
1000
0100
0010
,
0001
0000
1000
0000
0010
0100
0010
0100
,
0000
0010
0000
0100
0000
0101
0000
0000
,
0001
0000
0001
0000
0000
0000
1000
0000
0100
0000
0010
0000
0001
0000
0000
0100
,
0000
0000
0020
0000
0000
0000
0030
0100
0000
0000
0000
0000
0010
0000
1000
0000
,
0001
0000
1000
0100
1000
0000
0001
0000
0100
0000
0010
0100
0001
0000
1000
0000
,
0010
0100
0001
1000
0100
0000
0010
0001
,
1000
0000
0010
0100
0010
0000
1000
0000
0001
0000
0100
0010
0100
0000
0001
0000
,
1000
0010
0001
0010
0100
0000
0001
1000
,
0010
0000
0100
0001
0100
0000
0001
0000
0100
0000
0010
1000
0010
0000
0100
0000
,
0001
0100
1000
0100
0010
0000
0100
0001
,
1000
0000
0001
0010
0001
0000
1000
0000
0001
0000
0010
0001
0010
0000
0001
0000
,
0010
0100
1000
0001
0100
0000
0210
0000
,
0010
0000
0310
0010
0010
0100
0100
0001
,
0001
1000
0100
0010
0002
0000
0100
0000
,
1003
1000
1000
0001
0001
0100
0100
0010
,
0010
1000
1000
0001
0001
0100
0010
0000
,
0100
0000
0010
0100
0010
0000
0000
0000
1000
0000
0001
0000
0100
0000
0001
0100
,
0001
0000
1000
0000
0010
0000
1000
0100
1000
0000
0000
0000
0001
0000
0010
0001
,
0010
0000
0001
0000
0010
0001
0010
0000
0001
0000
1000
0100
1000
0000
0100
0000
,
1000
0100
1000
0000
0010
0000
0100
0010
1000
0000
0001
0000
0000
0000
0000
0000
;

//---------------dance-single - ----------------
#NOTEDATA:;
#CHARTNAME:;
#STEPSTYPE:dance-single;
#DESCRIPTION:;
#CHARTSTYLE:;
#DIFFICULTY:Hard;
#METER:18;
#RADARVALUES:1.014967,1.147124,0.530816,0.171494,0.743142,870.000000,805.000000,65.000000,21.000000,0.000000,0.000000,0.000000,0.000000,0.000000,1.014967,1.147124,0.530816,0.171494,0.743142,870.000000,805.000000,65.000000,21.000000,0.000000,0.000000,0.000000,0.000000,0.000000;
#CREDIT:;
#NOTES:
0000
0000
0000
0000
,
0000
0000
0000
0000
,
0000
0000
0000
0000
0000
0000
1000
1001
,
0000
0001
0010
0100
1000
1100
0000
0010
,
0001
0010
0001
1000
0100
0000
0100
1000
,
0000
0001
0010
0100
0010
0100
0000
1100
,
0000
0010
0100
0000
0010
0101
0000
1000
,
0000
0000
0010
0000
0100
0000
0001
1000
0001
1000
0001
0000
0000
0000
0100
0000
,
0010
0100
0000
0010
0100
0110
0000
0010
,
1000
0000
0001
0000
0100
0000
0001
0000
1000
0000
1100
0000
0000
0000
1000
0100
,
0010
0001
1000
0001
1001
1001
0000
0010
,
0100
0010
0100
0000
0001
0000
1000
0000
0010
0000
0200
0000
0300
0000
0010
0000
,
0100
0000
0000
0000
1001
0000
0000
0000
0100
0000
0010
0000
1000
0100
1000
0100
,
1000
0000
0001
0000
0010
0001
0010
0001
0010
0000
0001
0000
0000
0000
0100
0000
,
0010
1000
0100
0000
0010
0001
0010
0100
0010
0100
1000
0000
0000
0000
0001
0000
,
0100
0010
0100
0000
0010
0000
1000
0001
0100
0001
0100
0000
0000
0000
0010
0000
,
1000
0100
0010
0000
0001
0000
1000
0000
0100
0000
0011
0000
0000
0000
0001
0000
,
1000
0000
0010
0000
0010
0000
1000
0000
0100
0000
0110
0000
0000
0000
0100
0010
,
0001
1000
0020
0100
0130
0110
0000
0001
,
0100
0010
1010
1010
0100
0001
0100
0000
,
0001
0000
1000
0010
1000
0000
0001
0000
0100
0000
0001
0000
0100
0001
0100
0001
,
0100
0002
1003
0100
,
0010
0001
1000
1010
,
0001
0100
0010
0100
0001
0000
1000
0000
0010
0000
1000
0100
0010
0000
0001
0000
,
0100
0000
1000
0000
0100
0000
0001
0000
1000
0010
0100
0000
0001
0000
0100
0010
,
0100
0001
1000
0010
0100
0000
0001
0000
1000
0000
0001
0010
0100
0000
1000
0100
,
0010
0000
0001
0100
0001
0000
1000
0000
0100
0000
0001
0000
0100
0000
1000
0010
,
1000
0001
0100
0001
0100
0000
0010
0000
1000
0000
0001
0100
0001
0000
1000
0000
,
0010
0000
0100
0000
0001
0000
1000
0000
1000
0000
0001
0000
0001
0000
0100
0010
,
0100
0010
0100
0010
0100
0000
0001
0000
0100
0001
1000
0001
1000
0000
0100
0010
,
0001
0010
0100
0000
1000
0000
0200
0000
0000
0000
0000
0000
1300
0000
0010
0000
,
0100
0001
0001
1000
0000
0010
0000
0100
,
0010
0110
0000
0001
1000
0001
1001
1001
,
0000
1100
0010
0011
0011
0001
0000
0100
,
0010
0000
0000
0000
1000
0000
0001
0100
0001
0000
1000
0000
0010
0000
0100
0000
,
0001
0000
0101
0000
0010
0000
1000
0100
1000
0100
1000
0000
0001
0000
0001
0000
,
0100
0010
0100
0000
0110
0000
0010
0100
0001
0000
1000
0000
1100
0000
1100
0000
,
0000
0001
0010
0001
1000
1100
0000
0110
,
0110
0000
0000
0000
0020
0000
0000
0030
0100
0010
0100
0010
1000
0000
0001
0000
,
1000
0000
1000
0000
1100
0000
0010
0000
0001
0000
0100
0010
0100
0000
0001
0000
,
1000
0000
0001
0100
0001
0100
0010
0000
1000
0000
0100
0000
0010
0001
0010
0100
,
1000
0000
0001
0100
0010
0100
0001
0000
1000
0000
0010
0000
1000
0000
0002
0000
,
0103
0000
0010
0100
0010
0000
1000
0000
0001
1000
0001
0000
1000
0100
0010
0001
,
1000
0000
0001
0010
0100
0000
1000
0000
1100
0000
0000
0000
0011
0000
0001
0000
,
0100
0000
0010
0100
0010
0000
1000
0000
0001
0000
0000
0000
1001
0000
0001
0000
,
0100
0000
0110
0000
0110
0000
0010
1000
0010
0000
0100
0000
0001
1000
0010
0100
,
0001
0000
1000
0000
0001
0000
0000
0000
0101
0000
0101
0000
0101
0000
0001
1000
,
0001
1000
0010
0100
0001
1100
0000
0100
,
0110
0000
0000
0001
0010
0000
0100
0000
1000
0000
0010
0000
0200
0000
0000
0000
,
0302
2003
3020
0230
0300
0010
0000
0100
,
0001
0000
1000
0000
0001
0000
0100
0000
0001
0100
0001
0000
0200
0000
0000
0000
,
0010
0310
0010
1000
0001
1001
0000
0001
,
0100
0001
0100
0000
0010
1000
0010
0000
1000
0000
0101
0000
0101
0000
0000
0000
,
1000
0010
0100
0010
1000
0000
0001
0100
0010
0100
0002
0000
1003
0000
0010
0000
,
0100
0000
0110
0220
0330
0101
0000
0001
,
1000
0000
0100
0000
0010
0011
0000
0100
,
0001
0000
0100
0010
1000
0010
0100
0001
1000
0001
0100
0010
1000
0100
1000
0001
,
0100
0000
0010
0100
0010
0100
0010
1000
0100
0010
0100
1000
0001
0010
0100
0010
,
0001
0000
0001
0000
1000
0100
0010
0100
1000
0000
0002
0000
0003
0000
0100
0010
,
0100
0000
0001
1000
0001
0000
1000
0000
1001
0000
1001
0000
0001
0000
0010
0000
,
0100
0000
0010
0000
0001
0000
1000
0000
0100
0010
0001
1000
0100
0010
0001
0000
,
1000
0000
0010
0100
0001
0000
0000
0000
1000
0000
1001
0000
1001
0000
0001
0000
,
0000
0000
0100
0000
0010
0100
0010
0000
0100
0010
0100
0000
0001
0000
1000
0000
,
1001
0000
1001
0000
0100
0010
0100
0010
1000
0001
0100
0000
0000
0000
0001
0000
,
1000
0000
0001
0010
0100
0010
0001
1000
0100
0010
0100
0000
0000
0000
1000
0000
,
0001
0000
1000
0100
0010
0100
0010
0001
1000
0000
1000
0000
0000
0000
1100
0000
,
0100
0000
0010
0000
0001
0010
0001
0000
0010
0000
0100
0000
0000
0000
1000
0100
,
0010
0100
0010
0000
0001
1000
0001
0010
0100
1000
0100
0000
0000
0000
0011
0000
,
0100
0110
0000
1000
0010
1010
0000
0001
,
0100
0000
0001
0100
0001
0000
1000
0010
1000
0000
0001
0000
0100
0000
0020
0000
,
0030
0000
0100
0000
0110
0000
0010
0000
0101
0000
0001
0000
0100
0000
0010
0100
,
0010
0100
0001
0000
1000
0000
0100
1000
0010
0100
0001
0000
1000
0000
0002
0000
,
0000
0003
0100
0001
0100
0000
0010
0100
0010
0000
0000
0000
1100
0000
1001
0000
,
0000
0000
0100
0000
0000
0000
0010
0000
0100
0000
0001
0100
0002
0000
0000
0000
,
0003
0000
1000
0000
0000
0000
0000
0011
0000
0000
0001
0000
2000
0000
3010
0000
,
0100
0010
1000
0001
0100
0010
0100
0000
0001
0000
1000
0100
0010
0000
0001
0000
,
0010
0000
1000
0000
0010
0000
0001
0000
1000
0010
1000
0000
0001
0000
0100
0000
,
0010
0100
0001
1000
0001
0000
0100
0000
0001
0000
1000
0001
0100
0000
0001
0100
,
0010
0100
0010
0000
1000
0100
0010
0001
1000
0000
0001
0000
1000
0000
0001
0000
,
1000
0001
0010
0100
1000
0100
0010
0001
1000
0000
0010
0100
0010
0100
0001
0000
,
1000
0000
0010
1000
0001
1000
0001
0000
0100
0000
0020
0000
0130
0000
0010
0000
,
1000
0010
0100
0001
1000
0001
0100
0010
0100
0001
1000
0100
1000
0100
0010
0000
,
0001
1000
0001
1000
0001
1000
1001
0001
,
0100
0001
0010
0001
0100
0001
1000
0001
0100
0010
1000
0100
1000
0001
0100
0010
,
1000
0000
0001
0000
0100
0000
0010
0000
1010
0000
0010
0000
0100
0001
0100
0001
,
1000
0010
1000
0001
0100
0010
0100
0001
0100
0000
0001
0000
1000
0000
1000
0000
,
0001
0000
0100
0000
0010
0000
0100
0010
0100
0000
0010
0100
0010
0000
1000
0000
,
0001
0100
0001
0100
0001
0100
0001
0000
1000
0000
0100
1000
0100
1000
0100
1000
,
0010
1000
0010
1000
0100
0000
1000
0000
0001
0000
0100
0000
0010
0100
0010
1000
,
0100
0000
1000
0100
0010
0001
0010
0000
0010
0100
1000
0100
1000
0000
1000
0100
,
0010
0100
0010
0000
0001
0000
0100
0000
1010
0000
1100
0000
0000
0000
0000
0000
;
