#TITLE:Just You Wait!;
#SUBTITLE:;
#ARTIST:heap;
#TITLETRANSLIT:;
#SUBTITLETRANSLIT:;
#ARTISTTRANSLIT:;
#GENRE:;
#CREDIT:;
#BANNER:heap - Just You Wait!.png;
#BACKGROUND:;
#LYRICSPATH:;
#CDTITLE:;
#MUSIC:heap - Just You Wait!.ogg;
#OFFSET:-0.275000;
#SAMPLESTART:23.351000;
#SAMPLELENGTH:12.000000;
#SELECTABLE:YES;
#BPMS:0.000000=130.000000
;
#STOPS:
;
#BGCHANGES:;
#KEYSOUNDS:;
#ATTACKS:;

//---------------dance-single - ----------------
#NOTES:
     dance-single:
     :
     Beginner:
     2:
     0.079731,0.179305,0.033320,0.000000,0.000000,67.000000,63.000000,4.000000,0.000000,0.000000,0.000000,0.079731,0.179305,0.033320,0.000000,0.000000,67.000000,63.000000,4.000000,0.000000,0.000000,0.000000:
0000
0000
0000
0000
,
0000
0000
0000
0000
,
0000
0000
0000
0000
,
0000
0000
0000
0000
,
0000
0000
0100
0000
,
0000
0000
0010
0000
,
0000
0000
0100
0000
,
0000
0000
0001
0000
,
0000
0000
1000
0000
,
0000
0000
0100
0000
,
0000
0000
0001
0000
,
0000
0000
1000
0000
,
0000
0000
0101
0000
,
0000
0000
0001
0000
,
0000
0000
1000
0000
,
0001
0000
1000
0000
,
0000
0000
0001
0000
,
0000
0000
0100
0000
,
0000
0000
0010
0000
,
0100
0000
0010
0000
,
0000
0000
0110
0000
,
0110
0000
0110
0000
,
0000
0000
0001
0000
,
0000
0000
1000
0000
,
0000
0000
0001
0000
,
0000
0000
0100
0000
,
0000
0000
0001
0000
,
0000
0000
0001
0000
,
0000
0000
1000
0000
,
0000
0000
0100
0000
,
0000
0000
0010
0000
,
0000
0000
0001
0000
,
1000
0000
0001
0000
,
0000
0000
0100
0000
,
0010
0000
0000
0000
,
0000
0000
0000
0000
,
0000
0000
0000
0000
,
0000
0000
0000
0000
,
0000
0000
0000
0000
,
0000
0000
0000
0000
,
0000
0000
0100
0000
,
0000
0000
0010
0000
,
0000
0000
0100
0000
,
0100
0000
0100
0000
,
0000
0000
0001
0000
,
0001
0000
0001
0000
,
0000
0000
1000
0000
,
1000
0000
0001
0000
,
0000
0000
1000
0000
,
0001
0000
0100
0000
,
0000
0000
0010
0000
,
0000
0000
0010
0000
,
0000
0000
0100
0000
,
0000
0000
0010
0000
,
0000
0000
0100
0000
,
0000
0000
0001
0000
,
0000
0000
1000
0000
,
0000
0000
0001
0000
,
1000
0000
0001
0000
,
0000
0000
1000
0000
,
0001
0000
1000
0000
,
0000
0000
0001
0000
;

//---------------dance-single - ----------------
#NOTES:
     dance-single:
     :
     Easy:
     4:
     0.180882,0.257191,0.133281,0.016660,0.000000,152.000000,136.000000,16.000000,2.000000,0.000000,0.000000,0.180882,0.257191,0.133281,0.016660,0.000000,152.000000,136.000000,16.000000,2.000000,0.000000,0.000000:
0000
0000
0000
0000
,
0000
0000
0000
0000
,
0000
0000
0000
0000
,
0000
0000
0000
0000
,
0000
0000
0100
0000
,
0100
0000
0010
0000
,
0100
0000
0100
0000
,
0001
0000
1000
0000
,
0010
0010
0010
0000
,
0100
0000
0001
0000
,
0100
0000
0010
0000
,
0010
0000
0100
0010
,
0100
0010
0100
0000
,
0001
1000
0001
0100
,
0001
0000
1000
0000
,
0010
0000
0100
0010
,
0100
0001
0100
0000
,
0010
0000
1000
0000
,
0001
0100
0010
0100
,
0001
0000
1010
0000
,
1000
0000
1010
0000
,
0100
0000
0101
0000
,
0001
0000
0001
1000
,
0001
1000
0001
0100
,
0001
0100
0010
1000
,
0100
0010
0001
1000
,
0010
0000
0100
0000
,
0010
0000
0100
0000
,
0001
0000
2001
0000
,
3001
0001
0100
0100
,
0010
0010
0110
0000
,
0100
0000
0001
0000
,
1000
0000
0010
0100
,
0010
0100
0010
0100
,
0000
0000
0000
0000
,
0000
0000
0000
0000
,
0000
0000
0000
0000
,
0000
0000
0000
0000
,
0000
0000
0000
0000
,
0000
0000
0000
0000
,
0000
0000
0100
0000
,
0010
0000
0110
0000
,
1000
0000
1001
0000
,
1001
0000
0100
0010
,
0100
0000
0101
0001
,
0001
0000
1001
1000
,
1000
0000
0001
0000
,
1000
0000
0010
0100
,
0010
0000
1000
0000
,
1000
0000
0110
0000
,
0001
0000
0001
0000
,
0100
0001
1000
0000
,
0001
0100
0010
0000
,
0100
0000
0010
0010
,
0010
0000
0100
0100
,
0100
0000
0001
1000
,
0001
1000
0001
0000
,
1000
0000
1001
0001
,
0001
0000
1001
1000
,
1000
0000
1001
0000
,
0110
0000
1001
0000
,
0100
0000
0002
0003
;

//---------------dance-single - ----------------
#NOTES:
     dance-single:
     :
     Medium:
     7:
     0.310593,0.357881,0.141611,0.033320,0.008330,261.000000,244.000000,17.000000,4.000000,0.000000,0.000000,0.310593,0.357881,0.141611,0.033320,0.008330,261.000000,244.000000,17.000000,4.000000,0.000000,0.000000:
// measure 0
0000
0000
0000
0000
,  // measure 1
0000
0000
0000
0000
,  // measure 2
0000
0000
0100
0100
,  // measure 3
0001
1000
0001
0100
,  // measure 4
0001
0100
0001
0000
1000
0000
0010
0000
,  // measure 5
0100
0010
0100
0010
0000
0000
0200
0000
,  // measure 6
0301
1000
0001
0000
0100
0000
0010
0100
,  // measure 7
0010
0000
0100
0010
0000
0100
0010
0000
,  // measure 8
0100
0001
1000
0001
,  // measure 9
0001
1000
0001
1000
0000
0001
1000
0000
,  // measure 10
0001
1000
0001
0000
0100
0010
0100
0010
,  // measure 11
0000
0100
0001
0100
0000
0010
0100
0000
,  // measure 12
0100
0000
0101
0100
,  // measure 13
0001
0100
0001
0100
0000
0001
0100
0000
,  // measure 14
0010
0100
1000
0000
0100
0000
0100
0001
,  // measure 15
0010
0000
0001
1000
0000
1000
0001
0000
,  // measure 16
0200
0301
1000
0001
,  // measure 17
0100
0010
0100
0010
0000
1000
0001
0000
,  // measure 18
1000
0100
1000
0000
0001
0010
0001
0010
,  // measure 19
0000
0001
0100
0001
0000
0000
0100
0000
,  // measure 20
0010
0000
0100
0000
0001
0000
0000
1000
,  // measure 21
0100
1000
0100
2000
0000
0000
0000
3000
,  // measure 22
0001
0001
1001
0100
,  // measure 23
0100
0010
0100
0000
0010
0100
0010
0000
,  // measure 24
0100
0000
0100
0000
0001
1000
0001
0000
,  // measure 25
1000
0000
0000
0100
0000
0000
1000
0000
0000
0000
0001
0000
0010
0000
0000
0000
,  // measure 26
0001
0000
0000
0100
0000
0000
0001
0000
0000
0000
0000
0000
0100
0000
0000
0000
,  // measure 27
0000
0010
0000
0100
,  // measure 28
0000
0110
0010
0010
,  // measure 29
0100
0000
0100
0000
0001
0000
0001
1000
,  // measure 30
0001
0000
0100
0000
0010
0000
0100
0001
,  // measure 31
0100
0000
0001
0000
0100
0000
0010
0100
,  // measure 32
0001
0000
1000
1001
,  // measure 33
0101
0000
1001
0000
1000
0000
1100
1100
,  // measure 34
0000
0000
0000
0000
,  // measure 35
0000
0000
0000
0000
,  // measure 36
0000
0000
0000
0000
,  // measure 37
0000
0000
0000
0000
,  // measure 38
0000
0000
0100
0000
,  // measure 39
0100
0000
0001
0000
,  // measure 40
0010
0000
0010
0000
,  // measure 41
1000
0000
0001
1000
,  // measure 42
0001
0100
0010
0010
,  // measure 43
0010
0010
0110
1000
,  // measure 44
0001
1000
1001
1100
,  // measure 45
0010
0001
0010
0000
0001
0000
0101
0000
,  // measure 46
0010
0100
0010
0000
1000
0000
0001
1000
,  // measure 47
0001
0000
1000
0010
0100
0000
0001
0000
,  // measure 48
0100
0101
1010
0100
,  // measure 49
1000
0100
1000
0000
0001
0000
0010
0000
,  // measure 50
0100
1000
0100
0000
1000
0000
0001
0100
,  // measure 51
0001
0010
0100
0110
,  // measure 52
0001
1000
1001
0100
,  // measure 53
0010
0100
0110
0001
,  // measure 54
1000
0100
0000
0010
,  // measure 55
0001
1000
0000
0001
,  // measure 56
0000
1000
0000
0010
,  // measure 57
0100
0010
0100
0000
0010
0000
0100
0000
,  // measure 58
0001
1000
0001
0000
1000
0000
0001
0000
,  // measure 59
0100
0001
0010
0000
0001
0000
1000
0000
,  // measure 60
0010
0100
0010
0000
0200
0000
0300
0000
,  // measure 61
0001
0100
0001
0100
0000
0000
0000
0000
;

//---------------dance-single - from pop n music 12----------------
#NOTES:
     dance-single:
     :
     Hard:
     12:
     0.455774,0.562957,0.266562,0.133281,0.245737,383.000000,351.000000,32.000000,16.000000,0.000000,0.000000,0.455774,0.562957,0.266562,0.133281,0.245737,383.000000,351.000000,32.000000,16.000000,0.000000,0.000000:
0000
0000
0000
0000
,
0000
0000
0000
0000
,
0000
0000
0100
0101
,
0001
1000
0001
0100
0001
0000
0100
0001
,
0100
0010
0000
1000
1001
0000
0110
0000
,
0100
0010
0100
0010
0000
0100
0020
0000
,
1030
0001
0001
0000
1000
0000
0100
0010
,
0001
0000
0010
0100
1000
0000
0100
0000
,
0101
0100
1000
0100
,
0010
0001
0100
1000
0000
0001
0010
0000
,
0100
0001
0010
0000
0001
0010
0010
0100
,
0000
0100
1000
0100
0000
1000
1001
0000
,
0100
0010
0101
0100
,
0010
0100
0010
1000
0000
1000
0001
0000
,
0100
0100
0101
0000
0001
0000
0010
0010
,
0010
0000
0100
1000
0000
1000
1001
0000
,
0202
0303
1000
0100
,
0100
0010
0100
0001
0000
1000
0010
0000
,
0001
0000
0100
0000
0010
0000
0000
0000
0100
0000
0010
0000
0001
0000
0010
0100
,
0000
0010
0100
0002
0000
0000
0100
0000
,
0100
0100
0100
0000
0013
0010
0010
0001
,
0100
1000
0100
0002
0000
1000
1000
0000
,
1003
0100
0000
0000
0010
0001
0000
0000
0101
0000
0000
0100
0000
0010
0100
0000
,
0001
1000
0000
0100
0010
0000
0000
0000
0010
0000
0001
0000
0010
0100
0000
0100
,
1000
0000
0001
1000
0000
0001
0100
0000
0001
0000
1000
0000
1010
0000
0000
0000
,
1000
0000
0000
0100
0000
0000
1000
0000
0000
0000
0001
0000
0010
0001
0000
0000
,
0001
0010
0000
0100
0000
0100
0010
0000
0101
0000
0000
0000
0100
0000
0010
0100
,
0000
0100
0010
0000
0010
0100
0000
0100
0001
0000
1000
0000
0001
0100
0000
0010
,
0100
0000
0100
0010
0000
0100
0010
0000
0020
0000
0000
0000
1030
0000
0100
0000
,
0100
0000
0010
0000
0100
0000
1000
0000
1001
0000
0100
0000
0001
0100
0000
0100
,
0001
0000
0101
0000
0000
0000
0010
0100
0010
0000
0100
0000
0100
0001
0000
0100
,
0000
0001
1000
0100
0200
0300
0010
0100
,
0001
0100
1000
0000
1000
0100
0001
0002
,
0000
0003
1000
0010
0001
0100
0100
0120
,
0000
0000
0000
0030
0000
0000
0000
0000
,
0000
0000
0000
0000
,
0000
0000
0000
0000
,
0000
0000
0000
0000
,
0000
0000
0100
0000
,
0100
0100
0001
1000
,
0010
0000
0000
0000
0100
0000
0000
0000
0010
0100
0010
0100
0010
0000
0000
0000
,
1000
0100
1000
0100
1000
0000
0000
0000
0001
0100
0001
0100
0001
0000
0000
0000
,
0001
0010
0100
0000
0100
0010
0001
0000
,
0010
0001
0010
0220
0330
0110
0110
0000
,
1001
0100
0010
0000
1001
0000
1100
0000
,
0010
0001
0010
0011
0000
0000
0110
0000
,
0010
0100
0010
0000
1000
0000
1000
0001
,
0200
0300
0010
0200
0300
0001
1000
0000
,
0110
0100
0100
0000
1010
0000
0100
0000
,
1000
0100
0010
0011
0000
0001
0010
0000
,
0100
1000
0001
0000
1000
0100
0001
1000
,
0010
0001
1000
0020
0000
0030
0110
0000
,
0101
0000
0000
0000
1000
0000
0000
0000
1000
0001
1000
0001
1000
0001
1000
0000
,
0001
0000
0100
0020
0000
0030
0100
0000
,
0100
0000
0000
0100
0000
0001
0100
0000
0000
0000
0010
0000
0000
0010
0000
0000
,
0100
0000
0000
0010
0000
1000
0010
0000
0000
0000
1000
0000
0001
1000
0000
0000
,
0100
0000
0000
0011
0000
0000
0010
0000
0001
1000
0001
0000
1000
0001
1000
0000
,
0001
1000
0001
1000
0001
0000
0000
0000
0110
0000
0100
0000
0100
0010
0000
0000
,
0100
0000
0000
0001
0000
1000
0100
0000
1100
0000
0001
0000
0100
0001
0000
0000
,
0100
0000
0000
0001
0000
0010
0001
0000
1001
0000
0000
0000
1000
0000
0100
0000
,
0010
0000
0000
0001
0000
0010
1000
0000
0020
0000
0000
0000
0030
0000
0000
0000
,
0001
0000
0100
0000
0001
0100
0001
0100
0000
0000
0000
0000
0000
0000
0000
0000
;
