#TITLE:Junai Romance -PART-2-;
#SUBTITLE:;
#ARTIST:ko-saku;
#TITLETRANSLIT:;
#SUBTITLETRANSLIT:;
#ARTISTTRANSLIT:;
#GENRE:;
#CREDIT:;
#BANNER:ko-saku-Junai-romance-PART-2-.png;
#BACKGROUND:;
#LYRICSPATH:;
#CDTITLE:;
#MUSIC:ko-saku-Junai-romance-PART-2-.ogg;
#OFFSET:-0.050000;
#SAMPLESTART:37.414001;
#SAMPLELENGTH:11.850000;
#SELECTABLE:YES;
#BPMS:0.000000=165.000000
;
#STOPS:
;
#BGCHANGES:;
#KEYSOUNDS:;
#ATTACKS:;

//---------------dance-single - from pop n music 15----------------
#NOTES:
     dance-single:
     :
     Beginner:
     2:
     0.087908,0.159992,0.041024,0.016409,0.000000,75.000000,70.000000,5.000000,2.000000,0.000000,0.000000,0.087908,0.159992,0.041024,0.016409,0.000000,75.000000,70.000000,5.000000,2.000000,0.000000,0.000000:
0000
0000
0000
0000
,
0000
0000
0000
0000
,
0000
0000
0000
0000
,
0000
0000
0000
0000
,
0000
0000
0000
1001
,
0000
0000
0000
1000
,
0000
0000
0000
0001
,
0000
0001
0000
0001
,
0000
0000
0000
1000
,
0000
0000
0000
1000
,
0000
0000
0000
0001
,
0000
0000
0000
0001
,
0000
0000
0000
1001
,
0000
0000
0000
0001
,
0000
0000
0000
1000
,
0000
1000
0000
1000
,
0000
0000
0000
1001
,
0000
0000
0000
0001
,
0000
0000
0000
0001
,
0000
0001
0000
0001
,
0000
0000
0000
0100
,
0000
0000
0000
0010
,
0000
0000
0000
0100
,
0000
0000
0000
0100
,
0000
0000
0000
0100
,
0000
0000
0000
0110
,
0000
0000
0000
0010
,
0000
0000
0000
0100
,
0000
0000
0000
0100
,
0000
0000
0000
0100
,
0000
0000
0000
0100
,
0000
0000
0000
0010
,
0000
0000
0000
1000
,
0000
0000
0000
0001
,
0000
0000
0000
1000
,
0000
0000
0000
0001
,
0000
0000
0000
1000
,
0000
0000
0000
0100
,
0000
0000
0000
0010
,
0000
0000
0000
0001
,
0000
0000
0000
0000
,
0000
0000
0000
2000
,
0000
0000
0000
3000
,
0000
0000
0000
0001
,
0000
0000
0000
0001
,
0000
0000
0000
1000
,
0000
0000
0000
1000
,
0000
0000
0000
0001
,
0000
0000
0000
0000
,
0000
0000
0000
1000
,
0000
0000
0000
0010
,
0000
0010
0000
0010
,
0000
0000
0000
0000
,
0000
0000
0000
0100
,
0000
0000
0000
0100
,
0000
0000
0000
0010
,
0000
0000
0000
0000
,
0000
0000
0000
0100
,
0000
0000
0000
0010
,
0000
0000
0000
0110
,
0000
0000
0000
0100
,
0000
0000
0000
0010
,
0000
0000
0000
0010
,
0000
0000
0000
1000
,
0000
0000
0000
0001
,
0000
0000
0000
0010
,
0000
0000
0000
0010
,
0000
0000
0000
0010
,
0000
0000
0000
0100
,
0000
0000
0000
0100
,
0000
0000
0000
1000
,
0000
0000
0000
1000
,
0000
0000
0000
0100
,
0000
0000
0000
0010
,
0000
0000
0000
0000
,
0000
0000
0000
0200
,
0000
0000
0000
0000
,
0000
0000
0000
0000
,
0300
0000
0000
0000
;

//---------------dance-single - ----------------
#NOTES:
     dance-single:
     :
     Easy:
     3:
     0.133620,0.196913,0.032819,0.065638,0.000000,114.000000,110.000000,4.000000,8.000000,0.000000,0.000000,0.133620,0.196913,0.032819,0.065638,0.000000,114.000000,110.000000,4.000000,8.000000,0.000000,0.000000:
// measure 0
0000
0000
0000
0000
,  // measure 1
0000
0000
0000
0000
,  // measure 2
0000
0000
0000
1000
,  // measure 3
0000
1000
0000
0000
,  // measure 4
0000
0000
0000
0001
,  // measure 5
0000
0001
0000
0001
,  // measure 6
0000
0000
0000
1000
,  // measure 7
0000
0100
0000
0010
,  // measure 8
0000
0000
0000
1000
,  // measure 9
0000
0100
0000
0010
,  // measure 10
0000
0001
0000
1000
,  // measure 11
0000
1000
0000
0002
,  // measure 12
0000
0003
0000
1000
,  // measure 13
0000
0000
0000
0110
,  // measure 14
0000
0000
0000
0100
,  // measure 15
0000
0001
0000
0100
,  // measure 16
0000
0000
0000
0001
,  // measure 17
0000
0000
0000
0001
,  // measure 18
0000
0000
0000
0001
,  // measure 19
0000
0010
0000
0100
,  // measure 20
0000
0000
0000
1000
,  // measure 21
0000
0000
0000
0001
,  // measure 22
0000
0000
0000
0100
,  // measure 23
0000
0000
0000
0010
,  // measure 24
0000
0000
0000
0100
,  // measure 25
0000
0000
0000
0100
,  // measure 26
0100
0100
0000
0100
,  // measure 27
0000
0000
0000
0010
,  // measure 28
0010
0010
0000
0010
,  // measure 29
0000
0000
0000
1001
,  // measure 30
0000
0000
0000
1000
,  // measure 31
0000
1000
0000
0001
,  // measure 32
0000
0001
0000
1000
,  // measure 33
0000
0000
0000
0010
,  // measure 34
0010
0010
0000
0010
,  // measure 35
0000
0000
0000
0100
,  // measure 36
0100
0100
0000
0100
,  // measure 37
0000
0000
0000
0001
,  // measure 38
0000
0010
0000
0001
,  // measure 39
0000
0010
0000
0002
,  // measure 40
0000
0000
0000
2003
,  // measure 41
0000
0000
0000
3002
,  // measure 42
0000
0000
0000
0003
,  // measure 43
0000
0000
0000
1100
,  // measure 44
0000
0000
0000
0100
,  // measure 45
0000
0100
0000
0100
,  // measure 46
0000
0000
0000
0010
,  // measure 47
0000
0010
0000
0010
,  // measure 48
0000
0000
0000
1000
,  // measure 49
0000
0001
0000
0100
,  // measure 50
0000
0000
0000
0010
,  // measure 51
0000
1000
0000
0001
,  // measure 52
0000
0000
0000
1001
,  // measure 53
0000
0000
0000
1000
,  // measure 54
0000
0010
0000
0100
,  // measure 55
0000
0000
0000
0010
,  // measure 56
0000
0100
0000
0001
,  // measure 57
0000
0000
0000
1000
,  // measure 58
0000
0100
0000
1000
,  // measure 59
0000
0000
0000
0001
,  // measure 60
0000
0100
0000
0001
,  // measure 61
0000
0000
0000
0100
,  // measure 62
0000
0010
0000
0100
,  // measure 63
0000
0000
0000
0001
,  // measure 64
0000
0000
0000
1000
,  // measure 65
0000
1000
0000
1000
,  // measure 66
0000
0010
0000
0100
,  // measure 67
0000
0000
0000
0010
,  // measure 68
0010
0010
0000
0010
,  // measure 69
0000
0000
0000
1000
,  // measure 70
1000
1000
0000
1000
,  // measure 71
0000
0000
0000
1000
,  // measure 72
0000
0000
0000
0001
,  // measure 73
0000
1000
0000
0001
,  // measure 74
0000
0000
0000
0200
,  // measure 75
0000
0300
0000
0200
,  // measure 76
0000
0300
0000
0200
,  // measure 77
0000
0000
0300
0000
0000
0000
0000
0200
,  // measure 78
0000
0000
0000
0000
,  // measure 79
0000
0000
0000
0000
,  // measure 80
0300
0000
0000
0000
;

//---------------dance-single - ----------------
#NOTES:
     dance-single:
     :
     Medium:
     6:
     0.240281,0.295370,0.057433,0.082047,0.000000,205.000000,198.000000,7.000000,10.000000,0.000000,0.000000,0.240281,0.295370,0.057433,0.082047,0.000000,205.000000,198.000000,7.000000,10.000000,0.000000,0.000000:
0000
0000
0000
0100
,
0000
0000
0000
0100
,
0000
0100
0000
0000
0000
0000
0010
0000
,
0100
0000
0010
0000
0000
0010
0000
0000
,
0000
0100
0000
0110
,
0110
0000
0000
1000
,
0000
0001
0000
0000
0000
0000
1000
0000
,
0010
0000
0100
0000
0000
0010
0000
0000
,
0000
0100
0000
0001
,
0010
0001
0000
1000
,
0100
1000
0000
0010
,
0100
0010
0000
0200
,
0000
0310
0000
0010
,
0000
0010
0000
0100
,
0000
0100
0000
0000
0000
0000
0001
0000
,
0010
0000
0001
0000
0000
0010
0000
0000
,
0000
0100
0000
1001
,
1001
0000
0000
1000
,
0000
0010
0000
0000
0000
0000
0100
0000
,
0100
0000
0010
0000
0000
0010
0000
0000
,
0000
0100
0000
0001
,
1000
0010
0000
0100
,
0001
0010
0000
0100
,
0000
1000
0000
0001
,
0000
0010
0000
0001
,
0000
1000
0000
0001
,
0001
0001
0001
1000
,
0000
1000
0000
0000
0000
0000
0010
0000
,
0010
0010
0010
0100
,
0000
0100
0000
0000
0000
0000
0001
0000
,
0000
1000
0010
0100
,
0001
0010
0001
1000
,
0100
1000
0000
0020
,
0000
0030
0000
0100
,
0100
0100
0100
0001
,
0000
0001
0000
0000
0000
0000
1000
0000
,
1000
1000
1000
0001
,
0000
0001
0000
0000
0000
0000
0100
0000
,
0000
0001
0010
0001
,
1000
0100
1000
0010
,
0100
0001
0000
1000
,
0001
1000
0000
0001
,
0010
0001
0000
1000
,
0100
1000
0000
0001
,
1000
0010
0000
1000
,
0100
1000
0000
0010
,
0100
0001
0000
0010
,
0001
0100
0000
0010
,
1000
0010
0000
0010
,
0100
0010
0000
0001
,
1000
0001
0000
0010
,
0000
0110
0000
0010
,
0100
0001
0000
1000
,
0000
0000
0000
0001
,
0100
0010
0000
1000
,
0000
0000
0000
0010
,
0001
0100
0000
0010
,
0000
0000
0000
0100
,
0000
0000
0000
0101
,
0000
0101
0000
0001
,
0001
1000
1000
0001
,
0000
0001
0000
0000
0000
0000
1000
0000
,
1000
0100
0100
1000
,
0000
1000
0000
0000
0000
0000
0001
0000
,
0000
1000
0010
1000
,
0010
0100
0001
0100
,
0000
0002
0003
2000
,
3000
0002
0003
1000
,
1000
0010
0010
0100
,
0000
0100
0000
0000
0000
0000
0001
0000
,
0001
0010
0010
0100
,
0000
0100
0000
0000
0000
0000
1000
0000
,
0000
0001
0000
1000
,
0000
0001
0000
2000
,
0000
0001
3000
0002
,
0000
1000
0003
0200
,
0000
0001
0300
0020
,
0000
0000
0100
0000
0030
0000
0000
0200
,
0000
0000
0000
0000
,
0000
0000
0000
0000
,
0300
0000
0000
0000
;

//---------------dance-single - ----------------
#NOTES:
     dance-single:
     :
     Hard:
     9:
     0.402031,0.461977,0.147685,0.057433,0.028717,343.000000,325.000000,18.000000,7.000000,0.000000,0.000000,0.402031,0.461977,0.147685,0.057433,0.028717,343.000000,325.000000,18.000000,7.000000,0.000000,0.000000:
0000
0000
0000
0100
,
0110
0000
0000
0000
0010
0100
0010
0100
,
0010
1000
0000
0001
0100
0010
0100
0000
,
0010
0000
0100
0010
0100
0010
0000
0000
,
0100
0000
0100
0010
0100
0000
0010
0000
,
0110
0000
0000
0000
0100
0010
0100
0010
,
0100
0001
0000
1000
0100
0010
0100
0000
,
0010
0000
0100
0010
0100
0010
0000
0000
,
0001
0001
1000
0010
,
0100
0110
0000
1000
,
0010
0110
0000
0001
,
0010
0000
0001
0000
1000
1000
1000
0000
,
0000
0001
0000
1000
,
1001
0000
0000
0000
1000
0001
1000
0001
,
1000
0100
0000
0010
0100
0010
0100
0000
,
1000
0000
0001
1000
0001
1000
0000
0000
,
0010
0100
0001
1000
,
1001
0000
0000
0000
0001
1000
0001
1000
,
0001
0010
0000
0001
1000
0001
0100
0000
,
0010
0000
0100
0010
0100
0001
0000
0000
,
0100
0001
1001
1100
,
0010
0001
0000
1100
,
0010
0100
0000
0001
,
0001
0000
0000
1000
0001
1000
0001
0000
,
0000
0000
0100
0000
0000
0000
0010
0100
,
0010
0000
0100
0010
0100
0000
0001
0000
,
1001
1000
0100
0010
,
0000
0010
0000
0001
1000
0001
1000
0000
,
0100
0010
0001
1000
,
0000
1000
0000
0001
1000
0001
1000
0000
,
0001
0100
0010
0100
,
0000
0010
0100
0001
,
0000
1000
0000
0020
,
0030
0200
0300
0110
,
0100
0100
0010
0010
,
0000
0100
0000
0010
0100
0010
0100
0000
,
0001
1000
0001
1000
,
0000
0001
0000
1000
0001
1000
0001
0000
,
0100
0010
0100
0000
0010
0100
0010
0000
,
0100
0100
0000
0010
,
1000
0000
0100
1000
0100
0000
0010
0000
,
0001
0000
0010
0001
0100
0000
0010
0000
,
0100
0000
0010
0100
0001
0000
0000
1000
,
0000
1000
0000
0000
1000
0000
0000
1000
0000
0000
0000
0000
0001
0000
0000
0000
,
0010
0001
1000
0100
,
0010
0001
0000
1000
,
0010
0100
0001
0010
,
0100
1000
0000
0001
,
0100
0001
0100
0000
0010
0000
0100
0000
,
0001
0100
0001
0000
0010
0000
0001
0000
,
0001
0000
1000
0000
0000
0000
0001
1000
,
0001
0000
1000
0001
1000
0000
0001
0000
,
1000
1100
0010
0001
,
0010
1001
0010
0100
,
0101
0001
1000
0100
,
1100
0010
0001
0100
,
0110
0010
0100
0010
,
1001
1000
0100
0010
,
0011
0000
1000
0000
0010
0000
0000
0010
,
0000
0010
0000
0000
0010
0000
0000
0010
0000
0000
0000
0000
0100
0000
0000
0000
,
0010
0000
0100
0000
0010
0000
0100
0010
,
0000
0100
0000
0010
0100
0010
0100
0000
,
0010
0000
1000
0000
0100
0000
0010
0001
,
0000
0010
0000
0001
0010
0001
0010
0000
,
0001
1000
1000
0010
,
0100
0001
1000
0010
,
0010
0100
0100
0020
,
0030
0200
0300
0001
,
1000
0001
0100
0010
,
0000
0010
0000
0100
0010
0100
0010
0000
,
0100
0001
1000
0010
,
0000
0010
0000
1000
0010
1000
0010
0000
,
1000
0001
1000
0001
,
0000
0100
0000
0010
,
0010
0000
0100
0100
,
0100
0000
0001
0001
,
0002
0003
1000
1000
,
2000
0000
0000
0000
0000
0000
0000
0000
0000
0000
0000
0000
3000
0000
0000
0000
0000
0000
0000
0000
0000
0000
0000
0000
0000
0000
0000
0010
0000
0000
0000
0000
0000
0000
0000
0000
0000
0000
0000
0000
0000
0000
0000
0000
0200
0000
0000
0000
,
0000
0000
0000
0000
,
0000
0000
0000
0000
,
0300
0000
0000
0000
0000
0000
0000
0010
0000
0000
0000
0000
0000
0000
0000
0000
;

//---------------dance-single - ----------------
#NOTES:
     dance-single:
     :
     Challenge:
     15:
     0.682164,0.792576,0.213323,0.032819,0.352803,582.000000,556.000000,26.000000,4.000000,0.000000,0.000000,0.682164,0.792576,0.213323,0.032819,0.352803,582.000000,556.000000,26.000000,4.000000,0.000000,0.000000:
0000
0000
0000
0100
,
0110
0000
0000
0000
0100
0010
0100
0010
0100
0000
0001
0000
1000
0000
0010
0000
,
1000
0000
0011
0000
0000
0000
0010
0001
0010
0001
1000
0000
0100
0000
0000
0000
,
0010
0000
0000
0000
0001
0000
0010
0100
1000
0000
0010
0000
0000
0000
0010
0000
,
0010
0010
0010
1000
1000
1000
0001
0000
,
1001
0000
0000
0000
1000
0001
1000
0001
1000
0000
0001
0000
0010
0000
0100
0000
,
0001
0100
0000
1000
0100
0001
0100
0000
,
1000
0000
0010
0100
0010
0101
0000
0001
,
0001
1000
0010
0100
0010
0100
0010
0000
,
1000
0100
1000
0000
0010
0000
0100
0000
0100
0000
0000
0000
0001
0000
0000
0000
,
0010
0000
0001
0000
0100
0000
0010
0100
0010
0000
0000
0000
0100
0000
0010
0000
,
0100
0010
0000
0100
0001
1000
0010
0000
,
0100
0000
0000
0000
0010
0100
0010
0100
0010
0000
0000
0000
0100
0000
0000
0000
,
0101
0000
0000
0000
0001
1000
0001
1000
0001
0000
1000
0000
0100
0000
0001
0000
,
0010
0100
0000
1000
0010
0001
0100
0000
,
0100
0000
0010
0100
0010
0100
0000
0001
,
1000
0000
0100
0000
1000
0000
0001
1000
0001
1000
0001
0000
1000
0000
0000
0000
,
0001
0000
0000
0000
0100
0010
0100
0010
0100
0000
0001
0000
0010
0000
0100
0000
,
1000
0000
1001
0000
0000
0000
1000
0100
0010
0001
1000
0000
0001
0000
0000
0000
,
1000
0000
0010
0000
0100
0010
0100
0000
0001
0000
1000
0000
0000
0000
0001
0000
,
1000
0000
0001
0000
1000
0000
0001
1000
0001
1000
0001
0000
1000
0000
0000
0000
,
0100
0000
0010
0000
0001
0000
1000
0001
1000
0000
0000
0000
1000
0000
0000
0000
,
0010
0000
0100
0000
0010
0000
0010
0100
0010
0000
0000
0000
1000
0000
0000
0000
,
0001
1000
0000
0001
0000
1000
0010
0000
,
0100
0000
0000
0000
0010
0100
0010
0100
0010
0100
0010
0100
0001
0000
0000
0000
,
1000
0010
0100
0010
0100
0010
0100
0010
0100
0000
0000
0000
0001
0000
1000
0000
,
0011
0000
1000
0100
1001
0000
0100
0010
,
0000
0100
0000
0010
0010
0010
0010
0000
,
0110
0000
0100
0010
1001
0000
1000
0001
,
0000
0000
0001
0000
0000
0000
1000
0000
0010
0000
0100
0010
0100
0000
0000
0000
,
0001
0010
0100
1000
,
0100
0010
0001
1000
,
1010
0000
0000
0000
0100
0000
0000
0000
0101
0000
0000
0000
0010
0100
0010
0000
,
0000
0000
0100
0010
0100
0000
0000
0000
0010
0100
0010
0100
0010
0000
0000
0000
,
0100
0000
0010
0000
0001
0000
1000
0010
,
0000
0010
0100
0000
0001
0000
1001
0000
,
0001
0000
1000
0000
1000
0000
0100
0010
,
0000
0010
0100
0000
0001
0100
1000
0000
,
0010
0100
0001
0000
1000
0100
0010
0000
,
0011
0000
0001
0100
0000
0010
0200
0000
,
0301
0000
0000
1000
0001
0000
0100
0000
0010
0000
0100
0000
1001
0000
0000
0000
,
0001
0000
0000
1000
0001
0000
0100
0000
0010
0000
1000
0000
1001
0000
0000
0000
,
0100
0000
0000
0010
0001
0000
0000
0000
0100
0010
0100
0000
0000
0000
0010
0000
,
0000
0100
0000
0000
0110
0000
0000
0010
0100
0010
0100
0000
0001
0000
1000
0000
,
0100
0001
0100
1000
0010
0001
1000
0100
,
0010
0000
0000
0000
1000
0100
1000
0000
0001
0000
0001
0000
1000
0000
0010
0100
,
0010
0001
1000
0100
0001
0010
0110
0110
,
0001
1000
0000
0001
1001
0000
0100
0010
,
0100
0001
0010
0000
0100
0000
0010
0000
0001
0000
0200
0000
0300
0000
0010
0000
,
0100
0000
0001
0000
0100
0001
0010
0000
0001
0000
1000
0000
0010
0100
0010
0000
,
0100
0000
0001
0010
0100
0000
0010
0100
1000
0000
0001
0010
0100
0000
0000
0000
,
0010
0000
0000
0000
0100
0010
0001
0010
0100
0000
0010
0100
1000
0000
0010
0000
,
0100
0001
0001
0001
0000
1000
0001
0100
,
0001
0000
1000
0010
1000
0000
0010
0000
0000
0000
0100
0000
0001
0010
0100
0000
,
0010
0000
0001
0010
0100
0000
0010
0000
0001
0010
0100
0000
1000
0000
1000
0100
,
0010
0000
0100
0000
1000
0100
0010
0000
0100
0000
1000
0000
0010
0000
0100
0000
,
0010
0000
0100
0000
0100
0000
0010
0000
0010
0000
0100
0000
0100
0000
0001
1000
,
0001
0000
1000
0000
0001
0000
1000
0001
1000
0000
0001
0000
1000
0000
0010
0100
,
0001
0000
0010
0000
0001
0100
0010
0000
0100
0010
0100
0010
0100
0000
0001
0000
,
1000
0010
0000
0010
0100
0000
0001
0100
0001
0100
0010
0000
1000
0000
0000
0000
,
1001
0000
0110
0000
0010
0100
1000
0010
,
0000
0000
0010
0000
0000
0000
0100
0010
0100
0001
0100
0010
0100
0000
0000
0000
,
0001
0000
1001
0000
1000
0010
0100
0010
,
0000
1000
0000
0001
0001
0001
1000
0000
,
0010
0100
0010
0001
1000
0000
0100
0001
,
0010
0000
0001
1000
0001
0000
0100
0100
,
0100
0000
0010
0010
0010
0000
1000
1000
,
1000
0000
0001
0001
0001
0000
1001
0000
,
0100
0010
0101
0000
0001
1000
0010
0100
,
0000
0000
0100
0000
0000
0000
0010
0100
0010
0100
0010
0100
0010
0000
0000
0000
,
1000
0000
0001
0000
0100
0010
0100
0010
,
0000
0100
0000
0010
0100
0001
0001
0000
,
1000
1000
1000
0000
0001
0001
0001
0000
,
0100
0000
0010
0010
0000
0100
0010
0000
,
0100
0000
0000
0001
1000
0000
0100
0000
0010
0100
1000
0000
0001
0000
0000
0000
,
0100
0000
0000
0010
0100
0000
0001
0000
0010
0100
1000
0000
0001
0000
0000
0000
,
0100
0000
0000
0001
0010
0000
0100
0000
0010
0100
1000
0000
0001
0000
0000
0000
,
1000
0000
0000
0000
0000
0000
0000
0000
0000
0010
0000
0000
0100
0000
0000
0000
0000
0000
0000
0000
0000
0000
0000
0000
0000
0000
0000
0010
0000
0000
0000
0000
0000
0000
0000
0000
0000
0000
0000
0000
0000
0000
0000
0000
0220
0000
0000
0000
,
0000
0000
0000
0000
,
0000
0000
0000
0000
,
0000
0000
0330
0000
;
