#TITLE:JiGSaW!;
#SUBTITLE:;
#ARTIST:Soyo Oka;
#TITLETRANSLIT:;
#SUBTITLETRANSLIT:;
#ARTISTTRANSLIT:;
#GENRE:;
#CREDIT:from pop n music 20;
#BANNER:20_BLACK_FUSION.png;
#BACKGROUND:;
#LYRICSPATH:;
#CDTITLE:;
#MUSIC:JiGSaW!.ogg;
#OFFSET:-0.522000;
#SAMPLESTART:17.341000;
#SAMPLELENGTH:12.000000;
#SELECTABLE:YES;
#BPMS:0.000000=114.987999
;
#STOPS:
;
#BGCHANGES:;
#KEYSOUNDS:;
#ATTACKS:;

//---------------dance-single - ----------------
#NOTES:
     dance-single:
     :
     Beginner:
     3:
     0.137692,0.180039,0.036372,0.136393,0.000000,106.000000,102.000000,4.000000,15.000000,0.000000,0.000000,0.137692,0.180039,0.036372,0.136393,0.000000,106.000000,102.000000,4.000000,15.000000,0.000000,0.000000:
0000
0000
0000
0000
,
0000
0000
0000
0000
,
0000
0000
0000
0000
,
0000
0000
0000
0000
,
0000
0000
0000
0000
,
0000
0000
0000
0000
,
0000
0000
0000
0000
,
1000
0001
0000
0000
,
0001
1000
0000
0000
,
0110
0000
0100
0000
,
0010
0100
0001
0000
,
1000
0100
0010
0000
,
0010
0001
0010
0000
,
0100
0000
0000
0000
,
1000
0100
0010
0000
,
0010
0001
1000
0000
,
0110
0000
0000
0000
,
1002
0000
1000
0000
,
1003
0000
0001
1000
,
0002
0000
1000
0000
,
1003
0000
0010
0100
,
0020
0000
1000
0000
,
1030
0000
0001
0100
,
0002
0000
0100
0000
,
0203
0000
0000
0000
,
0320
0000
0030
0000
,
1000
1000
1000
0001
,
0002
0000
0003
0000
,
1000
0001
0001
0001
,
0200
0000
0310
0000
,
0010
0010
0100
0100
,
0200
0000
0310
0000
,
0220
0000
0000
0000
,
0330
0000
0000
0000
,
2000
0000
0001
0000
,
3001
0000
0001
0001
,
0002
0000
0100
0000
,
1003
0000
1000
0100
,
0200
0000
0000
0000
,
0310
0001
0010
0000
,
0001
0100
0001
0000
,
0001
1000
0001
0000
,
1000
0001
0000
0001
,
1000
0000
0010
0100
,
0010
0100
0001
0000
,
1000
1000
0100
0010
,
0100
0000
1000
0100
,
0010
0100
1000
0001
,
0100
0000
0020
0000
,
0000
0000
0030
0000
;

//---------------dance-single - ----------------
#NOTES:
     dance-single:
     :
     Easy:
     7:
     0.281880,0.335869,0.118208,0.227322,0.022732,217.000000,204.000000,13.000000,25.000000,0.000000,0.000000,0.281880,0.335869,0.118208,0.227322,0.022732,217.000000,204.000000,13.000000,25.000000,0.000000,0.000000:
0000
0000
0000
0000
,
0000
0000
0000
0000
,
0000
0000
0000
0000
,
0000
0000
0001
0000
,
1001
0000
1000
0000
,
0110
0000
0000
0000
0101
0000
0000
0202
,
0000
0303
0001
1000
,
0200
0000
0300
0020
,
0000
0000
0000
0000
0030
0000
0000
0000
0001
0000
0000
1000
0000
0000
0001
0000
,
0000
0000
1100
0000
0100
0000
0010
0001
,
1000
0000
0100
0010
0001
0000
0100
0010
,
0000
0000
1100
0000
0100
0010
0001
0000
,
0010
0001
0010
1000
0020
0000
0030
0000
,
0001
0000
0010
0001
1000
0000
0001
0010
,
0100
0000
0000
0000
1000
0000
0000
0000
0010
0000
0000
0100
0000
0000
0020
0000
,
0000
0000
0030
0000
0100
0000
0000
0010
0000
0000
0100
0000
0000
0000
0000
0000
,
0110
0000
0100
0001
0100
0000
0010
1000
,
0010
0000
0100
0010
0010
0100
0001
0001
,
2000
0000
0000
0001
3002
0000
0100
0000
,
0203
0000
0310
0000
0000
0000
0100
0010
,
2000
0000
0000
3001
0000
0001
0000
1000
,
0001
0000
0100
0010
1000
0000
0001
0000
,
0202
0000
0000
0303
0000
0100
0000
0010
,
2000
0000
0010
0000
3001
0000
0100
0001
,
0100
0000
0010
1000
0010
0000
0100
0001
,
0100
0010
0100
0000
0001
0000
0100
0010
,
0001
0010
0100
0000
0001
0000
1000
0001
,
0200
0000
0010
0000
0310
1000
0001
0000
,
2000
0000
0100
0000
3010
0000
0001
0100
,
0010
0000
1000
0010
0100
0000
0001
0010
,
0001
0000
1000
0001
2000
0000
0000
0001
,
3001
0000
0000
0100
0000
0000
0100
0000
0000
0000
0000
0000
0010
0000
0000
0000
,
0110
0000
0000
0100
0000
0000
0020
0000
,
0130
0000
0001
1000
0001
0000
1000
0010
,
1000
0000
0001
0010
0001
0000
1000
0000
,
1010
0100
0101
0010
,
2002
0000
0003
0000
3001
0000
0001
0001
,
0001
0000
0000
0000
0100
0010
0100
0000
,
0000
0010
0010
0000
1000
1000
0001
0000
,
0002
0000
0103
0200
,
0000
0000
0000
0000
0300
0000
0000
0000
0010
0000
0000
0100
0000
0000
0010
0000
,
0000
0000
1001
0000
0010
0001
0010
0000
,
0010
0100
0010
0000
0000
0000
1000
0100
,
0010
0000
0000
0002
0003
2000
3000
0001
,
0000
0001
0000
0100
0010
0000
0100
0010
,
0100
0000
0001
0100
0001
0100
0001
0000
,
1000
0100
1000
0100
1000
0000
0000
0001
,
0002
0000
0003
1000
0000
0100
0000
0010
,
0000
0001
1000
0000
0001
0100
0001
0000
,
0200
0300
0000
0000
;

//---------------dance-single - ----------------
#NOTES:
     dance-single:
     :
     Medium:
     11:
     0.392293,0.425434,0.200044,0.245508,0.250055,302.000000,280.000000,22.000000,27.000000,0.000000,0.000000,0.392293,0.425434,0.200044,0.245508,0.250055,302.000000,280.000000,22.000000,27.000000,0.000000,0.000000:
0000
0000
0000
0000
,
0000
0000
0000
0000
,
0000
0000
0000
0000
,
0000
0000
0000
0000
0001
0100
0100
0000
,
1000
0010
0010
0000
1000
0001
0100
0000
,
0010
1000
0010
0100
0002
0000
0003
2000
,
0000
0000
0001
0000
3001
0000
0010
0000
0001
0000
0000
1000
0100
0000
0000
0010
,
0002
0000
0000
0000
0100
0000
0100
0000
0003
0000
0100
0000
0010
0000
0000
0110
,
0000
0002
0000
0000
0000
0000
1003
0000
0100
0000
0010
0002
0000
0003
2000
0000
,
3000
0001
0100
0010
0100
0000
0000
0000
0010
0100
0010
0100
0000
0000
0001
0000
,
1000
0001
0000
0000
0100
0000
0001
0000
1000
0000
0001
0000
0010
0001
0010
0001
,
0000
0000
0000
0000
1100
0000
0000
0000
0100
0000
0010
0000
0100
0010
0000
0010
,
0000
0000
1000
0000
0010
0000
1000
0000
0010
0000
0000
0100
0000
0000
0001
0000
,
0000
0100
0010
0100
0010
0000
0000
0000
1000
0000
0000
0001
0000
0000
1000
0000
,
0001
0000
0000
0000
1000
0000
0100
0000
0010
0000
0000
0001
0000
0000
0020
0000
,
0000
0000
0030
0000
0100
0000
0000
1000
0000
0000
0100
0000
0000
0010
0000
0000
,
0001
0000
0000
0000
0011
0000
0000
0000
0110
0000
0000
0101
0000
0000
1001
0000
,
0000
0010
0100
0010
0000
0100
0010
1000
,
0000
0001
0100
0100
0000
0010
0100
0010
,
0220
0000
0330
0000
0000
1000
0100
0010
,
0002
0000
0003
2000
0000
0001
3001
0000
,
0100
0010
0100
0100
0001
1000
0001
0100
,
0220
0000
0000
0330
0000
0101
0000
0010
,
2000
3100
0010
0001
0000
1000
0100
0001
,
0100
0010
0001
1000
0000
0010
0100
0001
,
0100
0000
0000
0010
0100
0000
0000
0001
1000
0000
0100
0000
0010
0000
0012
0000
,
0000
0000
0103
0010
1200
0000
0000
1300
,
0100
0010
0001
2000
0000
0010
3010
0000
,
0200
0000
0010
0000
0310
0010
0010
0000
,
1001
0000
0000
1000
0001
0000
0000
0000
0100
0000
0010
0000
0100
0000
0010
0000
,
0110
0000
0000
0001
1000
0000
0000
0000
0001
0000
0010
0000
0100
0000
0010
0000
,
0001
0000
0000
0100
0000
0000
0100
0000
0000
0000
0010
0000
0010
0000
0010
0000
,
0010
0000
0000
0100
0000
0000
0010
0000
0000
0000
0100
0000
0100
0000
0100
0000
,
0010
0000
1000
0001
0200
0000
0000
0301
,
0001
0000
0000
1000
0000
0000
0010
0000
0000
0000
0100
0000
0010
0000
0000
0000
,
0120
0000
0000
0000
0100
0000
0000
0000
1030
0000
0000
0001
1000
0000
0000
1000
,
0001
0000
0000
0100
0001
0000
0000
0010
0001
0000
0000
0100
0001
0000
0000
0010
,
0100
0000
0000
0000
0000
0000
0000
0000
1000
0001
0000
1000
0001
0000
0000
0000
,
2000
0001
0001
0001
3001
1000
1000
0010
,
0100
0000
0000
0000
0020
0000
0000
0000
0000
0000
0100
0000
0130
0000
0000
0110
,
0000
2000
0000
0000
0000
0000
3001
0000
0010
0000
0001
2000
0000
3000
0020
0000
,
0030
0100
0010
0100
0010
0000
0000
0000
0100
0001
0100
0001
0000
0000
0100
0000
,
0001
1000
0000
0000
0001
0000
0100
0000
0010
0000
0001
0000
0010
0000
0100
0000
,
0000
0000
1001
0000
0000
0000
1100
0000
0000
0000
0001
0000
1000
0001
0000
0001
,
0000
0000
0100
0000
0010
0000
0000
0000
0100
0000
0000
0001
0000
0000
0100
0000
,
0000
0000
0001
0000
0101
0000
0000
0000
0010
0000
1000
0000
1010
0000
0000
0110
,
0000
0000
0001
0000
0100
0001
0000
0100
0001
0000
0000
1000
0000
0000
0020
0000
,
0000
0000
0030
0000
0100
0000
0000
0001
0000
0000
1001
0000
0000
1100
0000
0000
,
0010
0000
0001
0000
0010
0000
0000
0000
0001
0000
0000
1000
0000
0000
0002
0000
,
0000
0003
0000
0000
;

//---------------dance-single - ----------------
#NOTES:
     dance-single:
     :
     Hard:
     14:
     0.613121,0.604564,0.172765,0.300065,0.836546,472.000000,453.000000,19.000000,33.000000,0.000000,0.000000,0.613121,0.604564,0.172765,0.300065,0.836546,472.000000,453.000000,19.000000,33.000000,0.000000,0.000000:
// measure 0
0000
0000
0000
0000
,  // measure 1
0000
0000
0000
0000
,  // measure 2
0000
0000
0000
0000
,  // measure 3
0000
0000
0000
0000
0000
0000
0000
0000
0001
0100
0001
0000
0200
0000
0300
0000
,  // measure 4
0010
1000
0010
0000
2000
0000
3000
0000
0001
0010
0001
0100
0001
0000
0000
0000
,  // measure 5
1000
0000
1000
0000
0010
0000
0010
0000
0100
0001
0100
0000
0010
0000
0220
0000
,  // measure 6
0000
0000
0330
0000
0001
0000
0001
0000
0001
0010
0000
0100
1000
0000
0000
0000
,  // measure 7
0001
0100
0010
0100
0010
0100
0001
1000
0000
0000
0010
0000
0010
0100
0010
0100
,  // measure 8
0000
0002
0000
0000
1003
0000
0001
0100
0001
0000
0010
0001
0000
0010
0200
0000
,  // measure 9
0300
1000
0100
0010
0100
0000
0010
0001
0000
0100
0010
0100
0001
0010
0000
0100
,  // measure 10
1000
0001
1000
0000
0100
0001
0000
0100
1000
0000
0001
0000
0100
0010
0100
0010
,  // measure 11
0000
1000
0000
0010
0100
0000
0001
0100
0001
0000
0110
0000
0100
0010
0000
0110
,  // measure 12
0000
0010
1000
0000
0010
0100
1000
0100
0010
0000
0000
0001
0010
0100
0010
0001
,  // measure 13
0000
0010
0100
0001
1000
0001
0000
0001
1000
0000
0001
0100
0010
0100
0000
0010
,  // measure 14
0100
0000
0001
0000
1000
0001
0100
0001
1000
0000
0001
0100
0000
0010
0200
0000
,  // measure 15
0000
0000
0301
0000
0000
0110
0000
0110
0000
0000
0101
0000
0001
0010
0000
0000
,  // measure 16
0001
1000
0001
0010
0100
1000
0000
0100
0110
0000
0000
0011
0000
0000
1001
0000
,  // measure 17
0100
0000
0010
0000
0200
0000
0320
0000
1030
0100
0000
1000
0100
0010
0100
0010
,  // measure 18
0002
0000
0000
0000
0000
0000
0000
0000
0000
0000
0000
0000
0103
0000
0000
0000
0000
0000
0010
0000
0100
0000
0010
0000
0100
0000
0000
0000
0000
0000
0010
0000
0000
0000
0000
0000
0100
0000
0000
0010
0000
0000
0100
0000
0000
0000
0000
0000
,  // measure 19
0020
0000
0000
0000
1030
0000
0100
0010
0100
0000
1000
0000
0001
0100
0010
0100
,  // measure 20
0002
0000
0000
0000
0000
0000
1003
0000
0000
0001
0000
0000
0000
0000
0000
0001
0000
0000
2000
0000
0000
0000
0000
0000
0000
0000
0000
0001
0000
0000
0001
0000
0000
0000
0000
0000
3001
0000
0000
0000
0000
0000
0100
0000
0001
0000
0100
0000
,  // measure 21
0001
0000
1000
0000
0100
0000
0010
0001
0010
0000
0002
0000
0000
0000
1003
0000
,  // measure 22
0020
0000
0000
0000
0100
0000
0130
0000
0000
0000
0001
0100
0001
0000
0010
1000
,  // measure 23
0020
0000
0000
0000
0000
0000
0031
0000
0000
0000
0000
0000
0010
0000
0000
0000
0000
0000
0001
0000
0000
1000
0000
0000
0000
0000
0000
1000
0000
0000
0001
0000
0000
0000
0000
0000
0100
0000
0000
0000
0000
0000
0001
0000
0100
0000
0001
0000
,  // measure 24
0200
0000
0000
0000
0000
0000
0000
0000
0000
0000
0000
0000
0301
0000
0000
0000
0000
0000
1000
0000
0000
0000
0000
0000
0010
0000
0100
0000
0010
0000
0100
0000
0000
0000
0000
0000
0001
0000
0000
0100
0000
0000
0001
0000
0000
0000
0000
0000
,  // measure 25
0200
0000
0000
0000
0301
0010
0000
0000
1000
0000
0100
0000
0010
0001
0000
0000
,  // measure 26
2200
0000
0000
0000
3300
0000
0001
0010
0000
0001
0010
0100
0010
0001
1000
0010
,  // measure 27
0100
0001
0000
1000
0001
0000
0000
0000
0100
0000
0020
0000
0000
0000
0100
0100
,  // measure 28
0130
0000
0000
0001
1000
0100
1000
0000
0001
0010
0001
0100
0001
0010
0001
0000
,  // measure 29
0100
0010
0100
0010
1000
0000
1001
0000
0001
0010
0001
0010
0100
1000
0000
0100
,  // measure 30
0010
0000
0100
0000
0010
0000
0001
1000
0010
0000
0000
0000
0100
0010
0000
0010
,  // measure 31
0100
0000
0010
0100
0000
0001
0201
0000
0000
0000
0301
0100
0001
0100
0010
1000
,  // measure 32
0010
0110
0000
0100
0000
0010
0100
0000
0002
0003
0000
1000
0100
0000
0010
0000
,  // measure 33
0001
0000
0000
1000
0000
0000
0001
0100
0020
0000
0000
0000
0000
0000
0000
0000
,  // measure 34
0130
0100
0000
0001
1000
0000
1000
0000
0010
0100
0010
0100
0010
1000
0001
0100
,  // measure 35
0002
0000
0000
0000
0000
0000
0000
0000
0000
0000
0000
0000
1003
0000
0000
0100
0000
0000
0000
0000
0000
0000
0000
0000
1100
0000
0000
0000
0000
0000
0000
0000
0000
0010
0000
0000
0001
0000
0000
0000
0000
0000
1000
0000
0100
0000
1000
0000
,  // measure 36
0100
0000
2000
0000
0001
0001
3010
0010
,  // measure 37
0100
0000
0010
0000
0001
0000
2000
0000
3001
0100
0000
0001
0100
0000
0001
0100
,  // measure 38
0020
1000
1030
0100
0100
0001
0001
0100
,  // measure 39
0100
0000
1000
0100
1000
0100
0010
0001
0000
0000
1000
0000
0001
0100
0000
0101
,  // measure 40
0000
0020
0000
0000
0130
0000
0010
0100
0010
0000
1000
0100
0000
0010
0001
0000
,  // measure 41
1000
0010
0100
0010
0100
0000
0001
0100
0000
0100
0010
0100
0001
1000
0000
0001
,  // measure 42
0100
0010
0100
0000
0001
0000
1000
1000
0000
0000
0010
0000
1000
0001
0100
0010
,  // measure 43
0000
0100
0001
0100
0000
0001
1000
0010
0010
1000
0001
0000
0100
0010
0000
0100
,  // measure 44
0000
0020
0000
0000
0130
0000
0001
1000
0001
0000
1000
0001
1000
0001
0000
1000
,  // measure 45
0010
0000
0000
0000
0000
0000
0010
0000
0000
0100
0000
0000
0001
0000
0000
0000
0000
0000
1000
0000
0001
0000
1000
0000
0001
0000
0000
0000
0000
0000
1000
0000
0000
0000
0000
0000
0010
0000
0000
0100
0000
0000
0000
0000
0000
0110
0000
0000
,  // measure 46
0000
0010
0100
0001
0100
0001
1000
0100
0010
0000
0010
0001
0000
1000
0002
0000
,  // measure 47
0000
0000
1003
0000
0000
0110
0000
1001
0000
0000
0010
0000
1000
0100
0000
0000
,  // measure 48
0010
0001
1000
0001
1000
0100
1000
0100
0010
0001
0010
0001
0000
0000
0022
0000
,  // measure 49
0000
0033
0000
0000
;
