#TITLE:Itsuwari no Arcadia;
#SUBTITLE:;
#ARTIST:Yoko Natsukawa;
#TITLETRANSLIT:;
#SUBTITLETRANSLIT:;
#ARTISTTRANSLIT:;
#GENRE:;
#CREDIT:;
#BANNER:20140314002350!SP_JUVENILE_ROCK.png;
#BACKGROUND:;
#LYRICSPATH:;
#CDTITLE:;
#MUSIC:Itsuwari_no_Arcadia.ogg;
#OFFSET:-0.031000;
#SAMPLESTART:30.455999;
#SAMPLELENGTH:14.500000;
#SELECTABLE:YES;
#BPMS:0.000000=197.000000
;
#STOPS:
;
#BGCHANGES:;
#KEYSOUNDS:;
#ATTACKS:;

//---------------dance-single - ----------------
#NOTES:
     dance-single:
     :
     Beginner:
     2:
     0.086843,0.119111,0.000000,0.106383,0.000000,80.000000,80.000000,0.000000,14.000000,0.000000,0.000000,0.086843,0.119111,0.000000,0.106383,0.000000,80.000000,80.000000,0.000000,14.000000,0.000000,0.000000:
0000
0000
0000
0000
,
0000
0000
0000
0000
,
0000
0000
0000
0000
,
0000
0000
0000
0000
,
0000
0000
0000
0000
,
0000
0100
0000
0000
,
0000
0100
0000
0000
,
0000
0010
0000
0000
,
0000
0010
0000
0000
,
0000
2000
0000
0000
,
3000
0000
0000
0000
,
0000
0002
0000
0000
,
0003
0000
0000
0000
,
0000
1000
0000
0000
,
0000
1000
0000
0000
,
0000
0010
0000
0000
,
0000
0010
0000
0000
,
0000
0001
0000
0000
,
0000
1000
0000
0000
,
0000
0010
0000
0000
,
0000
0010
0000
0000
,
0000
0100
0000
0000
,
0000
0001
0000
0000
,
0000
0001
0000
0000
,
0000
1000
0000
0000
,
0000
0001
0000
0000
,
0000
0100
0000
0000
,
0000
0010
0000
0000
,
0000
0100
0000
0000
,
0000
0001
0000
0000
,
0000
1000
0000
0000
,
0000
0001
0000
0000
,
0000
0001
0000
0000
,
0000
0200
0000
0000
,
0300
0000
0000
0000
,
0000
0020
0000
0000
,
0030
0000
0000
0000
,
0000
0200
0000
0000
,
0300
0000
0000
0000
,
0000
0002
0000
0000
,
0003
0000
0000
0000
,
0000
1000
0000
0000
,
0000
1000
0000
0000
,
0000
0001
0000
0000
,
0000
1000
0000
0000
,
0000
0001
0000
0000
,
0000
0001
0000
0000
,
0000
0010
0000
0000
,
0000
0010
0000
0000
,
0000
0100
0000
0000
,
0000
0001
0000
0000
,
0000
1000
0000
0000
,
0000
0100
0000
0000
,
0000
0001
0000
0000
,
0000
0100
0000
0000
,
0000
1000
0000
0000
,
0000
0001
0000
0000
,
0000
1000
0000
0000
,
0000
1000
0000
0000
,
0000
0010
0000
0000
,
0000
0010
0000
0000
,
0000
0100
0000
0000
,
0000
0100
0000
0000
,
0000
0002
0000
0000
,
0003
0000
0000
0000
,
0000
2000
0000
0000
,
3000
0000
0000
0000
,
0000
0001
0000
0000
,
0000
0000
0000
0000
,
0000
1000
0000
0000
,
0000
0001
0000
0000
,
0000
1000
0000
0000
,
0000
0000
0000
0000
,
0000
0002
0000
0000
,
0003
0000
0000
0000
,
0000
0100
0000
0000
,
0000
0100
0000
0000
,
0000
0020
0000
0000
,
0030
0000
0000
0000
,
0000
2000
0000
0000
,
0000
0000
0000
3000
,
0000
0002
0000
0000
,
0000
0000
0000
0003
,
0000
1000
0000
0000
,
0000
0000
0000
0000
,
0000
0001
0000
0000
,
0000
0001
0000
0000
,
0000
1000
0000
0000
,
0000
0000
0000
0000
,
0000
1000
0000
0000
,
0000
0010
0000
0000
,
0000
0100
0000
0000
,
0000
0000
0000
0000
,
0000
0001
0000
0000
,
0000
0100
0000
0000
,
0000
0001
0000
0000
,
0000
0000
0000
0000
,
0000
0100
0000
0000
,
0000
0100
0000
0000
,
0000
0200
0000
0000
,
0300
0000
0000
0000
,
0000
0010
0000
0000
,
0000
0010
0000
0000
,
0000
0020
0000
0000
,
0000
0000
0030
0000
;

//---------------dance-single - ----------------
#NOTES:
     dance-single:
     :
     Easy:
     4:
     0.174772,0.238792,0.091185,0.167173,0.000000,161.000000,149.000000,12.000000,22.000000,0.000000,0.000000,0.174772,0.238792,0.091185,0.167173,0.000000,161.000000,149.000000,12.000000,22.000000,0.000000,0.000000:
0000
0000
0000
0000
,
0000
0000
0000
0000
,
0000
0000
0000
0000
,
0000
0000
0000
0000
,
0000
0000
0000
0000
,
0000
0100
0000
0010
,
0000
0100
0000
0000
,
0000
0010
0000
1000
,
0000
0010
0000
0000
,
0000
2000
0000
3000
,
0001
0000
0100
0000
,
0010
0200
0000
0300
,
0001
0000
1000
0000
,
0010
2000
0000
3000
,
0001
0000
0100
0000
,
0010
0200
0000
0000
,
0300
0010
0000
0110
,
0000
2002
0000
3003
,
1000
0000
0001
0000
,
0010
0000
0100
0000
,
0010
0000
0000
0000
,
0000
0100
0000
0000
,
0001
0000
1000
0000
,
0010
0000
0100
0000
,
0010
0000
1000
0000
,
0000
0001
0000
0000
,
0100
0000
0010
0000
,
1000
0000
0010
0000
,
1000
0000
0100
0000
,
0000
0001
0000
0000
,
0000
1000
0000
0000
,
0000
0101
0000
0000
,
1000
0000
0010
0000
,
0000
0200
0000
0000
,
0300
0010
0000
0100
,
0000
0002
0000
0000
,
0003
1000
0000
0010
,
0000
2000
0000
0000
,
3000
0001
0000
0010
,
0000
0002
0000
0000
,
0003
1000
0000
0010
,
0000
2000
0000
0000
,
3001
0000
0100
0000
,
0010
0000
0100
0000
,
0010
0000
1000
0000
,
0000
0002
0000
0000
,
0103
0000
0000
0010
,
0000
0220
0000
0000
,
0330
0010
0000
0000
,
0000
0100
0001
0000
,
0001
0000
0000
0000
,
0000
1000
0100
0000
,
1000
0000
0000
0000
,
0000
0010
0100
0000
,
0010
0000
0100
0000
,
0000
0002
0000
0003
,
0000
0200
0000
0300
,
0000
0010
1000
0000
,
0010
0000
0000
0000
,
0000
1001
0000
0000
,
0100
0000
0010
0000
,
0000
0110
0000
0000
,
0001
0000
1000
0000
,
0000
0010
0000
0010
,
0000
0100
0000
0100
,
0000
0002
0000
0003
,
0000
1000
0000
0000
,
0000
0001
0100
0000
,
0001
0000
0000
0000
,
0000
1000
0010
0000
,
0100
0000
0000
0000
,
0000
1000
0000
0001
,
0000
0100
0000
0000
,
0000
0202
0000
0000
,
0303
0000
0000
0000
,
0000
0110
0000
0100
,
0000
0010
0000
0000
,
0000
1100
0000
0000
,
0000
1000
0000
0000
,
0000
0011
0000
0000
,
0000
0001
0000
0000
,
0000
0200
0000
0000
,
0000
0010
0300
0000
,
0000
0001
0000
0100
,
0000
0010
0000
0010
,
0010
0010
0000
0000
,
1000
0000
0000
0000
,
0000
0001
0000
0000
,
0000
1001
0000
0000
,
0000
1000
0000
1000
,
0000
0010
0000
0000
,
0000
1001
0000
0000
,
1000
0000
0001
0000
,
0010
0000
0010
0000
,
0002
0000
0003
0000
,
0000
1000
1000
1000
,
0000
0001
0000
0000
,
0000
0100
0100
0100
,
0000
0010
0000
0000
,
0000
0100
0000
0000
,
0000
0100
0000
0001
,
0000
0100
0000
0000
,
0000
0001
0000
1000
,
0000
0002
0000
0000
,
0000
0000
0000
0003
;

//---------------dance-single - ----------------
#NOTES:
     dance-single:
     :
     Medium:
     6:
     0.265957,0.318389,0.113982,0.129179,0.000000,245.000000,230.000000,15.000000,17.000000,0.000000,0.000000,0.265957,0.318389,0.113982,0.129179,0.000000,245.000000,230.000000,15.000000,17.000000,0.000000,0.000000:
// measure 0
0000
0000
0000
0000
,  // measure 1
0000
0000
0000
0000
,  // measure 2
0000
0000
0000
0000
,  // measure 3
0000
0000
0000
0000
,  // measure 4
0000
0000
0000
0000
,  // measure 5
0000
0100
0000
0010
,  // measure 6
0000
0100
0000
0001
,  // measure 7
0000
0010
0000
1000
,  // measure 8
0000
0010
0000
0001
,  // measure 9
0000
1000
0000
1000
,  // measure 10
0001
0000
0100
0010
,  // measure 11
0000
0100
0000
0001
,  // measure 12
1000
0000
1000
0010
,  // measure 13
0000
2200
0000
3300
,  // measure 14
0000
0022
0000
0033
,  // measure 15
0000
0100
0000
0010
,  // measure 16
0000
1000
0000
0100
,  // measure 17
0000
0010
0000
0001
,  // measure 18
1000
0001
0000
1000
,  // measure 19
0010
0100
0000
0100
,  // measure 20
0000
0010
0000
0100
,  // measure 21
0000
0110
0000
0001
,  // measure 22
1000
0001
0000
1000
,  // measure 23
0000
0010
0000
0100
,  // measure 24
0010
0100
0000
0001
,  // measure 25
0000
1010
0000
1000
,  // measure 26
0100
1000
0000
0100
,  // measure 27
0000
1000
0000
0010
,  // measure 28
0000
1000
0100
1000
,  // measure 29
0000
0001
0000
0010
,  // measure 30
0001
0010
0000
0001
,  // measure 31
0000
0100
0010
1000
,  // measure 32
0000
0010
0100
0001
,  // measure 33
0000
0200
0000
0010
,  // measure 34
0300
0010
1000
0010
,  // measure 35
0000
0100
0000
0001
,  // measure 36
0000
1000
0010
0010
,  // measure 37
0000
2000
0000
0001
,  // measure 38
3000
0001
0010
0001
,  // measure 39
0000
0100
0010
0100
,  // measure 40
0000
0010
0000
1000
,  // measure 41
0000
0001
1000
0000
,  // measure 42
0001
0010
0100
0000
,  // measure 43
1000
0000
0100
0000
,  // measure 44
0010
0001
1000
0000
,  // measure 45
0000
0001
0100
0000
,  // measure 46
0100
0010
0000
0100
,  // measure 47
0100
0100
0000
0001
,  // measure 48
0001
0001
0000
0000
,  // measure 49
0000
0100
0000
0001
,  // measure 50
0010
0001
0000
2000
,  // measure 51
3000
0100
0000
0010
,  // measure 52
0001
0010
0000
0000
,  // measure 53
0000
0001
0010
0100
,  // measure 54
0000
1000
0000
0001
,  // measure 55
0000
0001
0010
0100
,  // measure 56
0000
0010
0000
0000
,  // measure 57
0000
0100
0000
1000
,  // measure 58
0000
0010
0010
0010
,  // measure 59
0000
1010
0000
0100
,  // measure 60
0000
0100
0100
0100
,  // measure 61
0000
0202
0000
0303
,  // measure 62
0000
0001
1000
0000
,  // measure 63
1000
0010
0100
0000
,  // measure 64
0001
0001
0000
1000
,  // measure 65
1000
1000
0000
0010
,  // measure 66
0100
0000
0010
0100
,  // measure 67
0000
0001
0100
0001
,  // measure 68
0100
0000
0001
0000
,  // measure 69
1000
1000
0000
0000
,  // measure 70
0010
0010
0000
0100
,  // measure 71
0000
0101
0000
0010
,  // measure 72
0000
1010
0000
0000
,  // measure 73
0000
0200
0000
0001
,  // measure 74
0300
0001
1000
0001
,  // measure 75
1000
0001
0000
2000
,  // measure 76
3000
0020
0030
0000
,  // measure 77
0000
2002
0000
0000
,  // measure 78
3003
1000
0000
0001
,  // measure 79
0000
0010
0000
0100
,  // measure 80
0000
1000
0000
0001
,  // measure 81
0000
0100
0100
0100
,  // measure 82
0000
0020
0000
0030
,  // measure 83
0000
1010
0000
0100
,  // measure 84
0000
0010
0100
0001
,  // measure 85
0000
0011
0000
1000
,  // measure 86
0000
0010
0100
0010
,  // measure 87
0000
0110
0000
0000
,  // measure 88
0000
0101
0000
0001
,  // measure 89
0000
1000
1000
1000
,  // measure 90
0000
0010
0010
0100
,  // measure 91
0000
0101
0000
0001
,  // measure 92
0000
1000
0100
0010
,  // measure 93
0000
0001
0000
1000
,  // measure 94
0000
0001
0100
0000
,  // measure 95
0100
0001
0000
1000
,  // measure 96
0000
1001
0000
0010
,  // measure 97
0010
0010
0000
0100
,  // measure 98
0000
0200
0000
0301
,  // measure 99
0000
0100
0000
0001
,  // measure 100
0100
0000
0100
0001
,  // measure 101
0000
1000
0000
0010
,  // measure 102
0100
0000
0010
1000
,  // measure 103
0000
0002
0000
0000
,  // measure 104
0000
0000
0000
0003
;

//---------------dance-single - ----------------
#NOTES:
     dance-single:
     :
     Hard:
     11:
     0.534086,0.596979,0.319149,0.273556,0.000000,492.000000,450.000000,42.000000,36.000000,0.000000,0.000000,0.534086,0.596979,0.319149,0.273556,0.000000,492.000000,450.000000,42.000000,36.000000,0.000000,0.000000:
0000
0000
0000
0000
,
0000
0000
0000
0000
,
0000
0000
0000
0000
,
0000
0000
0000
0000
,
0000
0000
0000
0000
,
0000
0000
0100
0000
0001
1000
0010
0100
,
0010
0000
0100
0000
0001
1000
0001
0100
,
0010
0100
0110
1001
,
1001
0000
0010
0100
0010
0100
0020
0000
,
0000
0030
1000
0000
0001
1000
0000
0001
,
1000
0020
0000
0000
0130
0000
0110
0000
,
0010
0000
1000
0000
0001
1000
0000
0001
,
0100
0010
0000
0010
0001
0000
0010
0000
,
1000
0100
0020
0000
0031
0020
0000
0030
,
0001
2000
0000
0000
3001
0000
1010
0000
,
0101
0200
0001
0320
,
0030
0020
0100
1030
,
0000
0000
0001
1000
0010
0100
0001
0000
,
1000
0001
0101
1000
,
0010
0001
0010
0000
1000
0100
0000
0100
,
1000
0000
0100
0001
0100
0000
0010
0000
,
0001
0100
0010
0100
0001
0000
1000
0000
,
1100
0000
0010
0100
0010
1000
0010
0000
,
0100
0000
0010
0000
0100
0010
0000
0010
,
0100
0000
0001
0100
0001
0100
0010
0000
,
0100
1010
0001
0011
,
0100
0000
1000
0100
0010
0000
0100
0000
,
1000
0001
1000
0000
0100
0001
0100
0000
,
0010
0001
0010
0000
0100
1000
0100
0000
,
0010
0000
0011
0000
0010
1000
0010
0000
,
0001
0100
0001
0000
1000
0001
0100
0000
,
0010
0000
0110
0000
0010
1000
0010
0000
,
0100
0001
0100
0000
0001
0000
0010
0000
,
0100
2000
0000
0100
,
3010
0001
1000
0110
,
0010
1000
0001
0100
,
0010
2000
0000
3001
,
0010
0200
0000
0301
,
0010
0100
0010
0100
,
1000
0011
0010
0100
,
0000
0000
1000
0010
0100
0010
1000
0000
,
0001
2001
0000
0000
,
3001
0000
0100
0010
0100
0010
0100
0000
,
0010
0100
0001
0000
0100
0000
0010
0100
,
0010
2020
3030
0202
,
0303
0000
0001
0100
0001
0000
0100
0010
,
0100
0010
1010
0110
,
0110
0102
0100
1003
,
0001
0000
0001
0100
0010
0100
0000
0000
,
0000
0000
0101
0000
0100
0001
0000
0010
,
0100
0010
0000
0000
1000
0000
1100
0000
,
0010
0000
0011
0000
1000
0001
1000
0000
,
0001
0100
0000
0100
0010
0000
0000
0000
,
0110
0000
1001
0000
0010
0100
0000
0010
,
0100
0010
0000
0000
0010
0000
0011
0000
,
1000
0000
1010
0000
0010
0100
0010
0000
,
0010
0001
0010
0000
1000
0100
1000
0000
,
0100
0010
0100
0000
0001
0010
0001
0000
,
0100
0010
0100
0000
1000
0010
1000
0000
,
0100
0000
0101
0000
0001
0100
0000
0001
,
0100
0001
0000
1000
0001
0000
0000
0000
,
0001
0000
1010
0000
1000
0010
0000
0100
,
0001
0100
0000
0000
1100
0000
0010
0000
,
0100
0010
0100
0000
0100
0000
0110
0000
,
0100
0120
0000
2030
,
0000
3000
0001
0000
0010
0100
1000
0000
,
0100
0020
0000
0000
0031
0000
0100
0010
,
0100
0000
0001
1000
0001
1000
0001
0100
,
0001
0100
0100
0010
,
2000
0000
3001
0000
0100
0001
0100
0000
,
0010
1000
0000
0010
1000
0000
0002
0000
,
2003
0000
3001
0100
0001
0000
0010
0100
,
0010
0002
0000
2003
,
0000
3010
0000
0100
,
0001
0000
0001
0000
1000
0100
1000
0010
,
0100
0002
0000
2003
,
0000
3020
0000
0130
,
0010
0200
0001
0001
,
0310
0000
0100
0001
0100
0000
0001
1000
,
0001
0100
0020
0000
0000
0000
0100
0000
,
0130
0001
1000
0001
,
1001
0000
0010
0000
1000
0000
0001
0100
,
0010
0000
0100
0001
0100
0001
0000
0000
,
0000
0000
1010
0000
0010
1000
0000
0010
,
1000
0001
0000
0000
0100
0000
0001
0100
,
0010
0000
0110
0000
0010
1000
0010
0000
,
0100
0001
0100
0000
0010
1000
0001
0000
,
1000
0001
0100
0000
0010
0100
0001
0000
,
1000
0000
2000
0000
0000
3000
0002
0000
,
0000
0003
1000
0000
0001
1000
0000
1000
,
0001
0000
0010
0100
0010
0000
0000
0000
,
0000
0000
0101
0000
0100
0001
0000
1000
,
0010
1000
0000
0000
0001
0000
0010
0000
,
0001
0000
0101
0000
0010
0100
0000
0001
,
0010
0100
0000
0000
1000
0000
0000
0000
,
0001
0100
0001
0000
1000
0010
0000
0000
,
0010
1000
0020
0000
0030
0000
0100
0000
,
0000
0110
0010
0110
,
0000
0000
0210
0000
0000
0000
0301
0100
,
0001
0000
0100
0000
0001
1000
0001
0100
,
0010
0000
1000
0010
0100
0000
0001
0000
,
1001
1000
0010
0010
,
0100
0001
1000
0000
0100
0010
0002
0000
,
0000
2003
0000
0000
,
0000
0000
0000
3000
;

//---------------dance-single - ----------------
#NOTES:
     dance-single:
     :
     Challenge:
     16:
     0.802215,0.915368,0.296353,0.288754,0.258359,739.000000,700.000000,39.000000,38.000000,0.000000,0.000000,0.802215,0.915368,0.296353,0.288754,0.258359,739.000000,700.000000,39.000000,38.000000,0.000000,0.000000:
0000
0000
0000
0000
,
0000
0000
0000
0000
,
0000
0000
0000
0000
,
0000
0000
0000
0000
,
0000
0000
0000
0000
,
0000
0000
0100
0000
0001
1000
0010
0100
,
0010
1000
1100
0000
0001
0100
0001
0010
,
1000
0010
0011
0000
0110
0000
1000
0100
,
1000
0000
0100
0000
0010
0000
0001
0000
0010
0000
0001
0000
0010
0001
0010
0001
,
0010
0100
0010
0100
1000
0000
0000
0000
0001
0000
1000
0000
0100
0000
0010
0000
,
1000
0020
0000
0000
0031
0100
0010
1000
,
0010
0000
1000
0000
1000
0100
0010
0001
,
0100
0010
0000
0010
0001
0000
0010
0000
,
1000
0100
2100
0000
3001
0011
0000
0001
,
0001
0000
1000
0000
1000
0000
0000
0000
0001
0000
0000
0000
1000
0000
0000
0100
,
0000
0010
0002
0000
0100
0003
1020
0000
,
1030
0000
0000
0000
0010
0000
0100
0000
0010
0000
1000
0000
0001
1000
0001
1000
,
0001
0000
1000
0100
0010
0100
0000
0010
,
0001
1000
0001
0100
0000
0010
0000
1000
,
0010
0001
0010
1000
0000
0100
0010
0100
,
0001
0000
0100
0000
1000
0000
1000
0000
0001
0100
0010
0000
0000
0000
0100
0000
,
0010
1000
0110
0100
0002
2003
3000
0010
,
1000
0000
0010
0000
0100
0010
0100
0000
0010
0000
1000
0000
0000
0000
0010
0000
,
1000
0001
0010
0100
0010
0001
0000
0010
,
0100
0000
1100
0100
0101
0100
0000
0010
,
0100
0000
0001
0000
1010
0000
0000
0000
0001
0000
1000
0000
0001
0100
0001
0000
,
0100
0000
0100
0000
0001
0100
0010
0000
0100
0000
0010
0000
0000
0000
0100
0000
,
1001
0010
0100
0000
0100
0001
0000
0001
,
1000
0000
0001
0100
0010
0000
0100
0010
0100
0000
0001
0000
0000
0000
0100
0000
,
0010
1000
1001
0000
0010
1000
0000
0010
,
0100
0010
0010
0100
0100
0020
0030
0100
,
0010
0000
1000
0010
0100
0000
0010
0000
0100
0000
0001
0000
0000
0000
0001
0000
,
0010
0000
0001
0100
0001
0000
1000
0000
0100
0000
0010
0000
0000
0000
0001
0000
,
0101
0001
2002
0000
0003
0000
0100
0000
,
3010
0000
1000
0010
1000
0100
0010
0001
,
0010
1000
0010
0001
1000
0100
0001
0100
,
1000
0010
0010
1000
0100
0001
0001
0100
,
1000
0000
0200
0000
0310
0010
0001
0001
,
0010
0010
0100
1000
0010
0100
0001
1000
,
1000
0010
0200
0300
0010
0010
0100
0000
,
0010
0000
0200
0000
0300
0000
0010
0000
0100
0000
0010
0000
0100
0001
0100
0000
,
0001
0010
0001
0000
0011
0000
0000
0000
0001
0000
0000
0000
1000
0000
0100
0000
,
0010
0000
0001
0010
0001
0010
0100
1000
,
0010
0100
0101
0000
0010
0100
0000
0100
,
0010
0001
1001
0100
0101
0000
0001
0100
,
0010
1000
1001
0000
0101
0000
0200
0300
,
0020
0030
0100
0010
0100
0001
0010
0001
,
1000
0000
0100
0000
2000
0000
0000
0000
3100
0000
1000
0000
0100
1000
0100
0000
,
1000
0000
0100
0000
0010
0000
0001
0000
0100
0000
0010
0000
1000
0100
1000
0100
,
0010
0000
0001
0000
0100
0002
0003
0010
,
0100
0000
0010
0000
0100
1000
0100
0000
1000
0000
0000
0000
0100
0000
0010
0000
,
0001
0000
0000
0000
0101
0000
0100
0000
0010
0000
0100
0000
0001
0100
0001
0000
,
0100
0100
0010
0010
0100
0010
0000
0010
,
0100
0001
1001
0100
0010
0100
0000
0010
,
1000
0001
0000
1000
0010
0000
0020
0030
,
0200
0300
0010
0100
0010
0010
0000
1000
,
0010
0000
0100
0000
0001
0100
0001
0000
1000
0000
0100
0000
1000
0100
1000
0100
,
0010
0001
1000
0000
0100
0000
0000
0000
0010
0000
0001
0000
1000
0000
0010
0100
,
0010
0100
0100
0000
0010
0010
1000
0000
,
0100
0000
0010
0000
0011
0000
0000
0000
0001
0000
0100
0000
0000
0000
0001
0100
,
0001
0100
0001
1000
0001
0000
0000
1000
,
0100
0010
0001
0000
1000
0000
0000
0000
1000
0000
0010
0000
0100
0000
0010
0000
,
0010
0000
0200
0000
0000
0000
0300
0000
0010
0000
0000
0000
0200
0300
0000
0020
,
0030
0000
0000
0000
0000
0000
0200
0000
0000
0300
0000
0000
0020
0000
0000
0000
0030
0000
0000
0000
0000
0000
0000
0000
0100
0000
0000
0000
0000
0000
0000
0000
0000
0000
0000
0000
0010
0000
0000
0000
0000
0000
0100
0000
0000
0000
0000
0000
,
0110
0000
0000
0000
1000
0000
0010
0000
0100
0000
0001
0000
1000
0100
1000
0000
,
0001
0010
0001
0010
0001
0000
1000
0000
0100
0000
0010
0000
0010
0000
0001
0000
,
0100
0020
0000
0000
1030
0000
0010
0100
,
0001
0000
0001
0010
1000
0010
0001
0100
,
0001
0200
0300
0010
0200
0000
0302
0000
,
1003
0100
0010
0001
0001
1000
1000
0010
,
0100
0002
0000
0003
0010
0001
2000
3000
,
0020
0000
0030
0000
0100
0000
0010
0000
1000
0000
0001
0010
0100
0000
1000
0000
,
0010
0000
0100
0000
0001
0010
0001
0010
0001
1000
0100
1000
0100
1000
0001
0100
,
0001
0200
0310
0101
,
1000
0000
1010
0010
1000
0100
1000
0010
,
0100
0000
0002
0000
0103
0020
0000
1030
,
1000
0000
0100
0000
0010
0100
0010
0000
0100
0000
0010
0000
0001
0000
1000
0000
,
0010
0100
0110
0000
0101
0000
1000
0010
,
0100
0000
0001
0000
0101
0000
0001
1000
,
0001
1000
0200
0000
0310
0000
0011
0000
,
0100
0010
0100
0000
0001
1000
0001
0000
,
1100
0000
0010
0010
1000
0000
0001
0100
,
0100
0000
0000
0000
0010
0000
0100
0000
0010
0000
0101
0000
0000
0000
0001
0100
,
0001
1000
0001
0000
1000
0000
0100
0000
0100
0000
0010
0000
0001
0000
1000
0000
,
0010
0000
0100
0000
0001
0000
0000
0000
0100
0000
0000
0000
0001
0000
0100
0010
,
0100
0000
0000
0000
0110
0000
0000
0000
0010
0000
1000
0000
0010
0100
0010
0000
,
0100
0001
0000
0001
1000
0010
0000
0100
,
0010
0000
0100
0000
0001
0000
0000
0000
1000
0000
0010
0100
0001
0000
1000
0000
,
0001
0000
0000
2000
0000
0000
0000
0000
0000
0000
0000
0000
0001
0000
0000
3000
0000
0000
0001
0000
0000
0000
0100
0000
,
0000
0000
0010
0000
0000
0000
1000
0000
0000
0001
0000
0000
0100
0000
0000
0001
0000
0000
0100
0000
0000
1000
0000
0000
,
0100
0000
0001
0000
0010
0000
1000
0000
0010
0000
0001
0000
0100
0001
0100
0001
,
0100
0001
0100
0000
0001
0000
0000
0000
0100
0000
0001
0000
0000
0000
1000
0000
,
0010
1000
0010
0000
0100
0000
0000
0000
0010
0000
0100
0000
0010
0000
0100
0000
,
0001
0000
0101
0001
0100
0010
0000
1000
,
0010
0000
0100
0000
0000
0000
0010
0000
1000
0000
0000
0000
0001
1000
0001
1000
,
0001
0100
0001
0100
0001
0000
0000
0000
1000
0000
0010
0000
0010
0000
0100
0000
,
0100
0000
0001
0100
0001
0000
0000
0000
0100
0000
0000
0000
0110
0000
0000
0110
,
0000
0110
0110
0000
0010
1000
0010
0100
,
0001
0000
0100
0000
0020
0000
1030
0000
0100
0000
1000
0000
0001
0010
0100
0010
,
0001
0010
0001
0010
0001
0000
0000
0000
1000
0000
1000
0000
0001
0000
0100
0010
,
0100
0000
0010
0000
1000
0000
0010
0000
0100
0000
0001
0010
0001
0000
1000
0000
,
1100
0100
0020
0031
0001
0000
0010
0010
,
0001
0000
1000
0000
0100
0000
0001
0000
0100
0000
0010
0000
0100
1000
0001
0010
,
0001
1000
0100
1000
0200
0000
0000
0000
0000
0000
0000
0000
0000
0000
0000
0000
,
0000
0000
0000
0300
;
