#VERSION:0.83;
#TITLE:It's Over;
#SUBTITLE:;
#ARTIST:Eric Bellinger;
#TITLETRANSLIT:;
#SUBTITLETRANSLIT:;
#ARTISTTRANSLIT:;
#GENRE:;
#ORIGIN:;
#CREDIT:;
#BANNER:;
#BACKGROUND:;
#PREVIEWVID:;
#JACKET:;
#CDIMAGE:;
#DISCIMAGE:;
#LYRICSPATH:;
#CDTITLE:;
#MUSIC:Eric-Bellinger- It's Over-RnB.ogg;
#OFFSET:-0.071000;
#SAMPLESTART:64.749001;
#SAMPLELENGTH:15.000000;
#SELECTABLE:YES;
#BPMS:0.000=128.000;
#STOPS:;
#DELAYS:;
#WARPS:;
#TIMESIGNATURES:0.000=4=4;
#TICKCOUNTS:0.000=4;
#COMBOS:0.000=1;
#SPEEDS:0.000=1.000=0.000=0;
#SCROLLS:0.000=1.000;
#FAKES:;
#LABELS:0.000=Song Start;
#BGCHANGES:;
#KEYSOUNDS:;
#ATTACKS:
;

//---------------dance-single - ----------------
#NOTEDATA:;
#CHARTNAME:;
#STEPSTYPE:dance-single;
#DESCRIPTION:;
#CHARTSTYLE:;
#DIFFICULTY:Beginner;
#METER:2;
#RADARVALUES:0.090743,0.129025,0.052933,0.052933,0.000000,72.000000,66.000000,6.000000,6.000000,0.000000,0.000000,0.000000,0.000000,0.000000,0.090743,0.129025,0.052933,0.052933,0.000000,72.000000,66.000000,6.000000,6.000000,0.000000,0.000000,0.000000,0.000000,0.000000;
#CREDIT:;
#NOTES:
0000
0000
0000
0000
,
0000
0000
0000
0000
,
0000
0000
0100
0000
,
0000
0000
0010
0000
,
0000
0000
1000
0000
,
0000
0000
0001
0000
,
0000
0000
1000
0000
,
0001
0000
1000
0000
,
0000
0000
0001
0000
,
0100
0000
0001
0000
,
0000
0000
0110
0000
,
0000
0000
0001
0000
,
0000
0000
1000
0000
,
0000
0000
0010
0000
,
0000
0000
1000
0000
,
0000
0000
0001
0000
,
0000
0000
0100
0000
,
0000
0000
0010
0000
,
0010
0000
1000
0000
,
0000
0000
0001
0000
,
0000
0000
0110
0000
,
0000
0000
1000
0000
,
0000
0000
0001
0000
,
1000
0000
0001
0000
,
0000
0000
0010
0000
,
0100
0000
0010
0000
,
0000
0000
2100
0000
,
0000
3000
0001
0000
,
0000
0000
0201
0000
,
0000
0300
0010
0000
,
0000
0000
1000
0000
,
0001
0000
0100
0000
,
0001
0000
1000
0000
,
0000
0000
0001
0000
,
0000
0000
0110
0000
,
0000
0000
1000
0000
,
0000
0000
0001
0000
,
0000
0000
0100
0000
,
0000
0000
0001
0000
,
0000
0000
1000
0000
,
0000
0000
0001
0000
,
0010
0000
0001
0000
,
0000
0000
0220
0000
,
0000
0000
0330
0000
,
0000
0000
2000
0000
,
0000
3000
0001
0000
,
0000
0000
0002
0000
,
0000
0003
1000
0000
,
0000
0000
0010
0000
,
0000
0000
0010
0000
,
0010
0000
0010
0000
,
0000
0000
0001
0000
,
0000
0000
1000
0000
,
0000
0000
0010
0000
,
0000
0000
0001
0000
,
0000
0000
1000
0000
,
0000
0000
0010
0000
,
0100
0000
0010
0000
,
0000
0000
1000
0000
;

//---------------dance-single - ----------------
#NOTEDATA:;
#CHARTNAME:;
#STEPSTYPE:dance-single;
#DESCRIPTION:;
#CHARTSTYLE:;
#DIFFICULTY:Easy;
#METER:4;
#RADARVALUES:0.194089,0.232245,0.097045,0.070578,0.000000,154.000000,143.000000,11.000000,8.000000,0.000000,0.000000,0.000000,0.000000,0.000000,0.194089,0.232245,0.097045,0.070578,0.000000,154.000000,143.000000,11.000000,8.000000,0.000000,0.000000,0.000000,0.000000,0.000000;
#CREDIT:;
#NOTES:
0000
0000
0000
0000
,
0000
0000
0000
0000
,
0000
0000
1000
0001
,
0000
0001
0100
0010
,
0000
1000
0200
0010
,
0000
0310
0001
1000
,
0000
1000
0001
0100
,
0100
0100
0001
0001
,
0001
0000
1000
1000
,
0100
0100
0010
0010
,
0001
0000
1001
0000
,
0001
0100
0010
0000
,
0010
1000
0001
0000
,
0001
0010
0100
0000
,
0010
0100
1000
0000
,
0001
0010
0001
0000
,
1000
0100
1000
0000
,
0010
0000
0100
0000
,
0001
0000
1001
0000
,
0100
0000
0001
1000
,
0010
0000
1000
0001
,
0100
0000
0001
0010
,
0001
0000
0100
0000
,
0010
0000
1001
0000
,
0001
0000
2100
0000
,
3001
0000
0001
0001
,
0001
1000
2001
0000
,
3001
0000
0010
0000
,
0100
0000
1001
0000
,
0001
0000
0100
0000
,
0010
0000
0100
0100
,
0001
0000
0010
0010
,
0100
0000
0100
0100
,
0001
0000
2000
0000
,
3001
0000
1001
0000
,
0100
0000
0001
0000
,
1000
0000
0001
0010
,
0100
0000
0100
1000
,
0001
0000
1000
0000
,
1000
0000
0001
0000
,
0001
0000
0100
0000
,
0010
0000
1000
1000
,
1000
0000
1002
0000
,
0000
0000
1003
0000
,
0001
1000
0200
0000
,
0010
0000
0310
0000
,
0001
0000
0100
0000
,
0110
0000
0001
0000
,
1001
0000
0200
0000
,
0310
0000
0020
0000
,
0130
0000
1001
0000
,
0010
0000
1000
0000
,
0001
0000
1000
0100
,
0001
0000
0100
1000
,
0010
0000
0100
0000
,
0100
0000
0010
0000
,
0010
0000
1000
0000
,
0001
0000
0010
0010
,
0010
0000
0100
0000
;

//---------------dance-single - ----------------
#NOTEDATA:;
#CHARTNAME:;
#STEPSTYPE:dance-single;
#DESCRIPTION:;
#CHARTSTYLE:;
#DIFFICULTY:Medium;
#METER:8;
#RADARVALUES:0.340286,0.335465,0.158800,0.158800,0.004411,270.000000,252.000000,18.000000,18.000000,0.000000,0.000000,0.000000,0.000000,0.000000,0.340286,0.335465,0.158800,0.158800,0.004411,270.000000,252.000000,18.000000,18.000000,0.000000,0.000000,0.000000,0.000000,0.000000;
#CREDIT:;
#NOTES:
0000
0000
0000
0000
,
0000
0000
0101
1010
,
0202
0003
0301
1000
,
0000
0110
0000
0011
,
0000
1100
0002
1000
,
0003
1100
0000
0110
,
0000
0000
0011
0000
1000
0001
0100
0000
,
0100
0001
1000
0000
0010
0000
0010
0000
,
1000
0000
1000
0000
0001
0100
0001
0000
,
0100
0010
0100
0000
0010
0000
0100
0000
,
0020
0000
0030
0000
0110
0000
0000
1000
,
0001
0100
0001
0200
0000
0300
0000
0010
,
0100
0010
2000
0000
3000
0000
0000
0001
,
0100
0001
0200
0000
0300
0000
0000
1000
,
0010
1000
0002
0000
1003
0000
0000
0010
,
0100
0001
1000
0200
0000
0300
0000
0010
,
0001
0100
0001
0000
0001
0000
0100
0010
,
1000
0000
0010
0000
0100
0010
0100
0000
,
0010
0100
0001
0000
1001
0000
0001
0100
,
0001
0000
1000
0000
0010
0000
0100
0010
,
1000
0000
0100
0010
0100
0000
0100
0010
,
0001
0000
1000
0000
0001
0000
0100
0001
,
0100
0010
0100
0001
,
1000
1000
0101
0001
,
0100
0010
2010
0000
,
3010
0000
0000
0100
0000
0000
0000
0000
0001
0000
0100
0000
0001
0000
0000
0000
,
1000
0010
1000
0000
0001
0100
0000
0100
,
0000
0010
1000
0001
0000
1000
0000
0000
,
0010
0100
0010
0100
0000
0001
0000
1000
,
0000
0100
0000
0010
0000
0002
0000
0000
,
1003
0001
1000
0001
0000
0100
0000
0010
,
0000
1000
0001
1000
0000
0001
0000
0010
,
0000
0100
0000
1000
0000
0001
1000
0001
,
0000
0001
1000
0010
0000
1000
0001
0100
,
0000
0100
0000
0000
0101
0000
0001
0000
,
1000
0100
0010
0001
,
0100
0000
0010
0000
1000
0001
1000
0010
,
2000
0000
3001
0000
0100
0001
0100
0000
,
0001
1000
0001
0100
,
0010
1000
0010
0010
,
0100
0001
2000
0000
,
3001
0000
0001
0100
,
0001
0100
0001
0000
2001
0000
0000
0000
,
0001
0000
0010
0000
,
3001
0000
0002
0000
,
0100
0000
0010
0000
,
1003
0000
0000
0000
0100
0010
0000
1000
,
0000
0001
0100
0001
0000
1000
0000
0001
,
0000
0100
0000
0010
0000
1000
0010
0100
,
0000
0001
0010
0001
0000
0010
0001
0010
,
0100
1000
0000
0000
1001
0000
0100
0000
,
0010
0110
1000
0001
,
0001
0000
0100
0000
0010
1000
0010
1000
,
0002
0000
0103
0000
0010
0100
0001
0100
,
0020
1030
0001
1000
,
1000
0001
0101
0001
,
1000
0000
0010
0100
0000
0010
0100
0001
,
0000
1000
0001
1000
0000
0100
0010
0100
,
0010
0002
0000
0000
1003
0000
0000
0000
;

//---------------dance-single - ----------------
#NOTEDATA:;
#CHARTNAME:;
#STEPSTYPE:dance-single;
#DESCRIPTION:;
#CHARTSTYLE:;
#DIFFICULTY:Hard;
#METER:12;
#RADARVALUES:0.528074,0.548853,0.158800,0.185267,0.158800,419.000000,401.000000,18.000000,21.000000,0.000000,0.000000,0.000000,0.000000,0.000000,0.528074,0.548853,0.158800,0.185267,0.158800,419.000000,401.000000,18.000000,21.000000,0.000000,0.000000,0.000000,0.000000,0.000000;
#CREDIT:;
#NOTES:
// measure 0
0000
0000
0000
0000
,  // measure 1
0000
0000
0100
0010
,  // measure 2
1000
0001
1000
0001
1000
0001
1000
0000
0001
0000
0000
0000
0001
0000
0100
0000
,  // measure 3
0000
0100
0010
1000
1000
0100
0010
0001
,  // measure 4
0000
1000
0100
1000
0200
0000
0310
0001
,  // measure 5
0010
0000
0100
0010
0100
1000
0001
0001
,  // measure 6
0100
0010
2000
0000
3001
0001
0100
0100
,  // measure 7
0010
0010
1000
1000
0001
0010
0001
0010
,  // measure 8
0001
0010
0010
0001
1000
0100
1000
0100
,  // measure 9
1000
0010
0100
0010
0100
0000
0011
0000
,  // measure 10
0001
0100
0001
0100
0001
0100
0010
0000
1000
0000
0000
0000
0000
0000
0100
0000
,  // measure 11
0001
1000
0100
0010
0011
0000
0001
0100
,  // measure 12
0010
1000
0200
0000
0310
0000
0001
0100
,  // measure 13
0001
0010
0001
0000
1100
0000
0100
1000
,  // measure 14
0010
0100
0010
0000
1100
0000
0001
0010
,  // measure 15
0100
0010
0100
1000
1001
0000
0001
0001
,  // measure 16
1000
0100
0010
0001
2000
0000
3010
0100
,  // measure 17
0002
0000
1003
0100
0010
1000
0010
0000
,  // measure 18
0001
0000
0001
0000
1000
0000
0001
0100
0001
0000
0000
0000
0100
0000
0010
0000
,  // measure 19
0100
0000
0000
0000
0010
0100
0001
0100
0001
0000
1000
0000
0100
0000
0010
0000
,  // measure 20
0001
0000
0000
0000
1000
0001
0000
1000
0000
0001
0010
0001
0010
0000
0001
0000
,  // measure 21
1000
0000
0000
0000
1000
0001
0000
0100
0000
0001
0010
0001
0010
0000
0001
0000
,  // measure 22
0200
0000
0300
0000
0010
0100
0000
0010
0100
0000
0000
0000
0001
1000
0001
0000
,  // measure 23
0100
0000
0010
0000
1000
0000
0000
0000
1001
0000
0000
0000
0001
0100
0001
0000
,  // measure 24
1000
0000
0010
0000
0100
0000
0000
0000
0001
0100
0001
0100
0001
0000
1000
0001
,  // measure 25
1000
0000
0010
0100
0000
0001
0000
1000
0100
0000
1000
0000
0100
0000
0010
0000
,  // measure 26
0001
0001
0001
1000
0002
0100
0100
0100
,  // measure 27
0003
0010
0001
0010
0000
0100
1000
0100
,  // measure 28
0100
0100
0010
0001
1001
1000
0010
0100
,  // measure 29
0000
0001
0010
0200
0000
1300
0100
0000
,  // measure 30
0110
0010
0001
1000
0000
0100
0000
0010
,  // measure 31
0001
0010
0100
1000
0000
0010
0000
0100
,  // measure 32
0001
1000
0010
0200
0300
0010
0100
0020
,  // measure 33
0030
0100
0001
1001
0000
1000
0010
0100
,  // measure 34
0001
0020
0000
0030
1100
0000
0010
1000
,  // measure 35
0100
0000
0000
0000
0101
0000
0000
0000
0100
0000
0000
0100
0001
0000
1000
0000
,  // measure 36
0010
0000
0110
0000
1000
0010
0110
0001
,  // measure 37
0100
0000
0101
0000
0010
1000
0010
1000
,  // measure 38
0001
0000
0100
0010
1000
0010
0010
0010
,  // measure 39
0000
1000
0001
0100
0001
0100
0100
0100
,  // measure 40
0000
0010
0100
0000
0001
0000
1000
0000
0200
0000
0000
0000
0310
0000
0010
0000
,  // measure 41
0012
0000
1003
0100
1000
0010
1000
0001
,  // measure 42
0100
0020
0000
0000
2030
0000
0000
0001
,  // measure 43
0000
3001
0100
0001
0000
1000
0000
0010
,  // measure 44
0100
0010
1000
0002
0000
0100
0100
0103
,  // measure 45
0000
0010
1000
0010
0010
0001
0010
0010
,  // measure 46
0001
0010
1000
0100
0100
0010
0100
0001
,  // measure 47
0100
0010
0100
0100
0001
0100
0100
1000
,  // measure 48
1001
0000
0001
2000
0000
0010
0010
0010
,  // measure 49
0000
0100
0100
3100
0000
0001
0100
0010
,  // measure 50
0100
0000
0002
0000
1000
0000
0003
0000
1001
0000
0000
0001
1000
0000
0010
0000
,  // measure 51
0100
0000
0001
0000
1000
0000
0000
0000
1000
0000
0000
0001
0100
0000
0010
0000
,  // measure 52
1000
0100
0110
0000
0001
0010
0100
1000
,  // measure 53
0001
0100
0001
0000
1000
0100
0010
0001
,  // measure 54
1000
0010
0100
0002
0000
0103
0000
0100
,  // measure 55
0000
0010
1000
0010
0000
0001
0000
0010
,  // measure 56
0000
1000
0100
0000
0010
0000
0002
0000
0000
0000
1003
0000
0010
0000
0100
0000
,  // measure 57
0010
0010
1000
0100
0010
0001
0010
0100
,  // measure 58
0010
0001
0010
0001
0010
0001
0100
0010
0200
0000
0000
0000
0000
0000
0000
0000
,  // measure 59
0000
0300
0000
0000
;
