#VERSION:0.83;
#TITLE:Intersection;
#SUBTITLE:;
#ARTIST:Akinari;
#TITLETRANSLIT:;
#SUBTITLETRANSLIT:;
#ARTISTTRANSLIT:;
#GENRE:;
#ORIGIN:;
#CREDIT:from pop n music 20;
#BANNER:PHASING_POP.png;
#BACKGROUND:;
#PREVIEWVID:;
#JACKET:;
#CDIMAGE:;
#DISCIMAGE:;
#LYRICSPATH:;
#CDTITLE:;
#MUSIC:Akinari - Intersection.ogg;
#OFFSET:-0.360000;
#SAMPLESTART:58.097000;
#SAMPLELENGTH:16.100000;
#SELECTABLE:YES;
#BPMS:0.000=133.000;
#STOPS:;
#DELAYS:;
#WARPS:;
#TIMESIGNATURES:0.000=4=4;
#TICKCOUNTS:0.000=4;
#COMBOS:0.000=1;
#SPEEDS:0.000=1.000=0.000=0;
#SCROLLS:0.000=1.000;
#FAKES:;
#LABELS:0.000=Song Start;
#BGCHANGES:;
#KEYSOUNDS:;
#ATTACKS:
;

//---------------dance-single - ----------------
#NOTEDATA:;
#CHARTNAME:;
#STEPSTYPE:dance-single;
#DESCRIPTION:;
#CHARTSTYLE:;
#DIFFICULTY:Beginner;
#METER:1;
#RADARVALUES:0.069784,0.106120,0.025267,0.025267,0.000000,58.000000,55.000000,3.000000,3.000000,0.000000,0.000000,0.000000,0.000000,0.000000,0.069784,0.106120,0.025267,0.025267,0.000000,58.000000,55.000000,3.000000,3.000000,0.000000,0.000000,0.000000,0.000000,0.000000;
#CREDIT:;
#NOTES:
0000
0000
0000
0000
,
0000
0000
0000
0000
,
0000
0000
0000
0000
,
0000
0000
0000
0000
,
0001
0000
0000
0000
,
1000
0000
0000
0000
,
0001
0000
0000
0000
,
0100
0000
0000
0000
,
0010
0000
0000
0000
,
1000
0000
0000
0000
,
0001
0000
0000
0000
,
0100
0000
0000
0000
,
0010
0000
0000
0000
,
1000
0000
0000
0000
,
0001
0000
0000
0000
,
0100
0000
0000
0000
,
0001
0000
0000
0000
,
1000
0000
0000
0000
,
0100
0000
0000
0000
,
0100
0000
0000
0000
,
0010
0000
0000
0000
,
0010
0000
0000
0000
,
0001
0000
0000
0000
,
0100
0000
0000
0000
,
0110
0000
0000
0000
,
0000
0000
0000
0000
,
0100
0000
0000
0000
,
0100
0000
0000
0000
,
0010
0000
0000
0000
,
0001
0000
0000
0000
,
2000
0000
0000
0000
,
3000
0000
0000
0000
,
0001
0000
0000
0000
,
0100
0000
0000
0000
,
0001
0000
0000
0000
,
1000
0000
0000
0000
,
0100
0000
0000
0000
,
1000
0000
0000
0000
,
0010
0000
0000
0000
,
1000
0000
0000
0000
,
0001
0000
0000
0000
,
0101
0000
0000
0000
,
0001
0000
0000
0000
,
0010
0000
0000
0000
,
0010
0000
0000
0000
,
1000
0000
0000
0000
,
0100
0000
0000
0000
,
0010
0000
0000
0000
,
0001
0000
0000
0000
,
0000
0000
0000
0000
,
1001
0000
0000
0000
,
1000
0000
0000
0000
,
0001
0000
0000
0000
,
1000
0000
0000
0000
,
0010
0000
0000
0000
,
0100
0000
0000
0000
,
0002
0000
0000
0000
,
0003
0000
0000
0000
,
2000
0000
0000
0000
,
3000
0000
0000
0000
,
0010
0000
0000
0000
,
0010
0000
0000
0000
,
0100
0000
0000
0000
,
0100
0000
0000
0000
;

//---------------dance-single - ----------------
#NOTEDATA:;
#CHARTNAME:;
#STEPSTYPE:dance-single;
#DESCRIPTION:;
#CHARTSTYLE:;
#DIFFICULTY:Easy;
#METER:4;
#RADARVALUES:0.174461,0.215610,0.067378,0.042111,0.000000,145.000000,137.000000,8.000000,5.000000,0.000000,0.000000,0.000000,0.000000,0.000000,0.174461,0.215610,0.067378,0.042111,0.000000,145.000000,137.000000,8.000000,5.000000,0.000000,0.000000,0.000000,0.000000,0.000000;
#CREDIT:;
#NOTES:
0000
0000
0000
0000
,
0000
0000
0000
0000
,
0000
0000
0000
0000
,
0000
0000
0000
0000
,
0001
1000
0010
0000
,
1000
0001
0100
0000
,
0001
0001
1000
0000
,
0001
0001
0100
0000
,
0010
0010
1000
0000
,
0010
0010
0001
0000
,
0010
1000
0001
0000
,
1000
0000
0001
0000
,
0100
0010
0010
0000
,
1000
0001
1000
0000
,
0001
1000
0001
0000
,
1000
0001
0100
0000
,
0001
0001
0001
0000
,
1000
1000
1000
0000
,
0010
0010
0010
0010
,
0010
0000
0000
0000
,
1000
1000
1000
1000
,
1000
0000
0000
0000
,
0001
0001
0001
0001
,
0001
0000
0100
0000
,
0101
0000
0001
0000
,
1000
0000
0000
0000
,
0010
0000
1000
0000
,
0001
0000
0000
0000
,
1000
0001
0000
0000
,
1000
0001
0000
0000
,
1000
0001
1000
0000
,
0001
0000
0001
0001
,
0001
0000
0000
0000
,
1001
0000
0000
0000
,
0110
0000
0000
0000
,
0002
0000
1003
0000
,
1001
0000
0100
0000
,
0110
0000
0010
0000
,
1010
0000
0100
0000
,
0101
0000
0001
0000
,
2000
0000
0000
0000
,
3002
0000
0000
0000
,
0203
0000
0000
0000
,
0320
0000
0000
0000
,
1030
0000
0001
0000
,
1000
0001
1000
0000
,
0010
1000
0010
0000
,
1000
0000
0001
0000
,
0100
0010
0100
0000
,
0010
1000
0010
0000
,
0100
0000
0001
0000
,
0100
0010
1000
0000
,
0001
0010
0100
0000
,
0010
0000
0001
0000
,
1000
0100
0010
0000
,
0100
0100
1000
0000
,
1000
0000
0000
0000
,
0001
0000
0000
0000
,
0100
0000
0100
0000
,
0100
0000
0001
0000
,
0001
0000
0001
0000
,
1000
0000
0100
0000
,
0010
0000
0001
0000
,
1100
0000
0001
0000
,
0100
0000
0000
0000
;

//---------------dance-single - ----------------
#NOTEDATA:;
#CHARTNAME:;
#STEPSTYPE:dance-single;
#DESCRIPTION:;
#CHARTSTYLE:;
#DIFFICULTY:Medium;
#METER:9;
#RADARVALUES:0.394643,0.376580,0.101067,0.067378,0.349524,328.000000,316.000000,12.000000,8.000000,0.000000,0.000000,0.000000,0.000000,0.000000,0.394643,0.376580,0.101067,0.067378,0.349524,328.000000,316.000000,12.000000,8.000000,0.000000,0.000000,0.000000,0.000000,0.000000;
#CREDIT:;
#NOTES:
0000
0000
0000
0000
,
0000
0000
0000
0000
,
0000
0000
0000
0000
,
0000
0000
0000
0000
,
0001
0000
0000
0000
1000
0000
0000
0010
0000
0000
0010
0000
0000
0010
0000
0000
,
1000
0000
0000
0000
0001
0000
0000
0100
0000
0000
0100
0000
0000
0100
0000
0000
,
0001
0000
0000
0000
1000
0000
0000
0010
0000
0000
0010
0000
0000
0010
0000
0000
,
0100
0000
0000
0000
0100
0000
0000
0001
0000
0000
0001
0000
0001
0000
0000
0000
,
1000
0000
0000
0000
0010
0000
0000
0100
0000
0000
0010
0000
0000
0100
0000
0000
,
0010
0000
0000
0000
1000
0000
0000
0001
0000
0000
1000
0000
0000
0001
0000
0000
,
0100
0000
0000
0000
0010
0000
0000
0100
0000
0000
0001
0000
0000
0100
0000
0000
,
0010
0000
0000
0000
0010
0000
0000
1000
0000
0000
0001
0000
0000
0100
0000
0000
,
0010
0000
0000
0000
0100
0000
0000
0100
0000
0000
0100
0000
0000
0010
0000
0000
,
1000
0000
0000
0000
0001
0000
0000
0001
0000
0000
1000
0000
0001
0000
0000
0000
,
0001
0000
0000
0000
1000
0000
0000
0010
0000
0000
0100
0000
0000
0001
0000
0000
,
1000
0000
0000
0000
0010
0000
0000
1000
0000
0000
0001
0000
0100
0000
0000
0000
,
0001
0000
0000
0000
1000
0000
0000
0001
0000
0000
0001
0000
0000
0001
0000
0000
,
1000
0000
0100
0000
0010
0000
0000
0001
0000
0000
0001
0000
0000
1000
0000
0000
,
0010
0000
0100
0000
0001
0000
0000
0010
0000
0000
0100
0000
0000
1000
0000
0000
,
0010
0000
0100
0000
0001
0000
0000
1000
0000
0000
0001
0000
0000
0100
0000
0000
,
0010
0000
1000
0000
0010
0000
0000
1000
0000
0000
0001
0000
0000
1000
0000
0000
,
0001
0000
0100
0000
0001
0000
0000
0100
0000
0000
0001
0000
0000
0100
0000
0000
,
0001
0000
0010
0000
0100
0000
0000
1000
0000
0000
1000
0000
0000
0001
0000
0000
,
0100
0000
0010
0000
0100
0000
0000
0010
0000
0000
0010
0000
0000
0010
0000
0000
,
0100
0000
0001
0100
0000
0001
0100
0000
,
0001
0000
0100
0010
0000
0010
1000
0000
,
0010
0100
0010
0000
0000
1000
0001
0000
,
1001
0000
1000
0010
0000
0010
0100
0000
,
0010
0000
0100
0001
0000
1000
0010
0000
,
1010
0000
0001
0100
0000
0001
0100
0000
,
0010
0100
0010
0000
1000
0001
1000
0000
,
0001
0100
0001
0100
0001
0000
0110
0000
,
1000
0000
0000
0000
0010
0000
0000
0100
0000
0000
0100
0000
0000
0010
0000
0000
,
0110
0000
0000
0000
1000
0000
0000
0001
0000
0000
0100
0000
0000
0001
0000
0000
,
0101
0000
0000
0000
0001
0000
0000
1000
0000
0000
0010
0000
0000
0100
0000
0000
,
0001
0000
0000
0000
1000
0000
0000
0010
0000
0000
0010
0000
0100
0000
0000
0000
,
0001
0000
1000
0000
0010
0000
0000
0100
0000
0000
0010
0000
0000
0100
0000
0000
,
0110
0000
0000
0000
1000
0000
0000
0100
0000
0000
0100
0000
0000
0010
0000
0000
,
0011
0000
0000
0000
1000
0000
0000
0001
0000
0000
0100
0000
0000
0010
0000
0000
,
1000
0000
0001
0010
0001
0000
1000
0100
,
2000
0000
0000
0000
3001
0000
0000
0010
0000
0000
0001
0000
0000
0010
0000
0000
,
0002
0000
0000
0000
1003
0000
0000
0100
0000
0000
1000
0000
0000
0010
0000
0000
,
0200
0000
0000
0000
0301
0000
0000
0010
0000
0000
0001
0000
0000
0100
0000
0000
,
0020
0000
0000
0000
1030
0000
0000
0100
0000
0000
1000
0000
0000
0100
0000
0000
,
2000
0000
0000
0000
3010
0000
0000
0100
0000
0000
0001
0000
0000
0100
0000
0000
,
0020
0000
0000
0000
1030
0000
0000
0100
0000
0000
1000
0000
0000
0010
0000
0000
,
0200
0000
0000
0000
0301
0000
0000
0010
0000
0000
0001
0000
0000
0100
0000
0000
,
0002
0000
0000
0000
0103
0000
0000
0001
0000
0000
0100
0000
0000
0010
0000
0000
,
0100
0000
0000
0000
0010
0000
0000
0100
0000
0000
0010
0000
0000
0000
0000
0000
,
0110
0000
0000
0000
1000
0000
0000
0010
0000
0000
0100
0000
0000
0000
0000
0000
,
0101
0000
0000
0000
0001
0000
0000
0010
0000
0000
0100
0000
0000
0000
0000
0000
,
1100
0000
0000
0000
0010
0000
0000
0100
0000
0000
0010
0000
0000
0000
0000
0000
,
0100
0000
0010
0000
0100
0000
0000
0010
0000
0000
0010
0000
0000
0010
0000
0000
,
0110
0000
0000
0000
1000
0000
0000
0100
0000
0000
0100
0000
0000
1000
0000
0000
,
1100
0000
0000
0000
0010
0000
0000
0100
0000
0000
0001
0000
0000
0010
0000
0000
,
0100
1000
0100
0000
0010
0000
0001
0000
,
1000
0100
1000
0000
0001
0010
0001
0000
,
0001
0100
0001
0000
1000
0100
1000
0000
,
0010
0100
0010
0000
0100
0001
0100
0000
,
0001
1000
0001
0000
0100
0010
0100
0000
,
0001
0000
0000
0000
0001
0000
0000
0001
0000
0000
0001
0000
0000
0001
0000
0000
,
1000
0000
0010
0000
1000
0000
0000
0100
0000
0000
0100
0000
0000
0100
0000
0000
,
1000
0000
0010
0000
0100
0000
0000
0010
0000
0000
0100
0000
0000
0010
0000
0000
,
1000
0000
0001
0000
0100
0000
0000
0001
0000
0000
0100
0000
0010
0000
0100
0000
;

//---------------dance-single - ----------------
#NOTEDATA:;
#CHARTNAME:;
#STEPSTYPE:dance-single;
#DESCRIPTION:;
#CHARTSTYLE:;
#DIFFICULTY:Hard;
#METER:12;
#RADARVALUES:0.506539,0.538498,0.269512,0.143178,0.374790,421.000000,389.000000,32.000000,17.000000,0.000000,0.000000,0.000000,0.000000,0.000000,0.506539,0.538498,0.269512,0.143178,0.374790,421.000000,389.000000,32.000000,17.000000,0.000000,0.000000,0.000000,0.000000,0.000000;
#CREDIT:;
#NOTES:
// measure 0
0000
0000
0000
0000
,  // measure 1
0000
0000
0000
0000
,  // measure 2
0000
0000
0000
0000
,  // measure 3
0000
0000
0000
0000
,  // measure 4
1000
0000
0001
0000
0100
0000
0000
0010
0000
0000
0010
0000
0100
0010
0000
0000
,  // measure 5
0100
0000
0010
0000
0100
0000
0000
0001
0000
0000
1000
0000
0001
1000
0000
0000
,  // measure 6
1001
0000
0100
0000
0010
0000
0000
0001
0000
0000
0100
0000
0100
0001
0000
0000
,  // measure 7
1010
0000
1000
0000
0100
0000
0000
0010
0000
0000
0001
0000
1000
0100
1000
0100
,  // measure 8
1000
0000
0000
0000
0001
0000
0000
0010
0000
0000
0100
0000
0000
0000
1000
0000
,  // measure 9
0100
0000
0010
0000
0100
0000
0000
0010
0000
0000
0001
0000
1000
0000
0000
0000
,  // measure 10
0110
0000
0100
0000
0010
0100
0000
0010
0000
0000
0100
0000
0010
0100
0000
0001
,  // measure 11
0000
0000
1000
0000
0000
0000
0000
0001
0000
0000
1000
0000
0010
0000
0200
0000
,  // measure 12
0300
0000
0000
0000
0001
0000
1000
0001
0000
0000
0100
0000
0010
0000
0100
0000
,  // measure 13
0001
0000
1000
0000
0100
0000
0000
1000
0100
0000
0010
0000
0002
0000
0003
0000
,  // measure 14
1000
0000
0000
0000
0010
0000
0000
0100
0000
0000
0010
0000
1000
0001
0000
0001
,  // measure 15
0000
0000
1000
0000
0020
0000
0030
0100
0000
0000
0110
0000
0110
0000
0000
0000
,  // measure 16
0010
0000
1000
0000
0010
0000
1000
0010
0000
0000
0100
0000
0001
0000
1000
0000
,  // measure 17
0010
0000
0100
0000
0001
0000
0000
1000
0000
0000
0001
0010
0001
0000
0000
0000
,  // measure 18
1001
0000
0100
0000
0010
0000
0000
0100
0000
0000
0010
0000
0100
0010
0000
0000
,  // measure 19
0100
0000
0010
0000
0000
0000
0000
2001
0000
0000
3001
0000
0010
0000
0100
0000
,  // measure 20
1000
0000
0001
0000
0100
0010
0000
0100
0000
0000
0010
0000
0000
0000
1000
0000
,  // measure 21
1000
0000
0001
0000
0001
0000
1000
0100
0000
0000
0010
0000
0001
0000
0100
0000
,  // measure 22
0110
0000
1000
0000
0010
0000
0000
0100
0000
0000
0001
0000
0010
0000
0001
0000
,  // measure 23
1000
0000
0100
0000
1100
0000
0000
0110
0000
0001
0010
0000
0001
0000
0000
0000
,  // measure 24
2000
0000
3010
0200
0000
0010
0310
0000
,  // measure 25
0100
0001
0010
0200
0300
1000
0010
0110
,  // measure 26
0000
0001
0011
0001
1000
0001
0000
2000
,  // measure 27
0000
3200
0000
0320
0000
0032
0010
0003
,  // measure 28
0100
0000
0010
0100
0100
0001
0000
1000
,  // measure 29
0000
0010
0100
0001
0000
1000
0010
0100
,  // measure 30
0020
0000
1030
0100
0010
0100
1000
0001
,  // measure 31
0010
0000
0010
0000
0001
0000
1000
0000
0100
0000
0010
0000
0001
0010
0001
0010
,  // measure 32
0001
0000
0000
0000
1100
0000
0000
0110
0000
0000
0011
0000
0000
0011
0000
0000
,  // measure 33
1000
0000
0000
0000
0010
0000
0000
0100
0000
0000
0010
0000
0000
0100
0000
0000
,  // measure 34
0001
0000
1000
0000
0001
0000
0000
1000
0000
0000
0010
0000
0000
1000
0000
0000
,  // measure 35
0001
0000
0000
0000
1001
0000
0000
0110
0000
0000
0100
0000
0020
0000
0000
0000
,  // measure 36
0130
0000
0000
0000
0101
0000
0000
1010
0000
0000
0101
0000
0000
0010
0000
0000
,  // measure 37
0100
0000
0001
0000
0010
0000
0000
0110
0000
0000
1001
0000
0000
1100
0000
0000
,  // measure 38
0010
0000
0001
0000
0100
0000
0000
0010
0000
0000
0100
0000
0010
0000
0100
0000
,  // measure 39
0000
0010
0100
0020
0000
0000
0030
0000
,  // measure 40
0110
0000
0000
0000
1100
0000
0000
0110
0000
0000
0011
0000
0000
1001
0000
0000
,  // measure 41
1000
0000
0010
0000
0100
0000
0000
0010
0000
0000
0100
0000
0000
0001
0000
0000
,  // measure 42
0010
0000
1000
0000
0010
0000
0000
0011
0000
0000
0110
0000
0000
0101
0000
0000
,  // measure 43
0001
0000
1000
0000
0100
0000
0000
0010
0000
0000
0001
0000
1000
0000
0010
0000
,  // measure 44
0001
0000
0010
0000
1000
0000
0000
0100
0000
0000
0001
0000
0000
0100
0000
0000
,  // measure 45
1000
0000
0010
0000
0100
0000
0000
0001
0000
0000
0100
0000
0000
1000
0000
0000
,  // measure 46
0100
0000
0000
0000
0001
0000
0000
0010
0000
0000
0100
0000
1000
0000
0010
0000
,  // measure 47
0100
0010
0100
0020
0000
0030
0100
0100
,  // measure 48
0000
0000
0010
0010
0000
0000
1000
0001
,  // measure 49
0000
0100
0010
1000
0000
0001
0100
0010
,  // measure 50
0000
0000
1000
0010
0000
1000
0010
1000
,  // measure 51
0000
0010
0000
0001
0000
0010
0100
0001
,  // measure 52
0000
0000
0100
0000
0010
0000
0100
0000
0000
0000
0010
0100
0010
0000
0000
0000
,  // measure 53
0100
0000
0001
0000
0100
0000
0010
0100
0000
0000
0010
0000
0100
0000
0002
0000
,  // measure 54
0000
1000
1003
0100
0100
0010
0010
0001
,  // measure 55
2000
0000
0000
0000
3001
0000
0000
0001
0010
0000
0000
0010
0100
0000
0000
1000
,  // measure 56
0100
0000
0000
0000
0010
0000
0000
0001
0010
0000
0001
0010
0000
0001
0010
0000
,  // measure 57
0100
0000
1000
0000
0100
0000
0000
0010
0001
0000
0010
0001
0000
0010
0001
0000
,  // measure 58
1000
0000
0100
0000
0010
0000
0000
0100
1000
0000
0100
1000
0000
0100
1000
0000
,  // measure 59
0001
0000
0010
0000
0100
0000
0000
1000
0100
0000
1000
0100
0000
1000
0100
0000
,  // measure 60
0000
0000
0000
0000
0001
0000
0000
0100
0001
0000
0100
0010
0000
0100
0001
0000
,  // measure 61
0000
0000
0000
0000
0010
0000
0000
1000
0010
0000
0100
0001
0000
1000
0010
0000
,  // measure 62
0000
0000
0000
0000
0100
0000
0000
0010
0100
0000
0001
0100
0000
0010
0100
0000
,  // measure 63
0000
0000
0000
0000
0001
0000
0000
1000
0000
0000
0001
1000
0001
0000
1000
0001
;
