#TITLE:Insatiable;
#SUBTITLE:;
#ARTIST:What Is;
#TITLETRANSLIT:;
#SUBTITLETRANSLIT:;
#ARTISTTRANSLIT:;
#GENRE:;
#CREDIT:;
#BANNER:;
#BACKGROUND:;
#LYRICSPATH:;
#CDTITLE:;
#MUSIC:Solved-_What_Is_-_Insatiable.mp3.ogg;
#OFFSET:-0.022000;
#SAMPLESTART:46.181999;
#SAMPLELENGTH:18.799999;
#SELECTABLE:YES;
#BPMS:0.000000=155.987000
;
#STOPS:
;
#BGCHANGES:;
#KEYSOUNDS:;
#ATTACKS:;

//---------------dance-single - ----------------
#NOTES:
     dance-single:
     :
     Beginner:
     2:
     0.087453,0.146567,0.018836,0.047090,0.000000,65.000000,63.000000,2.000000,5.000000,0.000000,0.000000,0.087453,0.146567,0.018836,0.047090,0.000000,65.000000,63.000000,2.000000,5.000000,0.000000,0.000000:
0000
0000
0000
0000
,
0000
0000
0000
0000
,
0000
0000
0000
0000
,
0000
0000
0000
0000
,
0000
1000
0000
0000
,
0000
0000
0000
0001
,
0000
0100
0000
0000
,
0000
0000
0000
0001
,
0000
1000
0000
0000
,
0000
0000
0000
1000
,
0000
0010
0000
0000
,
0000
0000
0000
0001
,
0000
0100
0000
0000
,
0000
0000
0000
0010
,
0000
1000
0000
0000
,
0000
0000
0000
0000
,
0000
1001
0000
0000
,
0000
0001
0000
1000
,
0000
0001
0000
0000
,
0000
0100
0000
0000
,
0000
0100
0000
0000
,
0000
0001
0000
1000
,
0000
0001
0000
0000
,
0000
1000
0000
0000
,
0000
0001
0000
0010
,
0000
0001
0000
0000
,
0000
0001
0000
1000
,
0000
0001
0000
0000
,
0000
0200
0000
0000
,
0300
0000
0000
0000
,
0000
1001
0000
0000
,
0000
1000
0000
0000
,
0000
0001
0000
0000
,
0000
1000
0000
0001
,
0000
1000
0000
0000
,
0000
0000
0000
0001
,
0000
0100
0000
0000
,
0000
0000
0000
0100
,
0000
0001
0000
0000
,
0000
1000
0000
0000
,
0000
0002
0000
0000
,
0003
1000
0000
0000
,
0000
2000
0000
0000
,
3000
0001
0000
0000
,
0000
0200
0000
0000
,
0300
0000
0000
0000
,
0000
0010
0000
0100
,
0000
0010
0000
0000
,
0000
0010
0000
0100
,
0000
0010
0000
0000
,
0000
2000
0000
0000
,
3000
0001
0000
0000
,
0000
0001
0000
0001
,
0000
0001
0000
0000
,
0000
0100
0000
0000
,
0000
0010
0000
0000
,
0000
0100
0000
0000
,
0000
0001
0000
0000
,
0000
1000
0000
0000
,
0000
0001
0000
0000
,
0000
1000
0000
0000
,
0000
0000
0000
0000
,
0000
0001
0000
0000
;

//---------------dance-single - ----------------
#NOTES:
     dance-single:
     :
     Easy:
     4:
     0.182978,0.234507,0.169523,0.160105,0.000000,136.000000,118.000000,18.000000,17.000000,0.000000,0.000000,0.182978,0.234507,0.169523,0.160105,0.000000,136.000000,118.000000,18.000000,17.000000,0.000000,0.000000:
0000
0000
0000
0000
,
0000
0000
0000
0000
,
0000
0110
0000
1001
,
0000
0001
0000
1000
,
0000
0110
0000
1001
,
0000
0001
0000
0100
,
0000
1001
0000
0101
,
0000
0001
0000
0010
,
0000
0012
0000
1003
,
0000
0001
0000
1000
,
0000
0020
0000
1030
,
0000
0001
0000
0100
,
0000
0201
0000
0301
,
0000
1000
0000
1001
,
0000
0200
0000
0320
,
0000
2030
0000
3001
,
0000
1000
0000
0001
,
0000
0100
0000
0100
,
0000
0001
0000
1000
,
0000
0002
0000
1003
,
0000
1001
0000
0100
,
0000
0001
0000
1000
,
0000
2010
0000
3010
,
0000
0001
0000
0101
,
0000
1001
0000
0001
,
0000
0100
0010
0100
,
0000
0001
0000
1000
,
0010
1000
0000
0001
,
0000
0200
0000
0000
,
0000
0000
0300
0000
,
0000
1001
0000
0100
,
0000
0010
0000
1010
,
0000
0001
0000
0001
,
0000
1000
0000
0101
,
0000
0200
0000
0301
,
0000
1000
0000
1001
,
0000
2000
0000
3001
,
0000
0002
0000
0103
,
0000
0020
0000
0000
,
0000
0000
0030
1000
,
0000
0200
0000
0000
,
0000
0000
0300
0010
,
0000
0002
0000
0000
,
0000
0000
0003
1000
,
0000
0001
0100
0001
,
0000
0100
0001
0100
,
0000
0001
0001
0001
,
0000
1000
1000
1000
,
0000
0010
0010
0010
,
0000
0100
0000
0101
,
0000
0002
0000
0000
,
0000
0000
0003
1000
,
0000
0010
0000
0100
,
0000
0001
0000
1000
,
1000
2000
0000
0000
,
0000
0000
3000
0001
,
0100
0001
0000
1000
,
0000
0010
0000
0100
,
0010
0100
0000
0001
,
0000
0001
0000
1000
,
0000
1000
0000
0100
,
0000
0010
0000
0001
,
0000
1000
0000
0000
;

//---------------dance-single - ----------------
#NOTES:
     dance-single:
     :
     Medium:
     8:
     0.305411,0.351761,0.084762,0.263703,0.000000,227.000000,218.000000,9.000000,28.000000,0.000000,0.000000,0.305411,0.351761,0.084762,0.263703,0.000000,227.000000,218.000000,9.000000,28.000000,0.000000,0.000000:
0000
0000
0000
0000
,
0000
0000
0000
0000
,
0000
0110
0001
1000
,
0001
0100
0000
0100
0001
0000
1000
0000
,
0010
0200
0000
0301
,
1000
0001
0000
1000
0001
0000
0100
0000
,
0000
2010
0000
3002
,
0000
0203
0000
0310
,
0000
1000
0001
1000
,
0001
1000
0000
1000
0001
0000
1000
0000
,
0010
0200
0000
0301
,
1000
0100
0000
0100
1000
0000
0001
0000
,
0000
0120
0000
1030
,
0001
1000
0000
1000
0001
0000
1000
0000
,
0000
0020
0000
0230
,
0000
0302
0000
1003
,
0000
1000
0001
0100
,
0001
0000
0100
0000
0000
0010
0000
0000
,
1000
0001
0001
1000
,
0000
0002
0000
0000
0000
0000
1003
0000
,
0100
1000
0010
0100
,
0001
0000
0010
0000
0000
0010
0000
0000
,
0100
1000
0001
0010
,
0000
0002
0000
0000
0000
0000
0013
0000
,
0001
1000
0010
0100
,
0001
0000
0100
0000
0000
0010
0000
0010
,
0100
0001
1000
0001
,
0010
0000
0100
0000
0000
1000
0000
0001
,
1000
0002
0000
0000
,
0003
0100
0000
0000
,
0010
0000
1001
0000
0001
0100
0000
0000
,
0001
0010
0001
0000
1000
0100
1000
0000
,
0010
0200
0301
0001
,
0010
0001
0000
0001
1000
0000
0001
0100
,
0010
0000
1000
0100
1000
0000
0001
0000
,
0100
0010
0000
0100
0001
0000
1000
0000
,
0000
0210
0000
0301
,
0001
1000
1000
0200
,
0300
0220
0000
0030
,
0302
0000
0000
0000
0003
0000
1000
0100
,
1000
0002
0000
0103
,
0020
0030
0010
1000
,
0001
0100
0002
0000
0000
0000
1003
0000
,
0020
0000
0000
0000
1030
0000
0001
0100
,
0000
0002
0000
0000
0103
0000
0010
0000
,
0010
0000
1000
0001
0000
0001
1000
0000
,
0001
0000
0100
0000
0001
0000
1000
0001
,
0000
0200
0000
0000
0310
0000
0110
0000
,
0001
0000
1000
0000
0010
1000
0000
0002
,
0000
0000
0103
0000
0010
0100
0010
0000
,
1000
0000
0001
0000
0000
0001
0000
0000
,
2000
0000
0000
0000
3010
0000
0100
0010
,
0100
0000
0010
0000
1000
0100
0000
0010
,
0000
0001
1000
0000
0001
0000
1000
0000
,
0001
0100
0001
0000
0100
0010
0100
0000
,
0001
1000
0000
1000
0000
0001
0100
0000
,
0010
1001
0000
1000
,
0001
0100
0000
0100
0001
0000
0101
0000
,
0000
0001
0000
0001
0000
0002
0000
0000
,
0003
1000
0010
1000
,
0000
2000
0000
3010
,
0100
0010
0000
0100
,
0001
1000
0000
0000
;

//---------------dance-single - ----------------
#NOTES:
     dance-single:
     :
     Hard:
     12:
     0.466862,0.498328,0.084762,0.197777,0.042381,347.000000,338.000000,9.000000,21.000000,0.000000,0.000000,0.466862,0.498328,0.084762,0.197777,0.042381,347.000000,338.000000,9.000000,21.000000,0.000000,0.000000:
// measure 0
0000
0000
0000
0000
,  // measure 1
0000
0000
0000
0000
,  // measure 2
0000
0000
0110
0000
0001
1000
0001
0000
,  // measure 3
0001
0100
0000
0100
0010
0000
1000
0010
,  // measure 4
1000
0010
0200
0000
0301
0010
0001
1000
,  // measure 5
0100
0010
0000
0100
1000
0000
0100
0010
,  // measure 6
0001
1000
0200
0000
0300
0010
0002
0000
,  // measure 7
0003
1000
0200
0000
0300
0010
0001
0000
,  // measure 8
1000
0100
1000
0100
1000
0000
0000
0000
0001
0000
0100
0000
0010
0000
0100
0000
,  // measure 9
0010
1000
0000
1000
0001
0100
1000
0100
,  // measure 10
0000
0000
0000
0010
0200
0000
0000
0000
0301
0000
0000
0000
0001
0000
0000
0000
,  // measure 11
0000
1000
0000
0100
1000
0000
0001
0010
,  // measure 12
0000
0000
0002
0000
0103
0000
0010
1000
,  // measure 13
0001
1000
0000
1000
0001
0100
0010
0100
,  // measure 14
0000
0000
0000
0010
2000
0000
0000
0000
3000
0000
0001
0000
0200
0000
0000
0000
,  // measure 15
0300
0010
2000
0000
3000
0001
0100
0001
,  // measure 16
1000
1001
0001
0100
,  // measure 17
0001
0000
0100
0010
0100
0010
1000
0000
,  // measure 18
0001
0101
0001
1000
,  // measure 19
0000
0020
0000
0000
0130
0000
0001
0100
,  // measure 20
0001
0000
1000
0100
0010
0001
0100
0000
,  // measure 21
0001
0010
0000
0100
0010
0000
0001
1000
,  // measure 22
0001
1000
0010
0000
0100
0000
0010
0000
,  // measure 23
1000
0001
0000
0001
0100
0000
0010
0000
,  // measure 24
0200
0000
0310
0000
0100
0001
0100
0000
,  // measure 25
0001
0000
1000
0010
0100
0010
1000
0001
,  // measure 26
0100
0000
0001
0100
0010
0100
0001
0000
,  // measure 27
0010
0100
1000
0100
0010
0001
1000
0001
,  // measure 28
1000
0000
0001
0100
0002
0000
0000
0000
0003
0000
1000
0000
0000
0000
0010
0000
,  // measure 29
0000
0100
0000
0001
0000
1000
0001
0000
,  // measure 30
0100
0000
1010
0000
0001
0100
0001
0000
,  // measure 31
0001
0010
0000
0001
1000
1000
0100
0000
,  // measure 32
0010
0000
0001
0001
1000
0001
1000
0010
,  // measure 33
0100
0001
0000
1000
0100
0000
0010
0001
,  // measure 34
0010
0000
0100
1000
0010
0100
0001
0010
,  // measure 35
0100
0010
0000
0010
0001
1000
0001
1000
,  // measure 36
0000
0000
0001
0100
0010
0100
0001
0000
,  // measure 37
0000
0001
1000
0000
1000
0100
0110
0000
,  // measure 38
0000
0000
0001
0010
0002
0000
0000
0000
0000
0000
0000
0000
1003
0000
0000
0000
,  // measure 39
0001
0100
0000
0100
0001
1000
0100
0001
,  // measure 40
0100
2000
0000
3100
,  // measure 41
0100
0010
0001
0010
0001
0000
1000
0100
,  // measure 42
0000
0100
0020
0000
0001
0000
0031
0000
,  // measure 43
1000
0010
0000
0100
0010
0010
1000
0100
,  // measure 44
0000
0010
0001
0000
0100
0010
1010
0000
,  // measure 45
0010
0000
0100
0000
0001
0000
0001
0000
0000
0000
0001
0000
1000
0100
1000
0000
,  // measure 46
0001
0000
0100
0000
0001
0010
0100
0010
,  // measure 47
0001
0200
0000
0010
0310
0000
0100
0001
,  // measure 48
0000
0001
1000
0000
0010
1000
0100
0020
,  // measure 49
0000
0000
0031
0000
0010
0100
1000
0100
,  // measure 50
1000
0000
0201
0000
0000
0302
0000
0000
,  // measure 51
2003
0000
3000
0010
0100
0000
0100
0010
,  // measure 52
0000
0000
1010
0000
1000
0100
0010
0000
,  // measure 53
0010
0001
1000
1000
0000
0001
1000
0000
,  // measure 54
0100
0010
0100
0010
0001
0000
0000
0000
0100
0000
0010
0000
0010
0000
0000
0000
,  // measure 55
1000
0001
1000
0001
0000
0001
0100
0010
,  // measure 56
0000
0100
0010
0000
1000
0001
1000
0001
,  // measure 57
0100
0100
0000
0001
1000
0000
1001
0000
,  // measure 58
1000
0100
0010
0001
1000
0001
0100
0010
,  // measure 59
0100
0010
0000
1000
0010
0000
1000
0100
,  // measure 60
0000
0100
2000
0000
0000
0010
3010
0000
,  // measure 61
0000
0100
0001
0000
0000
0001
0100
0000
,  // measure 62
0001
0010
1000
0000
0000
0000
0000
0000
;
