#VERSION:0.83;
#TITLE:Inflation!;
#SUBTITLE:;
#ARTIST:Ruin Lab.;
#TITLETRANSLIT:;
#SUBTITLETRANSLIT:;
#ARTISTTRANSLIT:;
#GENRE:INDUSTRIAL;
#ORIGIN:;
#CREDIT:from pop n music 9 AC / 7 CS;
#BANNER:Ruin Lab. - Inflation!.png;
#BACKGROUND:;
#PREVIEWVID:;
#JACKET:;
#CDIMAGE:;
#DISCIMAGE:;
#LYRICSPATH:;
#CDTITLE:Popn_music_9_logo_small.png;
#MUSIC:Ruin Lab. - Inflation!.ogg;
#OFFSET:-0.419000;
#SAMPLESTART:9.071000;
#SAMPLELENGTH:16.000000;
#SELECTABLE:YES;
#BPMS:0.000=110.697;
#STOPS:;
#DELAYS:;
#WARPS:;
#TIMESIGNATURES:0.000=4=4;
#TICKCOUNTS:0.000=4;
#COMBOS:0.000=1;
#SPEEDS:0.000=1.000=0.000=0;
#SCROLLS:0.000=1.000;
#FAKES:;
#LABELS:0.000=Song Start;
#BGCHANGES:;
#KEYSOUNDS:;
#ATTACKS:
;

//---------------dance-single - ----------------
#NOTEDATA:;
#CHARTNAME:;
#STEPSTYPE:dance-single;
#DESCRIPTION:;
#CHARTSTYLE:;
#DIFFICULTY:Beginner;
#METER:2;
#RADARVALUES:0.092552,0.109808,0.000000,0.076866,0.000000,59.000000,59.000000,0.000000,7.000000,0.000000,0.000000,0.000000,0.000000,0.000000,0.092552,0.109808,0.000000,0.076866,0.000000,59.000000,59.000000,0.000000,7.000000,0.000000,0.000000,0.000000,0.000000,0.000000;
#CREDIT:;
#NOTES:
0000
0000
0000
0000
,
0000
0000
0000
0000
,
1000
0000
0001
0000
,
1000
0000
0001
0000
,
0100
0000
0100
0000
,
0001
0000
0001
0000
,
0010
0000
0010
0000
,
1000
0000
0010
0000
,
0002
0000
0003
0000
,
2000
0000
3000
0000
,
0010
0000
0010
0000
,
0100
0000
0100
0000
,
0002
0000
0003
0000
,
0200
0000
0300
0000
,
0010
0000
0010
0000
,
1000
0000
1000
0000
,
0001
0000
0000
0000
,
1000
0000
0000
0000
,
0001
0000
1000
0000
,
1000
0000
0001
0000
,
1000
0000
0000
0000
,
0001
0000
0000
0000
,
0200
0000
0300
0000
,
0002
0000
0003
0000
,
1000
0000
1000
0000
,
1000
0000
0000
0000
,
0001
0000
0001
0000
,
1000
0000
0001
0000
,
0001
0000
0000
0000
,
2000
0000
3000
0000
,
0010
0000
0000
0000
,
0100
0000
0000
0000
,
1000
0000
0100
0000
,
0001
0000
1000
0000
,
0001
0000
0001
0000
,
0100
0000
1000
0000
,
1000
0000
0000
0000
,
1000
0000
0000
0000
,
1000
0000
0000
0000
,
0001
0000
0001
0000
,
0001
0000
0000
0000
;

//---------------dance-single - ----------------
#NOTEDATA:;
#CHARTNAME:;
#STEPSTYPE:dance-single;
#DESCRIPTION:;
#CHARTSTYLE:;
#DIFFICULTY:Easy;
#METER:4;
#RADARVALUES:0.177262,0.197655,0.043923,0.098827,0.000000,113.000000,109.000000,4.000000,9.000000,0.000000,0.000000,0.000000,0.000000,0.000000,0.177262,0.197655,0.043923,0.098827,0.000000,113.000000,109.000000,4.000000,9.000000,0.000000,0.000000,0.000000,0.000000,0.000000;
#CREDIT:;
#NOTES:
0000
0000
0000
0000
,
0000
0000
0000
0000
,
0001
0001
0001
0000
,
1000
1000
1000
0000
,
0100
0010
0010
0000
,
0001
0010
0010
0000
,
0100
1000
1000
0000
,
0001
0000
0100
0000
,
0002
1000
0003
0000
,
2000
0001
3000
0000
,
0100
0100
0010
0010
,
0100
0010
0100
0000
,
0020
1000
0030
0000
,
2000
0001
3000
0000
,
0001
0010
0100
0010
,
0001
0010
0001
0000
,
1001
0000
1000
0000
,
1100
0000
0100
0000
,
0011
0000
0001
0000
,
1000
0100
0010
0000
,
1000
0000
0010
0000
,
1000
0100
0010
0000
,
0100
0010
0001
0000
,
1000
0010
0100
0000
,
0001
0001
1000
1000
,
0100
0010
0001
0000
,
0002
0003
0010
0100
,
2000
3000
0001
0010
,
0200
0300
1000
0000
,
0220
0330
0000
0000
,
0100
0010
0100
0000
,
0100
0001
0100
0000
,
0010
1000
0010
0000
,
0100
0001
0100
0000
,
1000
1000
0001
0000
,
0100
0010
0100
0000
,
1000
0001
1000
0100
,
1000
0001
1000
0100
,
1000
0001
0100
0000
,
0001
0010
0001
0100
,
0001
0000
0000
0000
;

//---------------dance-single - ----------------
#NOTEDATA:;
#CHARTNAME:;
#STEPSTYPE:dance-single;
#DESCRIPTION:;
#CHARTSTYLE:;
#DIFFICULTY:Medium;
#METER:9;
#RADARVALUES:0.360798,0.350837,0.241578,0.186674,0.082356,230.000000,208.000000,22.000000,17.000000,0.000000,0.000000,0.000000,0.000000,0.000000,0.360798,0.350837,0.241578,0.186674,0.082356,230.000000,208.000000,22.000000,17.000000,0.000000,0.000000,0.000000,0.000000,0.000000;
#CREDIT:;
#NOTES:
// measure 0
0000
0000
0000
0000
,  // measure 1
0000
0000
0000
0000
,  // measure 2
0001
0000
0000
0000
1000
0000
0000
0010
0000
0000
0100
0000
0000
0000
0010
0000
,  // measure 3
1000
0000
0001
0000
1000
0000
0000
1100
0000
0000
1010
0000
0000
0000
0000
0000
,  // measure 4
0101
0000
0010
0100
0010
0000
0101
0000
,  // measure 5
0001
0000
1000
0000
0010
0000
0000
0110
0000
0000
0100
0000
0010
0000
0000
0000
,  // measure 6
0100
0000
0010
0000
1000
0000
0000
1001
0000
0000
0001
0000
0100
0000
0001
0000
,  // measure 7
0100
0000
0000
0000
0010
0000
0000
0110
0000
0000
1001
0000
0000
0000
1000
0000
,  // measure 8
0002
0000
1003
0001
0100
0000
0010
1000
,  // measure 9
0002
0000
0103
0010
0100
0000
0010
0100
,  // measure 10
0010
0000
0100
0010
0010
0000
0010
0100
,  // measure 11
0100
0000
0001
1000
1000
0000
1000
0010
,  // measure 12
0100
0010
2000
3000
0001
0100
0001
1000
,  // measure 13
0002
0003
0010
0100
0010
0001
1000
0000
,  // measure 14
0001
0010
0011
0000
0100
0010
0110
0000
,  // measure 15
1000
0001
1000
0001
0100
0000
0010
0010
,  // measure 16
0010
0000
0020
0000
2030
0000
3001
0010
,  // measure 17
0002
0000
0103
0010
0100
0000
0100
0010
,  // measure 18
0020
0030
0100
0100
0100
0000
0001
0100
,  // measure 19
1000
0000
0001
0010
1000
0000
0100
0100
,  // measure 20
2100
0000
3010
0000
0010
0100
0010
0100
,  // measure 21
0010
0000
0100
0001
0010
0000
0001
1000
,  // measure 22
0002
0000
0100
0000
1003
0000
0100
1000
,  // measure 23
1000
0000
0000
0000
0010
0000
0100
0000
0010
0000
0000
0100
0000
0000
0010
0000
,  // measure 24
2000
0000
0001
0000
3001
0100
0001
0000
,  // measure 25
0100
0000
0110
0000
0001
0000
1000
0100
,  // measure 26
0002
0000
0000
0000
0103
0000
0100
1000
,  // measure 27
0020
0000
0000
0000
0130
0000
0010
0010
,  // measure 28
2000
0000
0000
0000
3001
0000
0000
0100
0000
0000
0010
0000
0000
0000
0100
0000
,  // measure 29
0010
0000
0000
0000
0110
0000
0000
1001
0000
0000
0001
0000
0000
0000
1000
0000
,  // measure 30
0001
0000
0000
0000
0110
0000
0000
1001
0000
0000
1000
0000
0000
0000
0010
0000
,  // measure 31
0100
0000
0000
0000
0001
0000
0000
1001
0000
0000
0110
0000
0000
0000
0100
0000
,  // measure 32
0010
0000
0100
0000
0010
0000
0000
0100
0000
0000
0010
0000
0000
0000
0100
0000
,  // measure 33
0110
0000
0000
0000
0001
0000
0000
1001
0000
0000
1000
0000
0000
0000
0010
0000
,  // measure 34
1000
0000
0000
0000
1001
0000
0000
1000
0000
0000
0010
0000
0100
0000
0010
0000
,  // measure 35
0100
0000
0000
0000
0010
0000
0000
0110
0000
0000
0100
0000
0000
0000
0010
0000
,  // measure 36
0100
0000
0001
0000
0100
0010
1000
0000
,  // measure 37
0010
0000
0100
0000
0001
0010
0100
0010
,  // measure 38
0001
0001
0200
0301
,  // measure 39
0002
0000
0000
0000
1003
0000
0000
0000
2000
0000
0000
0000
3000
0000
0000
0001
;

//---------------dance-single - ----------------
#NOTEDATA:;
#CHARTNAME:;
#STEPSTYPE:dance-single;
#DESCRIPTION:;
#CHARTSTYLE:;
#DIFFICULTY:Hard;
#METER:12;
#RADARVALUES:0.531785,0.548182,0.208635,0.109808,0.581983,339.000000,320.000000,19.000000,10.000000,0.000000,0.000000,0.000000,0.000000,0.000000,0.531785,0.548182,0.208635,0.109808,0.581983,339.000000,320.000000,19.000000,10.000000,0.000000,0.000000,0.000000,0.000000,0.000000;
#CREDIT:;
#NOTES:
0000
0000
0000
0000
,
0000
0000
0000
0000
,
0001
1000
0001
0000
1000
0010
0100
0010
0000
0000
0100
0000
0010
0000
0100
0000
,
0010
0000
0000
0100
0010
0000
0000
0100
0000
0000
0010
0000
1000
0000
0001
0000
,
1000
0001
1000
0000
0001
1000
0001
1000
0000
0000
0010
0000
0100
0000
0001
0000
,
0100
0010
0100
0000
0010
0100
0000
0010
0000
0000
0100
0000
0010
0100
0010
0000
,
1000
0001
1000
0000
0001
1000
0001
1000
0000
0000
0100
0000
0001
0000
0100
0000
,
1000
0000
0000
0000
0001
1000
0000
0001
1000
0000
0010
0000
0000
0000
0100
0010
,
0100
0000
0000
0000
1000
0100
1000
0100
1000
0000
0001
0000
0010
0001
0010
0001
,
0010
0000
0100
0000
1000
0100
1000
0100
0010
0000
0000
0000
0001
0010
0001
0010
,
0100
0000
0000
0000
1100
0000
0000
0000
0010
0100
0010
0100
0000
0010
0100
0000
,
0001
0010
0001
0010
0000
0001
0010
0000
0001
0010
0001
0010
0000
0001
0010
0000
,
0002
0000
0003
0000
1000
0100
1000
0100
1000
0000
0010
0000
0100
0010
0100
0010
,
0100
0000
0001
0000
0100
0000
0010
0000
0100
0010
0100
0010
0100
0000
0000
0000
,
0001
1000
0001
1000
0000
0001
1000
0000
0001
1000
0001
1000
0000
0001
1000
0000
,
0100
1000
0100
1000
0000
0100
1000
0000
0001
0100
0001
0100
0000
0001
0100
0000
,
0002
0000
0000
0000
2003
0000
0000
0000
3020
0000
0000
0000
0130
0010
0000
0100
,
0010
0100
0000
0000
0101
0000
0000
0100
0001
0000
0100
0000
0000
0000
0000
0000
,
0020
0000
0000
0000
1030
0001
0000
1000
0001
1000
0000
0000
0010
0100
0000
0010
,
0100
0010
0000
0000
0100
0001
0000
1000
0010
0000
1000
0000
0000
0000
0001
0010
,
0001
0000
0000
0000
0011
0000
0000
0000
0100
0010
0100
0000
0110
0000
0000
0000
,
0010
0100
0001
0000
0100
0000
0000
0010
0000
0000
0100
0000
0001
0100
0001
0100
,
0001
0000
0000
0000
0101
0000
0000
0000
0100
0010
0100
0000
0110
0000
0000
0000
,
1001
0000
0000
0000
1000
0010
1000
0010
1000
0000
0000
0010
0000
0000
0100
0000
,
0020
0000
0130
0000
0001
1000
1001
0000
,
0100
0000
1000
0000
0010
0100
0010
0000
0100
0010
0100
0000
0010
0100
0010
0100
,
0010
0000
0000
0000
0101
0000
0000
0000
0010
0000
0000
0000
0100
0001
0100
0001
,
0200
0000
0000
0000
0301
0000
0000
0100
0000
0000
0010
0000
0000
0000
0000
0000
,
0002
0000
0000
0000
1003
0000
0000
1000
0000
0000
0010
0000
1010
0000
0000
0000
,
0100
0001
0100
0000
0001
0000
0100
0001
0000
0000
0100
0000
0000
0000
0010
0000
,
0110
0000
0000
0000
1000
0000
0000
0110
0000
0000
0100
0000
0001
0000
1000
0000
,
0001
0010
0001
0000
1000
0000
0000
0110
0000
0000
0001
0000
0001
0000
1000
0000
,
0010
0100
0010
0000
0100
0000
0000
0110
0000
0000
0100
0000
0010
0000
0100
0000
,
0101
0000
0000
0000
1100
0000
0000
1001
0000
0000
0100
0000
0000
0000
0010
0000
,
0200
0000
0000
0000
0301
0000
0000
1000
0001
0000
1000
0000
0100
0000
0001
0000
,
0100
0000
1000
0000
0001
0000
0000
0001
1000
0000
0001
0000
0010
0001
0010
0000
,
0002
0000
0003
0000
1001
0000
0000
0100
0010
0000
0100
0000
0110
0000
0000
0000
,
1000
0001
1000
0001
1000
0000
0000
0000
0001
0000
0000
0000
0000
0000
0000
0000
,
0100
0010
0100
0010
0100
0000
0000
0000
0001
1000
0001
1000
0001
1000
0001
0000
,
0100
0000
0010
0000
0100
0000
0000
0000
0001
1000
0001
1000
0001
1000
0001
0100
;
