#VERSION:0.83;
#TITLE:Ikari to tomo ni sarinu!!;
#SUBTITLE:;
#ARTIST:96 feat. Hideo Suwa;
#TITLETRANSLIT:;
#SUBTITLETRANSLIT:;
#ARTISTTRANSLIT:;
#GENRE:;
#ORIGIN:;
#CREDIT:;
#BANNER:Ec_Ikari_to_tomo_ni_sarinu!!.png;
#BACKGROUND:;
#PREVIEWVID:;
#JACKET:;
#CDIMAGE:;
#DISCIMAGE:;
#LYRICSPATH:;
#CDTITLE:;
#MUSIC:Ikari_to_tomo_ni_sarinu!!.ogg;
#OFFSET:-0.222000;
#SAMPLESTART:57.991001;
#SAMPLELENGTH:17.000000;
#SELECTABLE:YES;
#BPMS:0.000=190.000;
#STOPS:;
#DELAYS:;
#WARPS:;
#TIMESIGNATURES:0.000=4=4;
#TICKCOUNTS:0.000=4;
#COMBOS:0.000=1;
#SPEEDS:0.000=1.000=0.000=0;
#SCROLLS:0.000=1.000;
#FAKES:;
#LABELS:0.000=Song Start;
#BGCHANGES:;
#KEYSOUNDS:;
#ATTACKS:
;

//---------------dance-single - ----------------
#NOTEDATA:;
#CHARTNAME:;
#STEPSTYPE:dance-single;
#DESCRIPTION:;
#CHARTSTYLE:;
#DIFFICULTY:Beginner;
#METER:2;
#RADARVALUES:0.085055,0.150707,0.009303,0.176756,0.000000,64.000000,63.000000,1.000000,19.000000,0.000000,0.000000,0.000000,0.000000,0.000000,0.085055,0.150707,0.009303,0.176756,0.000000,64.000000,63.000000,1.000000,19.000000,0.000000,0.000000,0.000000,0.000000,0.000000;
#CREDIT:;
#NOTES:
0000
0000
0000
0000
,
0000
0000
0000
0000
,
0000
0000
0000
0200
,
0000
0000
0000
0000
,
0300
0000
0000
0020
,
0000
0000
0000
0000
,
0030
0000
0000
2000
,
0000
0000
0000
0000
,
3000
0000
0000
0002
,
0000
0000
0000
0000
,
0003
0000
0000
1000
,
0000
0000
1000
0000
,
0000
0000
0000
0001
,
0000
0100
0000
0002
,
0000
0003
0000
1000
,
0000
0010
0000
2000
,
0000
3000
0000
0001
,
0000
0100
0000
0001
,
0000
0000
0000
1000
,
0000
0100
0000
2000
,
0000
3000
0000
0001
,
0000
0000
0000
0002
,
0000
0003
0000
1000
,
0000
0000
0000
2000
,
0000
3000
0000
0001
,
0000
0000
0000
0001
,
0000
0000
0000
0100
,
0000
0000
0000
0020
,
0000
0030
0000
1000
,
0000
0000
0000
0000
,
0000
0000
0000
0001
,
0000
0000
0000
0000
,
0000
0000
0000
0100
,
0000
0000
0000
0100
,
0000
0000
0000
0100
,
0000
0000
0000
0010
,
0000
0000
0000
0010
,
0000
0000
0000
0000
,
0000
0000
0000
2000
,
0000
3000
0000
0000
,
0000
0000
0000
0002
,
0000
0003
0000
0000
,
0000
0000
0000
0200
,
0000
0000
0000
0300
,
0000
0000
0000
0000
,
0000
0000
0000
0001
,
0000
0000
0000
0001
,
0000
0000
0000
1000
,
0000
0000
0000
0000
,
0000
0000
0000
1000
,
0000
0000
0000
1000
,
0000
0000
0000
0001
,
0000
0000
0000
0000
,
0000
0000
0000
0010
,
0000
0000
0000
0010
,
0000
0000
0000
0100
,
0000
0000
0000
0000
,
0000
0000
0000
1000
,
0000
1000
0000
1000
,
0000
0000
0000
0002
,
0000
0000
0000
0000
,
0003
0000
0000
1000
,
0000
0000
0000
0100
,
0000
0000
0000
0000
,
0000
0000
0000
0000
,
0000
0000
0000
2000
,
0000
0000
0000
3000
,
0000
0000
0000
0020
,
0000
0000
0000
0030
,
0000
0000
0000
0100
,
0000
0000
0000
0001
,
0000
0000
0000
1000
,
0000
0000
0000
0001
,
0000
0000
0000
0100
,
0000
0000
0000
0010
,
0000
0000
0000
0100
,
0000
0000
0000
0001
,
0000
0000
0000
0200
,
0000
0000
0000
0000
,
0300
0000
0000
0220
,
0000
0000
0000
0000
,
0330
0000
0000
0000
;

//---------------dance-single - ----------------
#NOTEDATA:;
#CHARTNAME:;
#STEPSTYPE:dance-single;
#DESCRIPTION:;
#CHARTSTYLE:;
#DIFFICULTY:Easy;
#METER:5;
#RADARVALUES:0.239218,0.347465,0.065121,0.213967,0.000000,180.000000,173.000000,7.000000,23.000000,0.000000,0.000000,0.000000,0.000000,0.000000,0.239218,0.347465,0.065121,0.213967,0.000000,180.000000,173.000000,7.000000,23.000000,0.000000,0.000000,0.000000,0.000000,0.000000;
#CREDIT:;
#NOTES:
0000
0000
0000
0000
,
0000
0000
0000
0000
,
0000
0000
0000
0200
,
0000
0000
0000
0320
,
0000
0000
0000
2030
,
0000
0000
0000
3002
,
0000
0000
0000
2003
,
0000
0000
0000
3200
,
0000
0000
0000
0320
,
0000
0000
0000
0032
,
0000
0000
0000
1003
,
0000
0100
0100
0000
,
0010
0010
0000
0001
,
1000
0100
0000
0010
,
0000
0001
0000
1000
,
0010
0100
0000
0001
,
0000
1000
0000
0001
,
0100
0001
0000
1000
,
0000
0100
0000
0010
,
0000
0001
0000
2000
,
0000
3000
0000
1000
,
0001
1000
0000
0001
,
0000
0100
0000
0010
,
1000
0100
0000
1000
,
0000
0100
0000
0010
,
0001
0001
0000
1000
,
0000
0010
0000
0100
,
0010
0100
0010
0200
,
0000
0300
0000
0010
,
0000
0100
0000
1001
,
0000
0100
0000
0010
,
0010
0100
0000
0001
,
0000
1000
0000
0100
,
0010
0100
0000
0010
,
0000
0001
0000
1000
,
0001
1000
0000
0001
,
0000
0100
0000
0010
,
0010
0010
0000
0100
,
0100
0100
0000
0001
,
1000
0001
0000
2000
,
0000
3000
0000
0001
,
0100
0001
1000
0001
,
0100
0001
1000
0010
,
0000
0100
0000
0002
,
0000
0000
0000
0003
,
0000
0000
0000
1000
,
0010
0010
0000
0100
,
0001
0001
0000
1000
,
0000
1010
0000
0010
,
0000
0100
0000
0101
,
0000
0001
0000
1000
,
0100
1000
0000
0101
,
0000
0010
0000
0100
,
0000
1001
0000
0100
,
0010
0100
0000
0010
,
1000
0001
0000
1000
,
0100
1000
0000
0001
,
0010
0001
0000
1000
,
0000
0100
0000
0010
,
0000
0001
0000
1000
,
0000
1000
0000
0010
,
0000
0000
0000
2200
,
0000
0000
0000
0300
,
0000
0000
3000
0001
,
0100
0100
0001
0100
,
0100
0010
1000
0002
,
0000
1000
0000
0100
,
0003
0001
0010
0100
,
0000
1000
0001
0010
,
0000
0010
0001
2000
,
0000
0000
0000
0010
,
0000
0010
0000
3200
,
0000
0010
0000
0010
,
0000
0010
0000
0302
,
0000
1000
0000
1000
,
0000
1000
0000
0103
,
0000
0010
0000
0100
,
0010
0100
0010
0200
,
0000
0320
0230
0000
,
0301
1000
1000
2002
,
0000
0000
0000
0000
,
0000
0000
0000
0000
,
0000
0000
0000
0000
,
3003
0000
0000
0000
;

//---------------dance-single - ----------------
#NOTEDATA:;
#CHARTNAME:;
#STEPSTYPE:dance-single;
#DESCRIPTION:;
#CHARTSTYLE:;
#DIFFICULTY:Medium;
#METER:10;
#RADARVALUES:0.418632,0.501893,0.260482,0.102332,0.000000,315.000000,287.000000,28.000000,11.000000,0.000000,0.000000,0.000000,0.000000,0.000000,0.418632,0.501893,0.260482,0.102332,0.000000,315.000000,287.000000,28.000000,11.000000,0.000000,0.000000,0.000000,0.000000,0.000000;
#CREDIT:;
#NOTES:
0000
0000
0000
0200
,
0000
0000
0320
0000
,
1030
0000
0000
0101
,
0001
0001
1000
1100
,
1100
0100
0010
0011
,
0011
0001
1000
0100
,
0010
0001
0100
0010
,
1000
0100
0010
0001
,
1000
0001
1000
0001
,
0100
0001
0000
1000
,
0010
1000
0000
0001
,
0000
0100
0110
0000
,
1100
0000
0000
0100
,
0010
0001
1000
0001
,
0100
0010
0100
0001
0100
0010
0100
0000
,
0001
1000
0010
0100
,
0001
0000
1000
0001
1000
0001
1000
0000
,
0010
0100
0001
1000
,
0010
0100
0010
1000
0010
0100
0010
0000
,
1000
0000
0001
0000
0100
0000
0010
0100
,
0010
0000
0100
0010
0100
0000
0001
0000
,
1000
0010
1010
0100
,
0001
0100
0101
0001
,
1000
0010
1000
1010
,
0001
0100
0001
0101
,
1000
0001
1000
0001
,
0100
0010
0100
0001
0100
0010
0100
0000
,
0001
0010
0100
1000
,
0100
0020
0000
0031
,
0000
1001
0000
0100
,
0000
0000
0010
0100
0010
0000
2000
0000
,
0000
3010
0000
0100
,
0101
1010
0000
0101
,
0001
0001
0000
1000
,
0010
1000
0000
0001
,
0010
0100
0000
1000
,
0010
0100
0000
0002
,
0000
0000
0000
0103
,
0010
1001
0100
0010
,
1000
0001
1000
0002
,
0000
0000
0000
1003
,
0100
0011
0001
1000
,
0100
1000
0000
0020
,
0000
0000
0000
0130
,
0000
0001
1000
1000
,
0000
0010
0000
0000
0100
0000
0110
0000
,
0001
1000
0010
1000
,
0001
0000
0100
0000
0001
0000
1000
0100
,
1000
0000
0001
0000
0001
0000
0100
0001
,
0100
0001
0000
1010
,
1000
0100
0010
0001
,
0100
0010
0100
1000
,
0100
0001
0100
0010
,
0010
0110
0000
2001
,
0001
0000
0001
0000
3000
0001
0000
0000
,
1000
0010
0000
0100
,
0000
0000
0010
0000
0000
0100
0000
0000
,
0001
0000
1000
0100
1000
0001
1000
0000
,
0001
0010
0100
0010
,
0001
1000
0100
1100
,
0000
0010
0000
0001
,
0000
1000
0000
0020
,
0000
0000
0000
0130
,
0000
0000
0100
0010
0100
0000
0001
0000
,
1000
0010
1000
0010
,
0100
0000
0001
0000
0010
0000
0100
0010
,
0001
0000
1000
0000
0010
0000
1000
0100
,
0010
0000
0001
0000
1000
0000
0010
0100
,
0010
0100
0001
0000
1000
0000
0002
0000
,
0000
0100
0100
0103
,
0000
0010
0100
0001
,
0001
1000
1001
0010
,
0010
0100
1000
0001
,
0001
0000
0100
0010
0100
0000
0110
0000
,
0010
0010
0000
0110
,
0100
0100
0000
1001
,
1000
0001
1000
1100
,
1100
1000
0001
0100
,
0000
0010
0000
0000
1000
0000
0000
0001
,
0000
1000
0000
0020
,
0000
0000
0000
0100
,
0000
0000
0000
0000
,
0000
0000
0000
0000
,
0030
0000
0000
0000
;

//---------------dance-single - ----------------
#NOTEDATA:;
#CHARTNAME:;
#STEPSTYPE:dance-single;
#DESCRIPTION:;
#CHARTSTYLE:;
#DIFFICULTY:Challenge;
#METER:17;
#RADARVALUES:1.071166,1.196822,0.325603,0.232573,0.902384,806.000000,771.000000,35.000000,25.000000,0.000000,0.000000,0.000000,0.000000,0.000000,1.071166,1.196822,0.325603,0.232573,0.902384,806.000000,771.000000,35.000000,25.000000,0.000000,0.000000,0.000000,0.000000,0.000000;
#CREDIT:;
#NOTES:
// measure 0
0000
0000
0000
0000
0000
0000
0100
0010
,  // measure 1
0000
0010
0100
0000
0001
1000
0000
1000
,  // measure 2
0010
0000
0010
0001
0000
0010
1000
0100
,  // measure 3
0010
0000
0001
0000
1000
0000
0001
0100
0010
0100
0001
0000
1000
0000
0010
0100
,  // measure 4
0010
0100
0001
0000
1000
0000
0010
0100
0001
1000
0010
0000
1000
0000
0001
0100
,  // measure 5
0010
0100
0001
0000
1000
0000
0010
0100
0010
0100
0010
0000
1000
0000
0001
0010
,  // measure 6
0100
0010
0001
0000
0010
0000
0100
1000
0100
0010
0001
0000
1000
0100
1000
0000
,  // measure 7
0100
1000
0100
0010
0001
0000
0100
0010
0100
0010
0100
0001
1000
0010
1000
0000
,  // measure 8
0001
0010
0001
0010
0100
0000
1000
0100
0010
0100
0010
0001
1000
0010
1000
0000
,  // measure 9
0001
0010
0001
0100
0001
0000
1000
0010
0100
0001
1000
0000
0001
0010
0001
0000
,  // measure 10
1000
0100
1000
0001
0010
0001
0010
0001
1000
0000
0100
0000
0010
0000
0220
0000
,  // measure 11
0330
0001
0022
0033
1000
2200
3300
0010
,  // measure 12
0202
0000
0303
0000
0001
0010
0001
0010
0100
0000
0000
0000
1000
0000
0010
0000
,  // measure 13
0100
0000
0001
0010
0001
0000
1000
0000
0100
0000
0010
0000
0100
0000
1000
0000
,  // measure 14
0100
0010
0001
1000
0001
0100
0101
0001
,  // measure 15
1000
0000
0010
0100
0010
0000
1000
0000
0001
0000
0010
0000
0100
0000
0010
0000
,  // measure 16
0001
0000
1000
0100
0010
0000
0001
0000
1100
0000
0010
0000
0011
0000
0001
0000
,  // measure 17
1000
0000
0010
0100
0010
0000
0100
0000
0001
0000
1000
0000
0100
0000
0010
0000
,  // measure 18
0100
0000
1000
0100
0010
0000
0001
0000
0100
0000
0010
0000
0010
0000
0100
0000
,  // measure 19
0001
0000
1000
0010
0100
0000
0001
0000
0010
0000
0100
0000
1100
0000
0001
0000
,  // measure 20
0100
0000
0010
0100
0010
0000
2000
0000
0000
0000
3000
0000
0001
0000
0100
0000
,  // measure 21
0010
0000
1000
0100
0010
0000
0001
0000
1000
0000
0010
0000
0100
0000
0001
0000
,  // measure 22
0100
0000
0010
1000
0001
0000
1000
0000
1000
0000
0001
0000
0101
0000
1000
0000
,  // measure 23
0010
0000
0100
0010
0100
0000
0001
0000
1000
0000
0010
0000
0010
0000
0100
0000
,  // measure 24
0001
0000
1000
0100
0001
0000
0100
0000
1000
0000
0001
0000
0110
0000
0010
0000
,  // measure 25
0100
0000
0001
0010
0001
0000
1000
0000
0010
0000
0100
0000
0001
0000
1000
0000
,  // measure 26
0100
0000
0010
0001
1000
0000
0001
0000
0001
0000
0100
0000
0100
0000
0010
0000
,  // measure 27
1000
0000
0001
0010
0100
0000
1000
0000
0100
0000
0010
0000
0001
0000
0010
0100
,  // measure 28
1000
0000
0001
0010
0001
0000
2000
0000
0000
0000
0000
0000
3010
0000
0000
0000
,  // measure 29
0100
0010
1000
0010
0100
0002
0000
1003
,  // measure 30
0000
0100
1100
0010
0001
0010
0100
0000
,  // measure 31
1000
0000
0010
0000
0110
0000
0001
0000
0000
0000
1000
0000
0001
0100
0001
0000
,  // measure 32
0010
0001
0010
0000
0001
0000
1000
0100
0010
0000
0000
0000
0101
0000
0000
0000
,  // measure 33
1000
0000
0010
0100
0001
0000
0000
0000
1000
0000
0100
0000
0010
0000
0001
0000
,  // measure 34
0010
0000
0001
1000
0001
0000
1000
0100
1000
0000
0010
0000
0110
0000
0000
0000
,  // measure 35
0001
0000
1000
0100
0010
0000
0001
0000
1000
0000
0010
0000
0010
0000
0100
0000
,  // measure 36
0001
0000
1000
0010
0100
0000
0002
0000
0000
0000
0003
0000
1000
0100
1000
0000
,  // measure 37
0001
0010
0001
1000
0100
1000
0001
0010
0001
0000
1000
0000
0100
0010
0001
0000
,  // measure 38
1000
0100
0010
0001
1000
0100
1000
0001
0010
0001
1000
0100
1000
0001
0010
0100
,  // measure 39
0010
0001
1000
0010
0100
0001
1000
0001
0010
0000
0000
0000
0100
0010
0100
0000
,  // measure 40
0001
1000
0001
0100
0010
0000
1000
0000
0001
0000
0100
0000
0010
0100
0001
0000
,  // measure 41
0100
0001
0100
0001
1000
0010
1000
0010
1000
0000
0001
0000
1000
0100
1000
0000
,  // measure 42
0100
1000
0100
0010
0001
0010
0001
0010
0001
0000
1000
0000
0010
0100
0001
1000
,  // measure 43
0010
0100
0001
1000
0010
0100
0001
1000
0010
0100
0010
0100
0001
0010
0001
1000
,  // measure 44
0100
0010
0100
0010
0001
0000
1000
0000
0001
0000
0000
0000
1001
0001
0100
0000
,  // measure 45
0010
0000
0110
0010
1000
0000
0001
0000
0010
0000
0001
0000
0011
0000
0000
0000
,  // measure 46
1000
0000
0010
0100
0001
0000
1000
0000
1000
0000
1010
0000
0000
0000
0100
0000
,  // measure 47
0001
0100
1000
0100
0001
0000
1100
0100
,  // measure 48
0010
0000
0001
0100
0001
0000
1000
0000
0010
0000
0100
0000
0000
0000
0001
0000
,  // measure 49
1000
0000
0010
1000
0010
0000
0000
0000
0100
0000
0010
0000
0100
0000
0000
0000
,  // measure 50
0001
0000
1000
0010
1000
0000
0001
0000
0010
0000
0100
0000
0010
0000
0001
0000
,  // measure 51
1000
0000
0001
0100
0010
0000
1000
0000
0001
0000
0000
0000
0011
0000
0011
0000
,  // measure 52
0001
0000
1000
0100
1000
0000
0010
0000
0100
0000
0101
0000
0101
0000
0001
0000
,  // measure 53
1000
0000
0010
0100
0020
0000
1030
0000
,  // measure 54
0001
0000
0100
0010
1000
0000
0001
0000
0010
0000
0100
0000
0000
0000
1000
0000
,  // measure 55
0100
0010
0001
0100
0010
0000
1010
0000
,  // measure 56
0001
0000
0100
0001
1000
0000
0010
0000
0100
0000
0001
0000
0000
0000
1000
0000
,  // measure 57
0010
0000
0100
0001
1000
0000
0001
0010
0100
0000
0000
0000
0010
0000
0001
0000
,  // measure 58
1000
0000
0010
0100
0001
0000
0100
0000
0001
0000
1000
0000
0000
0000
0001
0000
,  // measure 59
0001
0000
0100
0001
1000
0000
0010
0000
0010
0000
1000
0000
0002
0000
0000
0000
,  // measure 60
0003
1000
0010
0100
0001
1000
0000
1100
,  // measure 61
0010
0011
0000
1001
0100
1001
0020
0000
,  // measure 62
0130
0000
0001
1000
0010
0000
1000
0000
0100
0000
0010
0000
0001
0000
1000
0000
,  // measure 63
0001
0000
0001
0000
1000
0000
1000
0000
0010
0000
0010
0000
1000
0100
0010
0001
,  // measure 64
1000
0000
0100
0010
0001
1000
0010
0100
0001
0000
1000
0000
0002
0000
0003
0000
,  // measure 65
0100
0000
0010
0100
0010
0000
0100
0010
1000
0000
0001
0000
0011
0000
0001
0000
,  // measure 66
1100
0000
0100
0000
1000
0001
1000
0001
1000
0100
1000
0001
0010
0001
1000
0100
,  // measure 67
1000
0100
0010
0001
0010
0001
1000
0010
0100
0010
0100
0000
0001
0010
0100
1000
,  // measure 68
0001
0000
0001
0010
0001
0000
0100
0010
1000
0100
0010
0100
1000
0000
0001
0010
,  // measure 69
0001
0010
0100
1000
0001
0000
0001
0000
0100
0001
0100
0000
0110
0000
0010
0000
,  // measure 70
0100
0010
0100
0010
1000
0001
0100
0010
1000
0000
0001
0000
0100
0010
1000
0100
,  // measure 71
0010
0001
1000
0001
0010
0001
1000
0001
0100
0000
0010
0000
0100
0001
1000
0010
,  // measure 72
1000
0010
0100
0001
1000
0001
0100
0001
1000
0000
0001
0000
1000
0100
1000
0100
,  // measure 73
1000
0100
0010
0001
0010
0000
0001
0000
0010
0000
0001
0000
1000
0100
1000
0100
,  // measure 74
1000
0001
0010
0001
0010
0001
1000
0100
1000
0000
0001
0000
0100
0010
1000
0001
,  // measure 75
1000
0010
1000
0001
0100
0010
0100
0010
0100
0000
0001
0000
1000
0100
0010
0001
,  // measure 76
0010
0001
1000
0100
1000
0010
0100
0001
0100
0001
1000
0010
0100
0001
1000
0001
,  // measure 77
0100
0010
0100
0001
0010
0001
0100
0010
1000
0000
0001
0000
0100
0000
0220
0000
,  // measure 78
0330
0001
2200
3300
0010
0022
0033
0001
,  // measure 79
2020
3030
0100
0000
0000
0000
0020
0000
,  // measure 80
0000
0000
0000
0000
,  // measure 81
0000
0000
0000
0000
,  // measure 82
0000
0000
0000
0000
,  // measure 83
0030
0000
0000
0000
;

//---------------dance-single - ----------------
#NOTEDATA:;
#CHARTNAME:;
#STEPSTYPE:dance-single;
#DESCRIPTION:;
#CHARTSTYLE:;
#DIFFICULTY:Hard;
#METER:14;
#RADARVALUES:0.732274,0.810750,0.167453,0.213967,0.176756,551.000000,533.000000,18.000000,23.000000,0.000000,0.000000,0.000000,0.000000,0.000000,0.732274,0.810750,0.167453,0.213967,0.176756,551.000000,533.000000,18.000000,23.000000,0.000000,0.000000,0.000000,0.000000,0.000000;
#CREDIT:;
#NOTES:
0000
0000
0000
0000
0000
0000
0110
0110
,
0000
1001
1001
0000
1100
1100
0000
0001
,
0100
0000
0010
0200
0000
0300
0010
1000
,
0001
1000
0100
1000
0001
0100
0001
1000
,
0001
0100
0100
0001
0010
0100
1000
0001
,
0010
0001
0010
1000
0010
1000
0010
0001
,
1000
0000
0001
0000
0100
0000
0010
0000
0100
0000
0010
0000
1000
0000
0001
0010
,
0001
0000
1000
0100
1000
0000
0001
0000
0100
0000
0010
0000
0100
0010
0100
0000
,
0010
0100
0010
0000
0100
0000
0000
0000
0001
0000
0000
0000
1000
0100
1000
0000
,
0100
1000
0100
0000
1000
0000
0000
0000
0001
0000
0000
0000
0010
0001
0010
0000
,
0001
1000
0001
0000
0010
0000
0000
0000
0001
0000
0100
0000
0010
0000
0110
0000
,
0000
1000
1100
0000
0010
0011
0000
0001
,
0200
0000
0000
0300
0010
0000
0100
0000
,
0001
1000
0100
1000
0010
0200
0000
0300
,
0001
0000
0100
0001
0100
0001
0100
0000
,
0010
1000
0000
0010
0100
0001
0000
0001
,
0000
1000
0020
0000
0130
0000
0010
0010
,
1000
0001
0000
0001
0000
1000
0000
0100
,
0000
0010
0000
0001
1000
0000
0010
0000
,
0100
0001
0100
0001
0000
1000
0002
0000
,
0103
0010
0100
0020
0000
0030
0110
0000
,
1000
0000
0001
0010
0001
0000
0000
0000
1000
0000
0010
0000
0100
0000
0001
0000
,
1000
0100
0010
0010
0001
0001
1100
0000
,
0010
0000
0100
0010
0100
0000
0000
0000
0001
0000
1000
0000
0001
0000
0000
0000
,
0100
0010
0100
0001
0100
0000
1010
0000
,
0010
0100
0001
0000
1000
0010
0100
0001
,
1000
0001
0010
0010
0100
0100
1000
0000
,
0001
0000
0010
0001
0010
0000
0000
0000
0001
0000
1000
0000
0100
0000
0010
0000
,
0001
0010
0001
0010
0001
0000
0000
0000
1000
0000
0000
0000
0020
0000
0030
0000
,
0100
0010
1000
0010
0001
0010
1000
0000
,
0100
0001
0010
0000
0000
0000
1010
0000
,
0001
0010
0100
0000
1000
0010
0100
0100
,
0001
0001
2000
0000
3020
0000
0130
0000
,
0001
0000
1000
0100
1000
0000
0000
0000
0001
0000
0010
0000
0001
0000
0000
0000
,
0010
0000
0001
0000
0010
0000
0100
0000
0010
0000
0001
0000
1000
0000
0010
0100
,
0010
0100
0010
0000
1000
0001
0100
0010
,
0010
0000
0100
0000
0001
0000
2000
0000
0000
0000
3000
0000
0010
0100
0010
0000
,
0100
0010
0100
0000
0010
0000
0000
0000
0100
0000
0000
0000
0001
0010
0001
0000
,
1000
0100
1000
0000
0001
0000
0000
0000
0100
0000
0000
0000
0001
0010
0001
0000
,
0010
0100
0010
0000
0100
0000
0000
0000
1000
0000
0000
0000
0010
0100
0010
0000
,
1000
0100
1000
0000
0001
0000
0000
0000
0010
0000
0001
0000
1000
0000
0000
0000
,
0010
0000
0000
0000
0110
0000
0000
0000
0001
0000
0000
0000
1000
0100
1000
0000
,
0100
1000
0100
0000
0010
0000
0001
0000
0010
0000
0001
0000
1000
0000
0100
0000
,
1000
0100
0001
0010
0001
0000
0100
1000
,
0010
0000
0100
0000
0001
0000
0010
0000
0100
0000
1000
0000
0001
0010
0001
0000
,
0000
0000
1000
0100
1000
0000
0000
0000
0010
0000
0000
0000
0110
0000
0000
0000
,
1000
0001
0100
0000
0010
0010
0000
0100
,
0100
0001
0001
1000
0000
0001
1000
0010
,
0010
0100
0010
0000
1000
0100
0000
0010
,
0100
1000
0000
0000
0001
0100
0010
0000
,
1000
0100
0010
0000
0001
0100
0000
0000
,
0100
0000
0010
1000
0000
0001
0100
0010
,
0010
1000
0100
0010
0010
0001
0000
1000
,
0010
1000
0000
0000
0001
0000
0110
0000
,
1000
0010
1000
0000
0001
0010
0000
0010
,
0100
1000
0001
0010
0000
0001
0100
0000
,
1000
0100
0010
0000
0100
0010
0000
0001
,
1000
0100
0001
0000
1000
0000
1100
0000
,
0001
0010
0001
0000
1000
0100
0000
0100
,
1000
0100
0010
0001
0010
0200
0300
2000
,
0000
0000
3010
0000
0010
0010
0000
0100
,
0001
0100
0000
0010
1000
0010
0100
0000
,
0001
1000
0100
0000
0100
1000
0010
0000
,
0010
0100
0001
1000
2000
0000
3010
0100
,
0010
0100
0001
0000
1000
0010
0100
0010
,
1000
0001
0001
0001
1000
0000
0120
0000
,
0100
0100
0100
0000
0130
0010
0010
0000
,
0100
0001
1000
0000
0001
0000
1000
0100
,
0010
0001
1000
0000
0001
0000
0010
0000
0100
1000
0001
0000
1000
0000
0010
0000
,
0100
0001
0100
0000
0001
0000
0100
0000
0001
0000
0100
0000
0020
0000
1000
0000
,
1000
0000
0130
0100
0010
0001
2000
0010
,
0010
0000
3010
0100
0001
0010
0200
1000
,
1000
0000
0310
0001
1000
0010
0020
0100
,
0100
0000
0000
0000
1030
0000
0001
0000
0100
0000
0010
0000
1000
0001
0100
0000
,
0010
1000
0010
0000
1000
0000
0100
0000
1000
0000
0001
0000
0010
0001
0010
0000
,
0001
1000
0001
0000
1000
0000
0100
0000
0010
0000
0001
0000
1000
0010
1000
0000
,
0001
0100
0001
0000
1000
0000
0010
0000
0100
0000
0001
0000
0010
0001
0010
0000
,
0001
0100
0001
0000
1000
0000
0010
0000
0100
0000
0010
0000
0100
0000
0020
0000
,
0000
1030
0200
0000
0310
0002
0000
1003
,
0020
0000
0130
0100
0000
0000
0020
0000
,
0000
0000
0000
0000
,
0000
0000
0000
0000
,
0000
0000
0000
0000
,
0030
0000
0000
0000
;
