#TITLE:INHERITANCE of WILL;
#SUBTITLE:;
#ARTIST:DJ TOTTO feat. Miyu Hoshitani;
#TITLETRANSLIT:;
#SUBTITLETRANSLIT:;
#ARTISTTRANSLIT:;
#GENRE:;
#CREDIT:;
#BANNER:Ec_INHERITANCE_of_WILL.png;
#BACKGROUND:;
#LYRICSPATH:;
#CDTITLE:;
#MUSIC:INHERITANCE_of_WILL.ogg;
#OFFSET:-0.273000;
#SAMPLESTART:54.036999;
#SAMPLELENGTH:16.100000;
#SELECTABLE:YES;
#BPMS:0.000000=184.000000
;
#STOPS:
;
#BGCHANGES:;
#KEYSOUNDS:;
#ATTACKS:;

//---------------dance-single - ----------------
#NOTES:
     dance-single:
     :
     Beginner:
     3:
     0.105528,0.143507,0.000000,0.061558,0.000000,96.000000,96.000000,0.000000,8.000000,0.000000,0.000000,0.105528,0.143507,0.000000,0.061558,0.000000,96.000000,96.000000,0.000000,8.000000,0.000000,0.000000:
0000
0000
0000
0000
,
0000
0000
0000
0000
,
0000
0000
0000
0000
,
0000
0000
0000
0000
,
0000
0100
0000
0000
,
0000
0010
0000
0000
,
0000
0100
0000
0000
,
0000
0000
0000
0000
,
0000
0000
0001
0000
,
0000
0000
1000
0000
,
0000
0000
0001
0000
,
0000
0100
0000
0000
,
0000
0020
0000
0000
,
0000
1000
0000
0000
,
0000
0031
0000
0000
,
0000
1000
0000
0000
,
0000
0200
0000
0000
,
0000
0010
0000
0000
,
0000
1300
0000
0000
,
0000
0001
0000
0000
,
0000
1000
0000
0001
,
0000
1000
0000
0000
,
0000
0010
0000
0100
,
0000
0010
0000
0000
,
0000
0100
0000
0001
,
0000
0100
0000
0000
,
0000
0001
0000
1000
,
0000
0001
0000
0000
,
0000
1000
0000
0000
,
0000
0010
0000
0010
,
0000
0000
0000
0000
,
0000
0100
0000
0100
,
0000
0000
0000
0000
,
0000
0001
0000
1000
,
0000
1000
0000
0000
,
0000
0100
0000
0100
,
0000
0010
0000
0000
,
0000
0001
0000
0001
,
0000
0100
0000
0000
,
0000
0020
0000
0000
,
0000
1030
0000
0000
,
0000
1000
0000
0100
,
0000
0010
0000
0000
,
0000
0001
0000
0000
,
0000
1000
0000
0000
,
0000
0010
0000
0000
,
0000
0100
0000
0001
,
0000
0100
0000
0000
,
0000
0010
0000
0000
,
0000
1000
0000
0000
,
0000
0001
0000
0000
,
0000
0100
0000
0000
,
0000
0010
0000
0000
,
0000
1000
0000
1000
,
0000
1000
0000
0000
,
0000
0002
0000
0000
,
0000
1003
0000
0000
,
0000
0100
0000
0000
,
0000
0000
0000
0000
,
0000
0010
0000
0000
,
0000
0000
0000
0000
,
0000
0001
0000
0000
,
0000
1000
0000
0000
,
0000
0010
0000
0000
,
0000
1000
0000
0000
,
0000
0001
0000
0000
,
0000
0000
0000
0000
,
0000
0000
0000
0000
,
0000
0000
1000
0000
,
0000
0000
1000
0000
,
0000
0000
1000
0000
,
0000
0000
0001
0000
,
0000
0000
0001
0000
,
0000
2000
0000
0000
,
0000
3010
0000
0000
,
0000
0020
0000
0000
,
0000
0130
0000
0000
,
0000
0001
0000
0000
,
0000
1000
0000
0000
,
0000
0001
0000
0000
,
0000
0100
0000
0000
,
0000
0010
0000
0000
,
0000
0010
0000
0000
,
0000
1000
0000
1000
,
0000
1000
0000
0000
,
0000
0001
0000
0001
,
0000
0001
0000
0000
,
0000
0100
0000
0100
,
0000
0100
0000
0000
,
0000
0010
0000
0000
,
0000
0000
0000
0000
,
0000
2000
0000
0000
,
0000
3002
0000
0000
,
0000
0003
0000
0000
;

//---------------dance-single - ----------------
#NOTES:
     dance-single:
     :
     Easy:
     6:
     0.230842,0.326353,0.069253,0.146200,0.000000,210.000000,201.000000,9.000000,19.000000,0.000000,0.000000,0.230842,0.326353,0.069253,0.146200,0.000000,210.000000,201.000000,9.000000,19.000000,0.000000,0.000000:
0000
0000
0000
0000
,
0000
0000
0000
0000
,
0000
0100
0000
0010
,
0000
1000
0000
0001
,
0000
1000
0000
0000
0000
1000
0000
0000
,
0000
0002
0000
0000
0000
0000
0003
0000
,
0000
0100
0000
0000
0000
0010
0000
0000
,
0000
0200
0000
0000
0000
0000
0300
0000
,
0000
1001
0000
0000
0000
0000
0100
0000
,
0000
0010
0000
0000
0000
1000
0000
0000
,
0000
0002
0000
0000
0000
0000
0003
0000
,
0000
0100
0010
0100
,
1001
0002
0000
0000
,
0000
1003
0000
0100
,
0010
0001
0000
1000
,
0000
0100
1000
0001
,
0000
2000
0000
0000
,
0000
3010
0000
0100
,
0001
1000
0000
0001
,
0000
0001
1000
0001
,
0000
1000
0010
0100
,
0000
0010
0000
1000
,
0000
0001
0010
0001
,
0000
0010
0000
0100
,
0000
1000
0010
0100
,
0000
0100
0001
1000
,
0000
0100
0010
0001
,
0000
2000
0000
0000
,
0000
3000
0000
0000
,
0000
0010
0100
0010
,
0000
0100
0000
0010
,
0000
0100
0001
0100
,
0000
0010
0000
1000
,
0000
0001
0000
1000
,
0010
1000
0000
0001
,
0100
0001
0000
1000
,
0010
0100
0010
0010
,
0000
0001
0100
0010
,
1000
1000
0000
0001
,
0100
0010
1000
0010
,
0000
1000
0000
0001
,
1000
1001
0000
0100
,
0000
0010
0000
0000
0000
0100
0000
0000
,
0000
0001
1000
0001
,
0000
1000
0000
0000
0000
0001
0000
0000
,
0000
1000
0000
0100
,
0000
0010
0000
0001
,
0000
0100
0010
1000
,
0000
0010
0000
0000
0000
0000
1000
0000
,
0000
1000
0100
1100
,
0000
0001
0100
0010
,
1000
0001
0000
1000
,
1000
0010
0010
0100
,
0000
0001
0000
1001
,
0000
1010
0000
0101
,
0000
0002
0000
0100
,
0000
1003
0000
0100
,
0000
0020
0000
0001
,
0000
0031
0000
1000
,
0010
2000
0000
0010
,
0000
3001
0000
0100
,
0001
1000
0000
0001
,
0100
1000
0100
0001
,
0000
0010
0100
1000
,
0100
0010
0001
0100
,
0000
0010
0000
0000
0000
0010
0000
0000
,
0000
2000
0000
0000
0000
0000
3000
0000
,
0000
0002
0000
0000
0000
0000
0003
0000
,
0000
2000
0000
0000
0000
0000
3000
0000
,
0000
0020
0000
0000
0000
0000
0030
0000
,
0000
2000
0000
0000
0000
0000
3000
0000
,
0000
0002
0000
0000
0000
0000
0003
0000
,
0000
0100
0010
1000
,
0000
0010
0000
0100
,
0100
0000
0000
0000
,
0000
1000
0000
0001
,
0000
0100
0100
0000
,
0000
0001
0000
1000
,
0000
0001
0001
0000
,
0000
0001
0000
0010
,
0000
0100
0100
0000
,
0000
1000
0000
0010
,
0000
0110
0000
0001
,
0000
1000
0100
1000
,
0000
1000
0010
1000
,
0000
0001
0100
0001
,
0000
0001
0010
0001
,
0000
0200
0000
0000
,
0300
0010
0000
0000
,
0000
2000
0000
0000
0000
0000
3000
0000
,
0000
0002
0000
0000
0000
0000
0003
0000
,
0000
0201
0000
0000
0000
0000
0000
0000
,
0000
0000
0000
0000
,
0000
0000
0000
0000
,
0000
0300
0000
0000
;

//---------------dance-single - ----------------
#NOTES:
     dance-single:
     :
     Medium:
     8:
     0.288003,0.326353,0.138505,0.138505,0.000000,262.000000,244.000000,18.000000,18.000000,0.000000,0.000000,0.288003,0.326353,0.138505,0.138505,0.000000,262.000000,244.000000,18.000000,18.000000,0.000000,0.000000:
0000
0000
0000
0000
,
0000
0000
0000
0000
,
0000
0110
0100
0010
,
0000
0010
0100
0001
,
1000
0001
0000
0000
0001
0000
0100
0000
,
0010
0100
0000
0000
0010
0000
0000
0000
,
1000
0001
0000
0000
0001
0000
1000
0000
,
0010
0200
0000
0000
0000
0000
0301
0000
,
0000
0002
0000
0000
0003
0000
1000
0000
,
0000
2000
0000
0000
3000
0000
0010
0000
,
0000
0200
0000
0000
0300
0000
0001
0000
,
0000
1001
0000
0100
,
0010
1000
0000
0001
,
0100
0001
0000
0000
0100
0000
0000
0000
,
0010
1000
0001
1000
,
1000
0001
0000
0000
0100
0000
0010
0000
,
1000
0000
0001
0100
,
0010
1000
0000
0001
,
0100
0010
0000
0100
,
0000
0010
0000
0000
,
0000
1000
0001
1000
,
0001
1000
0000
0000
0000
0000
0001
0000
,
0100
0010
0000
1000
,
0001
0100
0000
0000
0001
0000
1000
0000
,
0001
0000
1000
0010
,
1000
0001
0000
0000
1000
0000
0010
0000
,
0100
0000
0001
0000
1000
0001
0000
0000
,
1000
0001
0000
0000
0000
0000
0000
0000
,
0000
0100
0000
0010
,
0010
0000
1000
0000
0000
0001
1000
0000
,
0000
0001
0100
0000
0001
0100
0000
0000
,
0000
0110
0000
1000
,
0000
0001
0100
0000
0000
0000
0010
0000
,
0000
2000
0000
0000
,
3000
0001
0000
0100
,
0000
0010
0000
0000
,
0000
1000
0000
0100
,
0000
1000
0000
0000
,
0000
0001
0000
0010
,
0000
0001
0000
0000
,
0000
1000
0000
0010
,
0100
1001
0000
0010
,
0000
0100
0000
0000
1000
0000
0100
0000
,
0000
0010
0000
0000
0001
0000
0010
0000
,
0000
0001
0000
0000
1000
0000
0100
0000
,
0000
1000
0001
0100
,
0000
0010
1000
0001
,
0000
1000
1000
1001
,
0000
0001
0000
0000
1000
0000
0001
0000
,
0000
1000
0010
1001
,
0000
0001
0000
0000
0100
0000
0010
0000
,
0000
1000
0000
0000
0001
0000
1000
0000
,
0000
0001
0000
0000
1000
0000
0100
0000
,
0000
1000
0001
0100
,
0001
1000
0001
0100
,
0010
2000
0000
0000
,
3001
1001
0000
0000
,
0000
0010
0100
0001
,
1000
0010
0000
0100
,
0001
0100
0000
0010
,
1000
0001
0100
0010
,
0000
1000
0001
0100
,
0000
0001
0010
0100
,
1000
0001
0000
1000
,
0000
0010
0000
0100
,
0000
0020
0000
0000
1030
0000
1000
0000
,
0001
0200
0000
0000
0000
0000
0300
0000
,
0000
0002
0000
0000
1003
0000
0001
0000
,
0000
0200
0000
0000
0000
0000
0310
0000
,
0000
0020
0000
0000
0000
0000
1030
0000
,
0000
1001
0000
0000
0110
0000
0000
0000
,
0000
0110
0000
0000
1001
0000
0000
0000
,
0000
0001
0000
1000
0001
0000
0000
0000
,
0000
0000
1000
0000
0010
0100
0010
0000
,
0001
0010
1000
0100
,
0000
0100
0010
0100
,
0010
0001
0000
0000
,
0000
1000
0000
0100
,
1000
0010
0000
0000
,
0000
0101
0000
0000
,
0000
0220
0000
0000
0000
0000
0330
0000
,
0000
1000
0001
1000
,
0001
0100
0000
0000
0001
0000
0001
0000
,
1000
0010
0000
0000
0100
0000
0100
0000
,
0001
1000
0000
0000
0000
0000
0010
0000
,
0000
1000
0100
0100
,
0010
0010
0001
0001
,
1000
0020
0000
0000
,
0000
0130
0010
1001
,
0000
2002
0000
0000
0000
0000
3003
0000
,
0000
0110
0000
0000
0000
1001
0000
0000
,
0000
0220
0000
0000
0000
0000
0000
0000
,
0000
0000
0000
0000
,
0000
0000
0000
0000
,
0000
0330
0000
0000
;

//---------------dance-single - ----------------
#NOTES:
     dance-single:
     :
     Hard:
     11:
     0.456188,0.543922,0.161589,0.169284,0.000000,415.000000,394.000000,21.000000,22.000000,0.000000,0.000000,0.456188,0.543922,0.161589,0.169284,0.000000,415.000000,394.000000,21.000000,22.000000,0.000000,0.000000:
0000
0000
0000
0000
,
0000
0000
0000
0000
,
0000
0000
0110
0000
0100
0010
0100
0000
,
0010
0100
0010
0000
0100
0000
0001
1000
,
0001
1000
0000
0001
0010
0001
0010
0000
,
0001
0100
0000
0100
0010
0000
1000
0000
,
0001
1000
0000
0000
0001
1000
0010
1000
,
0010
0200
0000
0000
0301
0000
0001
1000
,
0001
2000
0000
0000
3010
0000
0100
0000
,
0010
1000
0000
1000
0001
0000
0010
0000
,
0001
1000
0000
0001
0100
0000
0001
0010
,
0100
0000
1000
0100
0000
1000
0000
0200
,
0000
0310
0001
1000
,
0010
1000
0000
0010
0000
0100
0001
0000
,
1000
0000
0001
1000
,
0001
0010
0000
0000
0100
0000
1000
0000
,
0010
0000
0000
0000
0100
0000
0001
1000
,
0000
0010
0000
0000
0100
0000
0010
0000
,
0100
0000
1001
0000
0000
0001
0000
1000
,
0000
0001
0000
0000
0000
0000
0000
0000
,
0000
1000
0010
0100
,
0010
0100
0000
0010
0000
1000
0001
0000
,
1000
0010
0100
0001
,
0100
0001
0000
0000
1000
0000
0010
0000
,
0100
0000
0001
0010
,
0100
0010
0000
0000
0001
0000
1000
0000
,
0010
0000
0100
0000
0010
0100
0000
0010
,
0100
0020
0000
0000
0000
0000
1000
0000
,
0000
0130
0000
0010
,
0100
0000
0001
0000
0000
1000
0001
0000
,
0000
1000
0010
0000
0010
0100
0000
0000
,
0000
0000
0101
0000
0000
0010
0100
0000
,
0000
0001
0100
0000
0001
1000
0000
0000
,
0010
2000
0000
0000
,
3010
0000
0010
0000
0100
0010
0000
0000
,
0100
0000
0001
0000
1000
0000
0001
0100
,
0001
1000
0000
0000
0010
0200
0000
0000
,
0310
0020
0000
0000
,
0030
0000
1000
0000
0000
0001
0000
1000
,
0001
1000
0002
0000
0000
0000
0000
0000
,
0000
0000
0003
0000
0000
0100
0010
1000
,
0001
0000
1000
0001
0100
0000
0010
1000
,
0010
1000
0000
0001
0000
1000
0000
0001
,
0000
0101
0000
0100
0001
0000
0010
0001
,
0010
0001
0000
1000
0000
0001
0000
0100
,
0000
0000
0020
0000
0030
1000
0100
0000
,
0010
0001
0010
0000
0001
0000
1100
0000
,
0010
0000
0011
0000
0001
0100
0000
0100
,
0000
0110
0000
0010
0100
0010
0100
0000
,
0000
0000
0001
0100
0010
1000
0001
0100
,
0010
0100
0000
0010
0000
1000
0000
0001
,
0000
0101
0000
0100
0001
0100
0010
0000
,
1000
0010
0000
1000
0000
0001
0000
0100
,
0000
0010
0100
0110
,
0110
1000
1000
0011
,
0011
0002
0000
2003
,
0000
0000
3010
0000
0100
0000
0010
1000
,
0001
0100
0002
0000
0000
0000
0000
0000
,
1003
2000
0000
0010
,
3010
0000
0100
0000
0010
0100
0010
0000
,
1000
0001
1000
0000
0001
0000
0100
0000
,
0010
0000
2000
0000
3001
0010
0001
0000
,
1000
0100
1000
0000
0010
0100
0001
0000
,
1000
0010
0100
0000
0001
0100
0010
0000
,
1000
0100
1000
0100
0010
0001
0010
0001
,
0000
1000
0000
0001
0010
0100
0010
0001
,
0010
0002
0000
0000
0003
1000
0000
0010
,
0000
0101
0000
0001
1000
0001
1000
0100
,
1000
0200
0000
0000
0300
0010
0000
0011
,
0000
2002
0000
0000
3003
0000
0100
0010
,
0100
0020
0000
0000
1030
0000
0001
0010
,
0100
1000
0000
0001
1000
0000
0100
0000
,
0010
0001
0000
1000
0001
0000
1000
0100
,
1000
0100
0010
0000
0001
0010
0001
1000
,
0100
1000
0000
0001
0000
0100
0000
0010
,
0000
1000
0000
0000
0010
0100
0001
0100
,
0000
0001
0000
1000
0000
0010
0000
0001
,
0000
0000
0010
0000
0000
1000
0001
1000
,
0010
0100
0010
0000
1000
0000
0001
0000
,
0100
0000
0110
0000
0000
0010
0000
1000
,
0000
0001
0000
1000
0001
0000
2001
0000
,
0000
0000
3010
0100
0010
0100
0001
1000
,
0001
1000
0000
0001
0000
0100
0000
0010
,
0000
1010
0000
0100
0001
0100
0001
0000
,
1000
0010
0000
0010
0000
0100
0000
0001
,
0000
1000
0100
0000
0010
0000
0001
0000
,
1000
1010
0001
0011
,
1000
0000
0001
0100
0001
0000
1000
0010
,
1000
0000
0010
0001
0010
0000
0100
0001
,
0100
0010
0000
1000
0000
0001
0000
0000
,
0000
1000
0000
0100
0000
1000
0000
0000
,
0000
0022
0000
0000
0000
0000
0000
0000
,
0000
0000
0000
0000
,
0000
0000
0000
0000
,
0000
0033
0000
0000
;

//---------------dance-single - ----------------
#NOTES:
     dance-single:
     :
     Challenge:
     15:
     0.680434,0.761490,0.223147,0.200063,0.203910,619.000000,590.000000,29.000000,26.000000,0.000000,0.000000,0.680434,0.761490,0.223147,0.200063,0.203910,619.000000,590.000000,29.000000,26.000000,0.000000,0.000000:
// measure 0
0000
0000
0000
0000
,  // measure 1
0000
0000
0000
0000
,  // measure 2
0000
0000
0110
0000
0100
0010
0100
0000
,  // measure 3
0001
0000
0010
0000
0100
0000
1000
0000
0100
0000
0010
0000
0001
0000
1000
0001
,  // measure 4
1000
0001
0000
1000
0010
0001
0010
0001
,  // measure 5
1000
0000
0200
0000
0000
0000
0300
0000
0010
0000
1000
0001
0100
0000
0001
1000
,  // measure 6
0001
1001
0000
0001
0010
0001
0010
1000
,  // measure 7
0010
0000
0200
0000
0000
0000
0000
0000
1300
0000
0001
0100
0001
0000
1000
0000
,  // measure 8
0010
0000
1010
0000
0000
0000
1000
0000
0010
0000
0100
0001
0100
0000
0010
0000
,  // measure 9
0100
0000
0220
0000
0000
0000
0330
0000
1000
0000
0010
0100
0001
0000
1000
0000
,  // measure 10
0001
0000
1010
0000
0000
0000
0100
0000
0001
0000
0000
0000
1000
0000
0010
0100
,  // measure 11
0010
0000
1000
1100
0000
0110
0000
0012
,  // measure 12
0000
0000
0013
0000
0001
1000
0010
0000
,  // measure 13
0100
0000
0001
0000
0010
0000
0100
0000
0000
0000
0100
0000
0010
0000
0001
1000
,  // measure 14
0001
0000
1100
0000
0001
0010
1000
0010
,  // measure 15
0001
0000
0010
0000
0001
0000
0000
0000
1000
0000
0010
0000
1000
0000
0100
0010
,  // measure 16
0001
1000
1100
0000
0100
0010
0001
1000
,  // measure 17
0010
0000
0010
0000
0100
0000
0100
0000
0001
0000
0000
0000
1000
0000
0001
1000
,  // measure 18
0001
0000
1000
0010
0100
0001
0010
1000
,  // measure 19
0010
0001
0010
0001
1000
0000
0010
0100
,  // measure 20
0110
0000
1000
0000
0010
0100
0010
0000
,  // measure 21
0010
0000
1000
0000
0010
0000
0001
0000
1000
0000
1000
0000
0100
0000
0001
1000
,  // measure 22
0001
0000
0100
0000
0100
0010
1000
0000
,  // measure 23
0001
0100
0010
1000
1000
0000
0001
0100
,  // measure 24
0010
0100
0010
0000
1000
0000
0010
0000
,  // measure 25
0100
0010
0100
0000
0001
0000
1000
0000
,  // measure 26
0010
0000
0100
0000
0010
0100
0000
1000
,  // measure 27
0100
0022
0000
0000
0033
0000
1000
0000
,  // measure 28
0010
0000
0100
0000
0001
0000
0000
0000
1000
0000
0010
0100
0010
0000
0000
0000
,  // measure 29
0100
0000
0000
0000
0001
1000
0001
1000
0001
0000
1000
0001
1000
0000
0001
0000
,  // measure 30
0100
0000
0010
1000
0001
0000
0000
0000
1000
0000
0010
1000
0010
0000
0000
0000
,  // measure 31
0100
0000
0000
0000
0001
0100
0001
0100
0001
0000
0100
0001
0100
0000
0001
0000
,  // measure 32
1000
0001
0100
0000
0001
1001
0000
0100
,  // measure 33
0010
0000
2000
0000
0001
0000
0000
0001
,  // measure 34
3010
0100
0010
0000
0001
1000
0000
0000
,  // measure 35
0100
0010
0001
0000
1000
0000
0001
0100
,  // measure 36
0001
0001
0000
1000
0010
1000
0000
0000
,  // measure 37
0001
0200
0000
0310
,  // measure 38
0100
0010
1000
0000
0000
0001
0000
1000
,  // measure 39
0001
1000
0002
0010
0010
0010
0003
0001
,  // measure 40
1000
0002
0000
1003
0100
0010
0001
1000
,  // measure 41
0001
0000
1000
0100
0010
0000
0100
0010
,  // measure 42
0001
1000
0000
0001
1000
0010
0000
0100
,  // measure 43
0000
0101
0000
0100
0001
0001
1000
0100
,  // measure 44
0010
0110
0000
0001
0100
0001
0000
0100
,  // measure 45
0000
0010
1000
0000
0001
0100
0001
0000
,  // measure 46
0010
0001
0010
0000
0001
1000
0100
0000
,  // measure 47
0010
0000
0001
0010
0001
0000
0000
0000
1000
0000
0100
0000
0000
0000
0001
0000
,  // measure 48
0000
0101
0000
0010
1000
0010
0100
0000
,  // measure 49
0001
1000
0001
1000
0010
1000
0010
0001
,  // measure 50
0010
0100
0000
0001
1000
0100
0000
0001
,  // measure 51
0100
0110
0000
1000
0001
0100
0010
1000
,  // measure 52
0001
0000
0011
0000
0000
0000
1000
0000
0000
0000
0001
0100
0001
0000
0100
0000
,  // measure 53
0010
0000
0100
0010
1000
0000
0000
0000
0001
0000
0000
0000
0100
0000
0000
0000
,  // measure 54
0110
0000
1000
0000
0001
0010
0001
0000
,  // measure 55
0010
0000
0100
0000
1000
0001
1000
0001
1000
0000
0000
0000
0010
0000
0100
0000
,  // measure 56
0010
0100
0001
0100
0010
0000
0100
0000
0010
0000
0000
0000
1000
0000
1000
0000
,  // measure 57
0001
0100
0002
0000
0100
0100
0103
0000
,  // measure 58
0010
0000
1000
0000
0001
0000
1000
0000
0001
0000
0010
0001
0010
0000
0100
1000
,  // measure 59
0100
0000
0010
0000
0002
0000
0000
0000
1000
0000
1000
0000
1000
0003
0000
0000
,  // measure 60
1000
0000
0001
0000
0100
0000
1000
0000
0001
0000
0010
0000
0100
0000
0001
0100
,  // measure 61
0010
0000
2000
0000
0010
0010
3010
0000
,  // measure 62
1000
0000
0100
0000
1000
0000
0001
0000
0010
0000
0001
0010
0001
0000
1000
0100
,  // measure 63
1000
0010
0200
0000
0010
0010
0310
0000
,  // measure 64
1000
0000
0100
0000
0010
0000
0100
0000
0010
0000
0001
1000
0001
0000
1000
0100
,  // measure 65
1000
0100
1000
0000
0000
0000
0001
0000
0010
0000
0001
0000
0010
0000
0100
0000
,  // measure 66
1000
0000
0200
0000
0000
0000
0000
0000
1300
0000
0000
0000
0010
0000
0100
0010
,  // measure 67
0100
0010
0000
1000
0010
0001
1000
0100
,  // measure 68
0001
0200
0000
0000
0301
0010
0001
1001
,  // measure 69
0100
0210
0000
0000
0310
0000
0100
0001
,  // measure 70
0100
0000
0020
0000
0000
0000
0000
0000
1030
0000
0001
0010
0001
0000
1000
0000
,  // measure 71
0100
0000
2000
0000
0000
0000
0000
0000
3001
0000
0000
0000
0100
0000
0010
0100
,  // measure 72
0010
0200
0000
0310
0010
0000
1000
0100
,  // measure 73
1000
0100
0010
0000
0001
0010
0100
1000
,  // measure 74
0100
0010
0000
0001
1000
0100
0000
0010
,  // measure 75
0000
0002
0000
0003
1000
0100
0001
0100
,  // measure 76
0000
0011
0000
1000
0000
0001
0000
0100
,  // measure 77
0000
0000
0010
0000
0000
1000
0100
0010
,  // measure 78
0001
1000
0001
0000
0100
0000
0010
0000
,  // measure 79
1000
0000
0000
0000
1001
0000
0000
0000
0000
0000
0001
0000
0000
0000
1000
0001
,  // measure 80
1000
0000
1001
0000
0000
0000
0001
0000
0100
0000
0001
0000
0100
0000
0010
0100
,  // measure 81
0010
0000
0100
1000
0100
0010
0100
1000
,  // measure 82
0100
0001
0000
1000
0000
0010
0000
0100
,  // measure 83
0001
0100
0000
0010
1000
1000
0001
0100
,  // measure 84
0010
0000
0101
0000
0000
0000
0001
0000
0010
0000
0100
1000
0100
0000
1000
0100
,  // measure 85
0010
0001
1000
0000
0001
0000
0000
0000
1010
0000
0000
0000
0101
0000
0000
0000
,  // measure 86
0001
0010
0001
0000
1000
0000
1010
0000
,  // measure 87
0001
0000
0000
0000
0100
0001
0100
0010
0200
0000
0000
0300
0010
0000
1000
0000
,  // measure 88
0001
0010
0001
0010
0100
0000
1000
0000
1100
0000
0000
0000
0010
0000
0001
0000
,  // measure 89
1000
0000
0020
0000
0000
0000
0130
0001
0100
0000
0010
1000
0010
0000
1000
0000
,  // measure 90
0100
0000
0020
0000
0000
0000
0031
0100
0010
0000
1000
0010
0100
0000
0001
1000
,  // measure 91
0010
1000
0002
0000
0000
0000
0000
0000
0000
0000
0000
0000
0000
0000
0000
0000
,  // measure 92
0000
0000
0000
0000
,  // measure 93
0000
0000
0000
0000
,  // measure 94
0000
0003
0000
0000
;
