#VERSION:0.83;
#TITLE:Im Your Boogieman;
#SUBTITLE:;
#ARTIST:White Zombie;
#TITLETRANSLIT:;
#SUBTITLETRANSLIT:;
#ARTISTTRANSLIT:;
#GENRE:;
#ORIGIN:;
#CREDIT:;
#BANNER:;
#BACKGROUND:;
#PREVIEWVID:;
#JACKET:;
#CDIMAGE:;
#DISCIMAGE:;
#LYRICSPATH:;
#CDTITLE:;
#MUSIC:White Zombie - Im Your Boogieman (c).ogg;
#OFFSET:-0.246000;
#SAMPLESTART:52.905998;
#SAMPLELENGTH:17.000000;
#SELECTABLE:YES;
#BPMS:0.000=113.856,
62.000=113.980,
117.000=113.656,
162.000=113.855,
163.000=113.980;
#STOPS:;
#DELAYS:;
#WARPS:;
#TIMESIGNATURES:0.000=4=4;
#TICKCOUNTS:0.000=4;
#COMBOS:0.000=1;
#SPEEDS:0.000=1.000=0.000=0;
#SCROLLS:0.000=1.000;
#FAKES:;
#LABELS:0.000=Song Start;
#BGCHANGES:;
#KEYSOUNDS:;
#ATTACKS:
;

//---------------dance-single - ----------------
#NOTEDATA:;
#CHARTNAME:;
#STEPSTYPE:dance-single;
#DESCRIPTION:;
#CHARTSTYLE:;
#DIFFICULTY:Beginner;
#METER:1;
#RADARVALUES:0.059153,0.109988,0.017253,0.000000,0.000000,48.000000,46.000000,2.000000,0.000000,0.000000,0.000000,0.000000,0.000000,0.000000,0.059153,0.109988,0.017253,0.000000,0.000000,48.000000,46.000000,2.000000,0.000000,0.000000,0.000000,0.000000,0.000000,0.000000;
#CREDIT:;
#NOTES:
0000
0000
0000
0000
,
1000
0000
0000
0000
,
1000
0000
0000
0000
,
1000
0000
0000
0000
,
1000
0000
0000
0000
,
1000
0000
0000
0000
,
0001
0000
0000
0000
,
1000
0000
0000
0000
,
0100
0000
0000
0000
,
1000
0000
0000
0000
,
0001
0000
0000
0000
,
1000
0000
0000
0000
,
1000
0000
0000
0000
,
1000
0000
0000
0000
,
1000
0000
0000
0000
,
1000
0000
0000
0000
,
1000
0000
0000
0000
,
0100
0000
0000
0000
,
0001
0000
0000
0000
,
0001
0000
0000
0000
,
0001
0000
0000
0000
,
0100
0000
0000
0000
,
1000
0000
0000
0000
,
0100
0000
0000
0000
,
1000
0000
0000
0000
,
0100
0000
0000
0000
,
0000
0000
0000
0000
,
0110
0000
0000
0000
,
0100
0000
0000
0000
,
1001
0000
0000
0000
,
0100
0000
0000
0000
,
1000
0000
0000
0000
,
0100
0000
0000
0000
,
0010
0000
0000
0000
,
0001
0000
0000
0000
,
1000
0000
0000
0000
,
0100
0000
0000
0000
,
0010
0000
0000
0000
,
0001
0000
0000
0000
,
1000
0000
0000
0000
,
0000
0000
0000
0000
,
1000
0000
0000
0000
,
0000
0000
0000
0000
,
0001
0000
0000
0000
,
0000
0000
0000
0000
,
0001
0000
0000
0000
,
0000
0000
0000
0000
,
1000
0000
0000
0000
,
1000
0000
0000
0000
,
1000
0000
0000
0000
,
0001
0000
0000
0000
,
0001
0000
0000
0000
;

//---------------dance-single - ----------------
#NOTEDATA:;
#CHARTNAME:;
#STEPSTYPE:dance-single;
#DESCRIPTION:;
#CHARTSTYLE:;
#DIFFICULTY:Easy;
#METER:3;
#RADARVALUES:0.151580,0.175980,0.077638,0.163903,0.000000,123.000000,114.000000,9.000000,19.000000,0.000000,0.000000,0.000000,0.000000,0.000000,0.151580,0.175980,0.077638,0.163903,0.000000,123.000000,114.000000,9.000000,19.000000,0.000000,0.000000,0.000000,0.000000,0.000000;
#CREDIT:;
#NOTES:
0000
0000
0000
0000
,
1000
0100
0000
0000
,
1000
0100
0000
0000
,
0010
0001
0000
0000
,
0010
0001
0000
0000
,
1000
0010
0000
0000
,
1000
0010
0000
0000
,
0001
0010
0000
0000
,
0001
0010
0000
0000
,
1000
0000
0100
0000
2000
0000
0000
3000
,
0001
0000
0010
0000
0002
0000
0000
0003
,
1000
0000
0010
0000
0200
0000
0000
0300
,
0001
0000
0100
0000
0020
0000
0000
0030
,
1000
0100
0010
0000
,
0001
0010
0100
0000
,
1000
0100
0010
0000
,
0001
0100
0010
0000
,
0100
0010
0100
0000
,
0010
0100
0010
0000
,
0001
1000
0001
0000
,
1000
0001
1000
0000
,
0100
0010
0100
0000
,
0010
0100
0010
0000
,
1000
0000
1000
0000
,
1000
0000
0000
0000
,
0001
0000
0001
0000
,
0001
0000
0000
0000
,
0110
0000
0110
0000
,
0220
0000
0330
0000
,
1001
0000
1001
0000
,
2002
0000
0003
0000
,
3001
0000
0100
0000
,
0010
0000
1000
0000
,
0001
0000
1000
0000
,
1001
0000
0001
0000
,
1001
0000
1000
0000
,
0100
0000
0010
0000
,
0001
0000
1000
0000
,
0001
0000
0100
0000
,
1000
0000
0100
0000
,
0002
0003
2000
3000
,
0010
0100
0002
0003
,
2000
3000
0002
0003
,
0100
0001
0200
0300
,
0002
0003
2000
3000
,
0001
0100
0020
0030
,
2000
3000
0002
0003
,
1000
0010
0000
0000
,
1000
0100
0000
0000
,
0010
0001
0000
0000
,
0100
0001
0000
0000
,
1001
0000
0000
0000
;

//---------------dance-single - ----------------
#NOTEDATA:;
#CHARTNAME:;
#STEPSTYPE:dance-single;
#DESCRIPTION:;
#CHARTSTYLE:;
#DIFFICULTY:Medium;
#METER:8;
#RADARVALUES:0.314251,0.329963,0.215662,0.172530,0.021566,255.000000,230.000000,25.000000,20.000000,0.000000,0.000000,0.000000,0.000000,0.000000,0.314251,0.329963,0.215662,0.172530,0.021566,255.000000,230.000000,25.000000,20.000000,0.000000,0.000000,0.000000,0.000000,0.000000;
#CREDIT:;
#NOTES:
0000
0000
0000
0000
,
1000
0100
1000
0100
,
0010
0001
0010
0001
,
1000
0001
1000
0001
,
0100
0010
0100
0010
,
1000
0100
0001
0100
,
1000
0100
0001
0100
,
1000
0010
0100
0001
,
0010
0100
0010
0100
,
2100
0010
0001
3100
,
0001
0010
0100
0010
,
0001
1000
0010
1000
,
0001
0100
0010
1000
,
0001
0200
0010
0310
,
0001
1000
0020
0100
,
0130
0001
1001
0110
,
1000
0010
0100
0001
,
0100
0010
0100
0000
0100
0000
0110
0000
,
0010
0100
0010
0000
1001
0000
1001
0000
,
0001
1000
0001
0000
1000
0000
1001
0000
,
1000
0100
0010
0000
0001
0000
1000
0000
,
0010
0100
0010
0000
0100
0000
1001
0000
,
0001
0100
0001
0000
0010
0000
0110
0000
,
1000
0010
1000
0000
0100
0000
0101
0000
,
0001
1010
1000
0001
,
0001
0100
0001
0100
0001
1000
0010
0010
,
2000
3000
0010
0100
,
0110
1001
0110
1001
,
0000
0000
0100
0000
0000
0010
0000
0000
2000
0000
0000
0000
3000
0000
0000
0000
,
1001
0110
0101
0110
,
0000
0000
0001
0000
0000
0100
0000
0000
0002
0000
0000
0000
0003
0000
0000
0000
,
1000
0000
0000
0000
0010
0000
0000
0000
0100
0000
0000
0010
0000
0000
0010
0000
,
0100
0000
0000
0000
1010
0000
0000
0000
1000
0000
0000
1000
0000
0000
0001
0000
,
0001
0000
0000
0000
1010
0000
0000
0000
0010
0000
0000
1000
0000
0000
0010
0000
,
0100
0000
0110
0000
0001
0000
1000
0001
,
1000
0000
0001
0000
1000
0100
0010
0100
,
1000
0100
0010
0000
0100
0000
1100
0000
,
0001
0000
0010
0000
0001
0010
0100
0010
,
0001
0010
0100
0000
0010
0000
0011
0000
,
1000
0000
0200
0300
0020
0030
0001
0010
,
0001
0000
0200
0300
0020
0000
1030
0000
,
0100
0010
0001
0000
2000
3000
0020
0030
,
1000
0100
2000
3000
0020
0000
1000
0000
,
0130
0001
0100
0000
0020
0030
0100
0010
,
0100
0000
0020
0030
2000
0000
0001
0000
,
3010
0100
0010
0000
0200
0300
0001
1000
,
0001
0000
2000
3000
0020
0000
0100
0000
,
1030
0100
0100
0000
0010
0000
0001
0000
,
1000
0100
1000
0000
0001
0000
0010
0000
,
0100
0010
0001
0000
0010
0000
0001
0000
,
0010
0001
0010
0000
0100
0000
0010
0000
,
1001
0000
0000
0000
;

//---------------dance-single - ----------------
#NOTEDATA:;
#CHARTNAME:;
#STEPSTYPE:dance-single;
#DESCRIPTION:;
#CHARTSTYLE:;
#DIFFICULTY:Hard;
#METER:13;
#RADARVALUES:0.510195,0.549939,0.319180,0.258795,0.370939,414.000000,377.000000,37.000000,30.000000,0.000000,0.000000,0.000000,0.000000,0.000000,0.510195,0.549939,0.319180,0.258795,0.370939,414.000000,377.000000,37.000000,30.000000,0.000000,0.000000,0.000000,0.000000,0.000000;
#CREDIT:;
#NOTES:
// measure 0
0000
0000
0000
0000
,  // measure 1
1000
0000
0000
0000
0100
0000
0000
0000
1000
0000
0000
0100
0000
0000
0010
0001
,  // measure 2
0010
0000
0001
0000
0010
0000
0000
0000
0110
0000
0000
1000
0000
0000
0100
1000
,  // measure 3
0100
0000
0000
0000
0010
0000
0000
0000
0001
0000
0000
0010
0000
0000
0001
0100
,  // measure 4
0001
0000
0100
0000
0010
0000
0000
0000
0100
0010
0000
0100
0000
0000
0010
1000
,  // measure 5
0010
0000
1000
0000
0100
0010
0100
0010
0001
0000
1000
0100
1000
0100
1000
0000
,  // measure 6
0001
0010
0001
0010
0001
0000
0000
0000
1000
0100
1000
0100
0010
0000
0000
0000
,  // measure 7
0001
0010
0100
0010
0100
0000
0000
0000
1000
0001
0100
0001
0100
0000
0000
0000
,  // measure 8
0010
0100
0110
0000
0010
0100
1010
0010
,  // measure 9
1000
0000
0100
0020
0000
0000
0000
0000
0031
0000
0000
0000
0101
0000
0001
0000
,  // measure 10
0100
0010
0000
0200
0000
0000
0000
0000
0310
0000
0000
0000
0100
0000
0001
0000
,  // measure 11
0100
0001
0000
2000
0000
0000
3000
0000
0010
0000
0100
0000
0000
0000
0100
0001
,  // measure 12
0100
0010
0200
0000
0310
2010
0000
3001
,  // measure 13
0001
0000
0100
0020
0000
0030
0200
0000
0000
0300
0010
0000
0110
0000
0001
0000
,  // measure 14
1000
0000
0100
1000
0000
0000
0010
0000
0100
0000
0020
0000
0000
0000
0130
0000
,  // measure 15
0100
0001
0002
0003
1001
2000
3000
0010
,  // measure 16
1000
0100
1000
0000
0010
0000
0000
0000
0100
0000
0001
0000
0100
0000
0010
0000
,  // measure 17
0110
0000
0010
0000
1001
0000
0000
0000
0100
0000
0010
0100
0000
0100
0010
0000
,  // measure 18
0100
0000
0010
0000
1001
0000
0000
0000
1001
0000
0000
0001
0000
1000
0001
0000
,  // measure 19
1001
0000
0010
0000
1010
0000
0000
0000
0100
0000
0001
0100
0000
0100
0001
0000
,  // measure 20
1000
0000
0100
0000
0110
0000
0000
0000
0101
0000
0000
0010
0000
1000
0001
0000
,  // measure 21
0101
0000
0010
0000
0110
0000
0000
0000
0100
0000
0001
0100
0000
0010
1000
0000
,  // measure 22
0001
0000
0100
0000
0101
0000
0000
0000
1001
0000
0000
0100
0000
0010
1000
0000
,  // measure 23
1001
0000
0010
0000
0110
0000
0000
0000
0100
0000
0001
0100
0000
0010
1000
0000
,  // measure 24
0001
0000
0010
0000
0110
0000
0000
0000
1100
0000
0000
0100
0000
0010
0001
0000
,  // measure 25
1000
0100
0000
0010
0100
0000
1000
0100
0000
0010
0100
0000
0010
0001
1000
0010
,  // measure 26
1000
0000
0000
0000
0101
0000
0000
0010
0010
0000
0100
0000
0100
0000
0010
0000
,  // measure 27
0110
0000
0010
0200
0000
0000
0310
0000
0100
0010
1000
0002
0000
0000
1003
0100
,  // measure 28
1000
0100
0010
0000
0001
0010
0000
0010
0200
0000
0000
0000
0300
0000
0010
0000
,  // measure 29
0011
0000
0100
0020
0000
0000
1030
0000
0100
0010
1000
0002
0000
0000
0013
0001
,  // measure 30
0010
0100
0010
0000
0001
1000
0000
0010
0200
0000
0000
0000
0010
0000
0310
0000
,  // measure 31
1000
0000
0010
0100
0000
0000
0100
0000
0001
0000
0010
0000
0100
0000
0010
0000
,  // measure 32
0100
0010
0001
0000
1000
0100
0010
0100
,  // measure 33
0010
0100
1000
0000
0001
0100
0010
0100
,  // measure 34
0001
0100
0010
0100
0001
0000
1000
0001
,  // measure 35
1001
0000
0100
0000
0010
0000
0000
0000
1000
0100
1000
0100
0000
0100
0000
1000
,  // measure 36
0100
0010
0011
0000
0100
0010
1000
0001
,  // measure 37
0100
0000
0010
0000
0101
0000
0000
0000
0001
0010
0001
0010
0000
0010
0000
0001
,  // measure 38
1000
0010
0110
0000
0010
1000
0010
0001
,  // measure 39
0010
1000
0100
0000
0020
0000
0031
0000
,  // measure 40
0001
0010
0200
0300
2000
0000
3100
0000
,  // measure 41
0100
0000
0010
0000
0001
0000
0010
0000
0200
0000
0000
0000
1300
0000
0100
1000
,  // measure 42
0010
0100
0220
0330
0002
0000
1003
0000
,  // measure 43
0010
0100
0001
1000
0020
0000
0130
0010
,  // measure 44
0110
0000
0001
0000
2000
0000
3000
0000
0200
0000
0000
0000
0310
0000
0001
0010
,  // measure 45
0001
0100
0110
0010
2000
0000
3001
0000
,  // measure 46
1000
0010
0202
0303
0020
0000
0130
0000
,  // measure 47
0001
0000
0010
0000
0010
0000
0000
0000
0010
0000
0001
0010
0000
0001
0010
0000
,  // measure 48
0100
0000
1000
0000
1000
0000
0000
0000
1000
0000
0100
0010
0000
0100
0010
0000
,  // measure 49
0001
0000
0010
0000
0011
0000
0000
0000
0001
0000
0010
0001
0000
0100
0001
0000
,  // measure 50
0100
0000
0010
0000
0110
0000
0000
0000
0100
0000
0010
0100
0000
0010
1000
0000
,  // measure 51
1010
0000
0000
0000
;
