#VERSION:0.83;
#TITLE:I Surrender;
#SUBTITLE:;
#ARTIST:Heatwave;
#TITLETRANSLIT:;
#SUBTITLETRANSLIT:;
#ARTISTTRANSLIT:;
#GENRE:Electro;
#ORIGIN:;
#CREDIT:;
#BANNER:;
#BACKGROUND:;
#PREVIEWVID:;
#JACKET:;
#CDIMAGE:;
#DISCIMAGE:;
#LYRICSPATH:;
#CDTITLE:;
#MUSIC:HEATWAVE_-_I_surrender (louder)90.mp3.ogg;
#OFFSET:-0.339000;
#SAMPLESTART:12.571000;
#SAMPLELENGTH:17.000000;
#SELECTABLE:YES;
#BPMS:0.000=176.400;
#STOPS:;
#DELAYS:;
#WARPS:;
#TIMESIGNATURES:0.000=4=4;
#TICKCOUNTS:0.000=4;
#COMBOS:0.000=1;
#SPEEDS:0.000=1.000=0.000=0;
#SCROLLS:0.000=1.000;
#FAKES:;
#LABELS:0.000=Song Start;
#BGCHANGES:;
#KEYSOUNDS:;
#ATTACKS:
;

//---------------dance-single - ----------------
#NOTEDATA:;
#CHARTNAME:;
#STEPSTYPE:dance-single;
#DESCRIPTION:;
#CHARTSTYLE:;
#DIFFICULTY:Beginner;
#METER:1;
#RADARVALUES:0.062407,0.101140,0.009497,0.056980,0.000000,46.000000,45.000000,1.000000,6.000000,0.000000,0.000000,0.000000,0.000000,0.000000,0.062407,0.101140,0.009497,0.056980,0.000000,46.000000,45.000000,1.000000,6.000000,0.000000,0.000000,0.000000,0.000000,0.000000;
#CREDIT:;
#NOTES:
0000
0000
0000
0000
,
0000
0000
0000
0000
,
0000
0000
0000
0000
,
0000
0000
0000
0000
,
0000
0000
0000
0000
,
0000
0000
0000
0000
,
0000
0000
0000
0000
,
0000
0000
0000
0000
,
0000
0000
0000
0000
,
1000
0000
0000
0000
,
0001
0000
0000
0000
,
0100
0000
0000
0000
,
0001
0000
0000
0000
,
1000
0000
0000
0000
,
0010
0000
0000
0000
,
0100
0000
0000
0000
,
0001
0000
0000
0000
,
1000
0000
0000
0000
,
1000
0000
0000
0000
,
0001
0000
0000
0000
,
0001
0000
0000
0000
,
1000
0000
0000
0000
,
0001
0000
0000
0000
,
2000
0000
0000
0000
,
3000
0000
0000
0000
,
0001
0000
0000
0000
,
0100
0000
0000
0000
,
0010
0000
0000
0000
,
1000
0000
0000
0000
,
0001
0000
0000
0000
,
1000
0000
0000
0000
,
0002
0000
0000
0000
,
0003
0000
0000
0000
,
1000
0000
0000
0000
,
1000
0000
0000
0000
,
1000
0000
0000
0000
,
0000
0000
0000
0000
,
0001
0000
0000
0000
,
0001
0000
0000
0000
,
0001
0000
0000
0000
,
0000
0000
0000
0000
,
0200
0000
0000
0000
,
0000
0000
0000
0000
,
0300
0000
0000
0000
,
0000
0000
0000
0000
,
0001
0000
0000
0000
,
0001
0000
0000
0000
,
0001
0000
0000
0000
,
0000
0000
0000
0000
,
0020
0000
0000
0000
,
0000
0000
0000
0000
,
0030
0000
0000
0000
,
0000
0000
0000
0000
,
1000
0000
0000
0000
,
1000
0000
0000
0000
,
1000
0000
0000
0000
,
0000
0000
0000
0000
,
0001
0000
0000
0000
,
0000
0000
0000
0000
,
2002
0000
0000
0000
,
0000
0000
0000
0000
,
3003
0000
0000
0000
,
0000
0000
0000
0000
,
0100
0000
0000
0000
,
0100
0000
0000
0000
,
0100
0000
0000
0000
,
0000
0000
0000
0000
,
0010
0000
0000
0000
,
0010
0000
0000
0000
,
0010
0000
0000
0000
,
0000
0000
0000
0000
,
1000
0000
0000
0000
;

//---------------dance-single - ----------------
#NOTEDATA:;
#CHARTNAME:;
#STEPSTYPE:dance-single;
#DESCRIPTION:;
#CHARTSTYLE:;
#DIFFICULTY:Easy;
#METER:4;
#RADARVALUES:0.179080,0.235992,0.132953,0.085470,0.000000,132.000000,118.000000,14.000000,9.000000,0.000000,0.000000,0.000000,0.000000,0.000000,0.179080,0.235992,0.132953,0.085470,0.000000,132.000000,118.000000,14.000000,9.000000,0.000000,0.000000,0.000000,0.000000,0.000000;
#CREDIT:;
#NOTES:
0000
0000
0000
0000
,
0000
0000
0000
0000
,
0000
0000
0000
0000
,
0000
0000
0000
0000
,
0000
0000
0000
0000
,
1000
0000
0001
0000
,
0100
0000
0001
0000
,
1000
0000
0010
0000
,
0100
0000
1001
0000
,
0001
0000
0100
0000
,
0001
0000
1000
0000
,
0001
0000
1000
0000
,
0010
0000
0110
0000
,
0001
0000
1000
0000
,
0001
0000
0101
0000
,
0001
0000
1000
0000
,
1000
0000
1010
0000
,
2000
0000
0000
0000
,
3001
0000
0101
0000
,
0002
0000
0000
0000
,
1003
0000
1001
0000
,
0100
0000
0100
0000
,
0010
0000
0010
0000
,
1000
0000
0001
0000
,
1000
0000
0000
0000
,
0001
0000
0001
0000
,
0100
0000
0101
0000
,
0001
0000
0010
0000
,
0100
0000
1000
0000
,
0001
0000
0001
0000
,
1000
0000
1001
0000
,
0001
0000
0100
0000
,
0010
0000
0000
0000
,
1000
0000
0100
0000
,
2000
0000
3000
0000
,
0001
0000
0010
0000
,
0002
0000
0003
0000
,
0100
0000
0010
0000
,
0100
0000
0001
0000
,
1000
0000
0001
0000
,
0100
0000
0000
0000
,
0200
0000
0001
0000
,
0301
0000
0101
0000
,
0000
0000
1000
0000
,
0000
0000
0001
0000
,
1000
0000
0001
0000
,
0100
0000
0110
0000
,
0010
0000
0010
0000
,
1000
0000
0000
0000
,
1002
0000
0000
0000
,
1003
0000
1001
0000
,
0000
0000
0100
0000
,
0000
0000
0010
0000
,
1000
0000
0001
0000
,
1000
0000
0001
0000
,
0200
0000
0000
0000
,
0310
0000
0010
0000
,
0010
0000
0000
0000
,
1000
0000
0001
0000
,
0200
0000
0010
0000
,
0310
0000
1000
0000
,
0002
0000
0100
0000
,
0103
0000
0010
0000
,
1000
0000
1000
0000
,
0001
0000
0100
0000
,
0001
0000
0001
0000
,
0001
0000
1001
0000
,
1000
0000
1000
0000
,
0010
0000
0110
0000
,
0100
0000
0001
0000
,
0100
0000
0010
0000
,
1000
0000
0000
0000
;

//---------------dance-single - ----------------
#NOTEDATA:;
#CHARTNAME:;
#STEPSTYPE:dance-single;
#DESCRIPTION:;
#CHARTSTYLE:;
#DIFFICULTY:Medium;
#METER:7;
#RADARVALUES:0.283544,0.438272,0.161443,0.189934,0.000000,209.000000,192.000000,17.000000,20.000000,0.000000,0.000000,0.000000,0.000000,0.000000,0.283544,0.438272,0.161443,0.189934,0.000000,209.000000,192.000000,17.000000,20.000000,0.000000,0.000000,0.000000,0.000000,0.000000;
#CREDIT:;
#NOTES:
0000
0000
0000
0000
,
0000
0000
0000
0000
,
0000
0000
0000
0000
,
0000
0000
0000
0000
,
0000
0000
0000
0000
,
1000
0000
0001
0100
,
0001
0000
0100
0001
,
1000
0000
0010
0000
,
0100
0000
0110
0000
,
1001
0000
1000
0010
,
1000
0000
0010
0100
,
0001
0000
0001
0100
,
0010
1000
0001
0100
,
0101
0000
0001
0100
,
0010
0000
1000
0010
,
0100
0000
0101
0101
,
1001
0000
0110
0110
,
1001
0000
0001
0100
,
0020
0000
1030
0000
,
0001
0100
0010
0010
,
2000
0000
3001
0000
,
0100
0010
0100
0001
,
2000
0000
3010
0100
,
0010
0010
1000
0001
,
2000
0001
3001
0000
,
0100
0001
0010
0001
,
0020
0000
0130
0000
,
1000
0010
0100
0001
,
0020
0000
0130
0000
,
1000
0001
1000
0001
,
0020
0000
0130
1000
,
0001
1000
0010
0000
,
0110
0000
1001
0000
,
1000
0001
0001
0001
,
0100
0010
0200
0000
,
0300
0001
0100
0010
,
1000
0001
1000
0001
,
0001
0100
0010
2000
,
0000
3001
0100
0002
,
0000
0003
1010
0000
,
0001
0100
0001
0100
,
0002
0000
0000
2003
,
0000
0000
3001
0100
,
0010
0000
1010
0000
,
0001
0000
0100
0010
,
1000
0001
0100
0020
,
0000
0030
0100
0200
,
0000
0301
0001
0001
,
0000
0001
1000
0100
,
0020
0000
0000
0032
,
0000
0000
1003
0010
,
0100
0000
1001
0000
,
1000
0000
0001
0010
,
0001
0010
0100
2000
,
0000
0000
3001
0000
,
0201
0000
0001
0000
,
0302
0000
0000
1003
,
0000
1000
0001
0100
,
0010
0100
0010
1000
,
0002
0000
0100
0000
,
0103
0100
0010
0010
,
1001
0000
0100
0001
,
0001
0010
0100
1000
,
0101
0000
0100
0000
,
0001
0010
0100
0000
,
0010
0001
1000
0000
,
0001
0010
0100
0000
,
0010
0001
1000
0000
,
0001
0100
0001
0000
,
1000
0100
0001
0000
,
0100
0000
1000
0000
,
0010
0000
0000
0000
;

//---------------dance-single - ----------------
#NOTEDATA:;
#CHARTNAME:;
#STEPSTYPE:dance-single;
#DESCRIPTION:;
#CHARTSTYLE:;
#DIFFICULTY:Hard;
#METER:9;
#RADARVALUES:0.356804,0.404558,0.113960,0.151947,0.000000,263.000000,251.000000,12.000000,16.000000,0.000000,0.000000,0.000000,0.000000,0.000000,0.356804,0.404558,0.113960,0.151947,0.000000,263.000000,251.000000,12.000000,16.000000,0.000000,0.000000,0.000000,0.000000,0.000000;
#CREDIT:;
#NOTES:
// measure 0
0000
0000
0000
0000
,  // measure 1
0000
0000
0000
0000
,  // measure 2
0000
0000
0000
0000
,  // measure 3
0000
0000
0000
0000
,  // measure 4
0000
0000
0000
0000
,  // measure 5
1000
0000
1001
0001
,  // measure 6
1000
0000
0010
0100
0010
0000
1000
0000
,  // measure 7
0001
0000
0000
0000
0100
0010
0100
0000
,  // measure 8
0001
1000
0010
0001
,  // measure 9
0010
0000
1010
1000
,  // measure 10
0100
0000
0010
0001
0010
0000
0001
0000
,  // measure 11
0100
0000
0110
0010
,  // measure 12
1000
0001
1000
0001
,  // measure 13
0100
0000
0100
0001
,  // measure 14
1000
0000
0010
0100
0010
0000
1000
0000
,  // measure 15
0001
0000
0000
0000
0100
0001
0100
0000
,  // measure 16
0001
0000
1000
0001
1000
0000
0001
0000
,  // measure 17
1001
0100
0100
0001
,  // measure 18
0002
0000
1003
0010
,  // measure 19
0100
0010
1000
0000
0001
0000
0100
0000
,  // measure 20
0020
0000
0000
0000
1030
0000
0001
0100
,  // measure 21
0001
1000
0010
0001
,  // measure 22
0020
0000
1030
0100
,  // measure 23
0001
0100
0020
0000
,  // measure 24
0031
0000
0100
0001
1000
0000
0010
0000
,  // measure 25
0100
0100
0010
0010
,  // measure 26
2000
0000
3001
0100
,  // measure 27
0001
1000
0010
0010
,  // measure 28
0200
0000
0000
0000
0301
0000
1000
0100
,  // measure 29
1000
0001
0010
0001
,  // measure 30
0200
0000
0310
1000
,  // measure 31
0001
0000
1000
0000
0010
0000
0100
0010
,  // measure 32
0100
0000
0010
0100
0010
0000
0100
0000
,  // measure 33
0101
0001
1000
0001
,  // measure 34
0100
0001
0020
0000
,  // measure 35
0130
1000
0010
0001
,  // measure 36
0010
1000
0100
0010
,  // measure 37
0001
0001
1000
0020
,  // measure 38
0000
0130
0001
2000
,  // measure 39
0000
0000
3001
0100
,  // measure 40
0100
0000
0001
0000
1000
0010
1000
0000
,  // measure 41
0002
0000
0103
0010
,  // measure 42
0100
0000
0010
0100
,  // measure 43
0010
0000
0000
0000
1000
0100
0010
0001
,  // measure 44
1000
0000
0001
0001
,  // measure 45
0010
0100
0010
0001
,  // measure 46
1000
0000
0001
0100
,  // measure 47
0010
1000
0010
2000
,  // measure 48
0000
3001
0100
0010
,  // measure 49
0210
0000
0310
0100
,  // measure 50
0001
0000
1000
0001
,  // measure 51
1001
0000
0000
0000
0001
0100
0001
0100
,  // measure 52
0001
0000
1000
0010
,  // measure 53
0100
0001
1000
0002
,  // measure 54
0000
0003
0100
0000
,  // measure 55
0210
0000
0010
0000
,  // measure 56
0310
0000
0100
0001
,  // measure 57
0000
0001
1000
0010
,  // measure 58
0100
0100
0001
0001
,  // measure 59
2000
0000
0001
0100
,  // measure 60
3001
0000
0100
0001
0010
0000
0001
0000
,  // measure 61
1000
0000
0001
0100
,  // measure 62
0110
0010
1000
0001
,  // measure 63
0001
0100
0001
1000
,  // measure 64
0100
0010
1001
0000
,  // measure 65
0001
0000
0100
0010
0100
0000
0010
0100
,  // measure 66
0010
1000
1001
0000
,  // measure 67
0100
0000
0001
0100
0001
0000
0100
0001
,  // measure 68
0100
0000
0001
0000
1010
0000
0000
0010
,  // measure 69
0000
0010
0000
0000
1000
0000
0001
0000
,  // measure 70
0100
0001
0100
0000
0001
0010
0100
1000
,  // measure 71
0001
0000
0000
0000
;
