#TITLE:I Had Him First;
#SUBTITLE:;
#ARTIST:Jade Ewen;
#TITLETRANSLIT:;
#SUBTITLETRANSLIT:;
#ARTISTTRANSLIT:;
#GENRE:;
#CREDIT:;
#BANNER:;
#BACKGROUND:;
#LYRICSPATH:;
#CDTITLE:;
#MUSIC:Jade Ewen I Had Him First-RnB.ogg;
#OFFSET:-0.316000;
#SAMPLESTART:40.409000;
#SAMPLELENGTH:17.299999;
#SELECTABLE:YES;
#BPMS:0.000000=189.977005
;
#STOPS:
;
#BGCHANGES:;
#KEYSOUNDS:;
#ATTACKS:;

//---------------dance-single - ----------------
#NOTES:
     dance-single:
     :
     Beginner:
     1:
     0.062581,0.116669,0.026820,0.017880,0.000000,49.000000,46.000000,3.000000,2.000000,0.000000,0.000000,0.062581,0.116669,0.026820,0.017880,0.000000,49.000000,46.000000,3.000000,2.000000,0.000000,0.000000:
0000
0000
0000
0000
,
0000
0000
0000
0100
,
0000
0000
0000
0000
,
0000
0000
0000
0001
,
0000
0000
0000
0000
,
0000
0000
0000
1000
,
0000
0000
0000
0000
,
0000
0000
0000
0001
,
0000
0000
0000
0000
,
0000
0000
0000
0100
,
0000
0000
0000
0000
,
0000
0000
0000
0010
,
0000
0000
0000
0000
,
0000
0000
0000
1000
,
0000
0000
0000
1000
,
0000
0000
0000
0001
,
0000
0000
0000
0000
,
0000
0000
0000
0100
,
0000
0000
0000
0000
,
0000
0000
0000
0010
,
0000
0000
0000
0000
,
0000
0000
0000
1000
,
0000
0000
0000
1000
,
0000
0000
0000
0001
,
0000
0000
0000
0000
,
0000
0000
0000
1000
,
0000
0000
0000
0000
,
0000
0000
0000
0010
,
0000
0000
0000
0000
,
0000
0000
0000
0010
,
0000
0000
0000
0000
,
0000
0000
0000
0110
,
0000
0000
0000
0000
,
0000
0000
0000
0001
,
0000
0000
0000
0000
,
0000
0000
0000
1000
,
0000
0000
0000
0000
,
0000
0000
0000
0001
,
0000
0000
0000
0000
,
0000
0000
0000
1000
,
0000
0000
0000
0000
,
0000
0000
0000
0010
,
0000
0000
0000
0000
,
0000
0000
0000
0100
,
0000
0000
0000
0000
,
0000
0000
0000
0001
,
0000
0000
0000
0000
,
0000
0000
0000
1001
,
0000
0000
0000
0000
,
0000
0000
0000
0001
,
0000
0000
0000
0000
,
0000
0000
0000
0001
,
0000
0000
0000
0000
,
0000
0000
0000
2000
,
0000
0000
3000
0000
,
0000
0000
0000
0001
,
0000
0000
0000
0000
,
0000
0000
0000
1000
,
0000
0000
0000
0000
,
0000
0000
0000
0010
,
0000
0000
0000
0000
,
0000
0000
0000
0000
,
0000
0000
0000
0000
,
0000
0000
0000
0100
,
0000
0000
0000
0000
,
0000
0000
0000
0100
,
0000
0000
0000
0000
,
0000
0000
0000
0001
,
0000
0000
0000
0001
,
0000
0000
0000
1000
,
0000
0000
0000
0000
,
0000
0000
0000
0110
,
0000
0000
0000
0000
,
0000
0000
0000
0001
,
0000
0000
0000
0000
,
0000
0000
0000
1000
,
0000
0000
0000
1000
,
0000
0000
0000
0001
,
0000
0000
0000
0000
,
0000
0000
0000
0100
,
0000
0000
0000
0000
,
0000
0000
0000
0010
,
0000
0000
0000
0000
,
0000
0000
0000
0100
,
0000
0000
0000
0000
,
0000
0000
0000
0020
,
0000
0000
0000
0000
,
0030
0000
0000
0000
;

//---------------dance-single - ----------------
#NOTES:
     dance-single:
     :
     Easy:
     4:
     0.191575,0.273010,0.125162,0.160923,0.000000,150.000000,136.000000,14.000000,18.000000,0.000000,0.000000,0.191575,0.273010,0.125162,0.160923,0.000000,150.000000,136.000000,14.000000,18.000000,0.000000,0.000000:
0000
0000
0000
0000
,
0000
0000
0000
0200
,
0000
0300
0000
0001
,
0000
0001
0000
2000
,
0000
3000
0000
0020
,
0000
0030
0000
0100
,
0000
0001
0000
1000
,
0000
0000
0000
1000
,
0000
0001
0000
0100
,
0000
0100
0000
0101
,
0000
0001
0000
1000
,
0000
0001
0000
0100
,
0000
0010
0000
0100
,
0000
0100
0000
0220
,
0000
0330
0000
0000
,
0000
0001
0000
1001
,
0000
1000
0000
0001
,
0000
1000
0001
1000
,
0000
0001
0000
0100
,
0000
0010
0100
0010
,
0000
1000
0000
0001
,
0000
0100
0000
0020
,
0000
0030
0000
1000
,
0000
0001
0000
1001
,
0000
0000
0000
0100
,
0000
0000
0000
0110
,
0000
0000
0000
0001
,
0000
0000
0000
1100
,
0000
0000
0000
0011
,
0000
0000
0000
0100
,
0000
0001
0000
0100
,
0000
0001
0000
1001
,
0000
0001
0000
1000
,
0000
0001
0000
0100
,
0000
0010
0000
0010
,
0000
1000
0000
0002
,
0000
1003
0000
1000
,
0000
0001
0000
0200
,
0000
0300
0000
0010
,
0000
0100
0000
0110
,
0000
0001
0000
1000
,
0000
0010
0000
1000
,
0000
0001
0000
0001
,
0000
0100
0000
0020
,
0000
0130
0000
0100
,
0000
0010
0000
1000
,
0000
0000
0000
0001
,
0000
0100
0000
0110
,
0000
0000
0000
0000
,
0000
1000
0000
0001
,
0000
1000
0000
0000
,
0000
0001
0000
1000
,
0000
0010
0000
0100
,
0000
0010
0000
0200
,
0000
0300
0000
0020
,
0000
0030
0000
1001
,
0000
1000
0000
0000
,
0000
1000
0000
0001
,
0000
0100
0000
0000
,
0000
0001
0000
0010
,
0000
0001
0000
0100
,
0000
0000
0000
0020
,
0000
0000
0000
0230
,
0000
0000
0300
0010
,
0000
1000
0000
0001
,
0000
0000
0000
0001
,
0000
1000
0000
0010
,
0000
0000
0000
0100
,
0000
0001
0000
0100
,
0000
0000
0000
0001
,
0000
0100
0000
0100
,
0000
0001
0000
1001
,
0000
1000
0000
0000
,
0000
1000
0001
1000
,
0000
0001
0000
0100
,
0000
0100
0001
0100
,
0000
0001
0000
0000
,
0000
0001
0000
1000
,
0000
0000
0000
0010
,
0000
0100
0000
0010
,
0000
0000
0000
0000
,
1000
0000
0000
2200
,
0000
0000
3300
0000
,
0001
0000
0000
0022
,
0000
0000
0033
0000
,
0100
0000
0000
0020
,
0000
0000
0000
0000
,
0000
0030
0000
0000
;

//---------------dance-single - ----------------
#NOTES:
     dance-single:
     :
     Medium:
     8:
     0.376763,0.430245,0.214563,0.098342,0.000000,295.000000,271.000000,24.000000,11.000000,0.000000,0.000000,0.376763,0.430245,0.214563,0.098342,0.000000,295.000000,271.000000,24.000000,11.000000,0.000000,0.000000:
0000
0000
0000
0000
,
0000
0000
0000
0110
,
0100
0010
1001
0000
,
0001
0000
1000
0000
0001
0100
0002
0000
,
0003
0000
2000
0000
3000
0000
0010
0100
,
0010
0000
0100
0110
,
0001
1000
0001
0100
,
0000
0100
0001
1000
,
0000
0001
1000
0000
,
1000
0010
0100
0001
,
0000
0001
0101
0000
,
0100
0001
1000
0010
,
0000
0100
0010
0000
,
0010
1000
0001
0100
,
0010
0110
0000
0001
,
1000
0001
1000
0000
0000
0000
1001
0000
,
0000
0001
0101
0000
,
0001
0010
0100
0010
,
0000
0001
0011
0000
,
1000
0100
0010
0100
,
0000
0010
0011
0000
,
0010
1000
0010
1000
,
0001
0101
0000
0100
,
0010
0100
0010
0000
0100
0000
0010
0000
,
0000
0100
0001
0000
,
0001
1000
0000
0010
,
0100
0010
0000
0100
,
0001
1000
0000
0001
,
0100
0010
0000
0010
,
1000
0010
0000
0100
,
0001
1000
0001
0200
,
0000
0310
0000
0110
,
0000
0010
1000
0001
,
0100
0010
1000
1010
,
0000
0010
0100
0001
,
1000
0100
1000
0002
,
0000
0000
0013
0000
0000
0001
0000
0000
,
1000
0001
0000
0110
,
0000
0000
1000
0000
0000
0010
0000
0000
,
0100
0000
0010
0100
0010
0000
0100
0000
,
0000
0001
1000
0000
,
1000
0001
0010
0100
,
0000
0100
1000
0000
,
0001
0100
1000
0100
,
0001
1000
0100
0010
,
0010
0001
0000
0001
,
1000
0000
1000
0000
0010
0100
0010
0000
,
0100
0000
0001
0100
0001
0000
1000
0000
,
0000
0001
0010
0000
,
0010
0001
1000
0110
,
0000
0010
1000
0000
,
0010
1000
0001
0200
,
0300
0020
0030
1000
,
0001
1000
0000
0202
,
0303
0100
0010
0100
,
0010
0010
1000
1001
,
0000
0001
0100
0000
,
0100
0001
0010
0100
,
0000
0100
0010
0000
,
0100
0010
1000
0001
,
0000
1000
0000
0001
,
0100
0001
0000
0100
,
1000
0100
0000
0100
,
0010
0001
0000
1010
,
0000
1000
0010
0100
,
0001
1000
0001
0101
,
0001
0001
1000
1000
,
0010
0100
0001
2000
,
3000
0000
0010
0000
0000
0100
0000
0000
,
0001
1000
0001
0200
,
0300
0000
0001
0000
0000
1000
0000
0000
,
0001
1000
0000
1001
,
0000
0001
0100
0000
,
0100
0010
1000
0110
,
0010
1000
0001
0000
,
0010
0001
1000
0100
,
0000
0100
0010
0000
,
0010
0001
0000
1000
,
0001
0000
1000
0000
0001
0100
0001
0000
,
1000
0000
0100
1000
0010
0000
1000
0000
,
0000
0001
0100
0000
,
0110
0000
0010
1000
,
0000
0001
0101
0000
,
1010
0000
0010
0100
,
0001
1000
0001
0000
,
1001
0000
0001
2000
,
0000
0000
0000
0000
0010
0000
0000
0010
,
0000
0010
3000
0000
;

//---------------dance-single - ----------------
#NOTES:
     dance-single:
     :
     Hard:
     12:
     0.597713,0.625810,0.232444,0.214563,0.008940,468.000000,442.000000,26.000000,24.000000,0.000000,0.000000,0.597713,0.625810,0.232444,0.214563,0.008940,468.000000,442.000000,26.000000,24.000000,0.000000,0.000000:
// measure 0
0000
0000
0000
0000
,  // measure 1
0000
0000
0000
0110
,  // measure 2
0001
1000
0001
0000
1000
0100
0000
0100
,  // measure 3
0010
0001
0010
0000
0001
0000
2000
0000
,  // measure 4
3010
0100
0010
0000
0100
0001
0000
0001
,  // measure 5
0100
0000
0010
0100
0010
0000
0110
0000
,  // measure 6
0011
0000
0100
0000
0010
0100
0000
0100
,  // measure 7
0010
1000
0001
1000
0001
0000
1010
0000
,  // measure 8
0000
0010
0100
0001
1000
0100
1000
0000
,  // measure 9
0100
0010
0001
0010
0001
0000
1000
0000
,  // measure 10
0010
0100
0001
0100
0010
0010
0100
0000
,  // measure 11
0100
0010
0000
0010
1000
0000
1001
0000
,  // measure 12
0001
0010
0001
1000
0100
1000
0100
0000
,  // measure 13
0010
0001
0000
0010
0100
0000
0001
0000
,  // measure 14
0100
1000
0100
0010
,  // measure 15
0001
1000
0001
1000
0001
0000
1000
0010
,  // measure 16
0100
0010
0100
0100
0001
1000
0001
0000
,  // measure 17
1000
0020
0030
0110
,  // measure 18
0100
0001
1000
0001
0100
0010
0100
0000
,  // measure 19
0010
0010
0000
1000
0001
0100
0001
1000
,  // measure 20
1000
0100
0010
0001
0001
1000
0001
0000
,  // measure 21
0100
0010
0000
0010
0100
0000
0020
0000
,  // measure 22
0000
0000
0130
0000
0100
0010
0000
0010
,  // measure 23
0100
0000
0001
0000
1000
0001
0000
1000
,  // measure 24
0001
0000
0100
0000
0010
0100
0000
0001
,  // measure 25
0100
0000
0010
0000
1000
0100
0000
0010
,  // measure 26
0001
0000
1000
0000
0001
0010
0000
0100
,  // measure 27
1000
0000
1000
0100
1000
0010
0000
0010
,  // measure 28
0100
0000
0001
0000
0010
0100
0000
0010
,  // measure 29
0100
1000
0010
0100
,  // measure 30
0001
1000
0002
2003
,  // measure 31
3001
0100
0001
1000
0001
0000
0101
0001
,  // measure 32
1000
0010
0100
0000
0100
0010
0100
0010
,  // measure 33
1000
0001
0010
0110
,  // measure 34
1000
0100
0010
0000
0100
0010
0001
1000
,  // measure 35
0001
0000
1000
0100
1000
0000
0002
0000
,  // measure 36
0000
0103
0010
0000
0100
0110
0000
0010
,  // measure 37
0000
1000
0001
0000
0100
0000
0020
0000
,  // measure 38
0030
0100
0010
0000
1000
0001
0000
0001
,  // measure 39
0000
1000
0100
0010
0001
0000
1001
0001
,  // measure 40
0100
0010
1000
0000
0001
0010
0001
0001
,  // measure 41
1000
0100
0010
0000
0010
0000
0011
0001
,  // measure 42
0100
0001
1000
0000
0001
0010
0100
0010
,  // measure 43
0001
1000
0100
0220
,  // measure 44
0330
0010
0001
0000
0010
0001
0000
1000
,  // measure 45
0000
0010
0100
0000
0001
0000
1000
0000
,  // measure 46
1000
0000
0100
0000
1000
0100
0000
0010
,  // measure 47
0000
0100
0010
0001
0100
0000
0010
0000
,  // measure 48
0100
0010
0100
0000
0101
0000
0000
0000
,  // measure 49
0101
1000
0010
1010
,  // measure 50
0100
0001
1000
0000
0001
0100
0000
0000
,  // measure 51
0100
0010
0100
0000
0010
0000
2000
0000
,  // measure 52
3000
0002
0003
0200
,  // measure 53
0300
0000
0000
0000
0010
0000
0000
0100
0000
0000
0010
0000
0200
0000
0000
0000
,  // measure 54
0310
0000
0100
0000
0001
0010
0001
0000
,  // measure 55
1000
0100
1000
0000
0001
0010
0011
0000
,  // measure 56
0001
1000
0001
0000
1000
0100
0000
0100
,  // measure 57
0010
0001
1000
0110
,  // measure 58
0010
0100
0010
0000
0010
0100
0000
0001
,  // measure 59
1000
0001
1000
0000
0001
0000
2000
0000
,  // measure 60
3000
0020
0030
0200
,  // measure 61
0300
0000
0000
0000
0001
0000
0000
1000
0000
0000
0001
0000
0100
0000
0000
0000
,  // measure 62
0000
0010
0000
0100
,  // measure 63
0010
0100
0010
0000
0100
0000
0110
0000
,  // measure 64
0001
1000
0100
0000
0100
0010
0001
0010
,  // measure 65
0001
0000
1000
0000
0010
0000
0101
0001
,  // measure 66
1000
0100
0010
0000
0010
0001
0100
0001
,  // measure 67
0010
0000
0100
1000
0100
0000
0020
0000
,  // measure 68
0030
0001
0100
0000
0010
1000
0000
0010
,  // measure 69
0000
1000
0001
0000
1000
0000
0100
0000
,  // measure 70
1100
0000
0110
0000
0001
0010
0000
0100
,  // measure 71
1000
0001
0200
0001
0301
0000
1001
1000
,  // measure 72
0100
0010
0010
0000
0010
0001
1000
0100
,  // measure 73
1000
0000
0100
1000
0100
0000
0001
0000
,  // measure 74
0100
0010
0001
0000
0100
0001
0010
0100
,  // measure 75
0010
0000
0100
0100
1000
0000
2002
0000
,  // measure 76
3003
0001
0100
0000
0001
1000
0000
0100
,  // measure 77
0010
0010
0001
0000
1000
0000
0001
0000
,  // measure 78
0100
0000
0010
0000
0010
0110
0000
1000
,  // measure 79
0000
0001
0010
0001
0010
0000
0200
0000
,  // measure 80
0000
0000
1000
0000
0310
0000
0000
0100
,  // measure 81
0001
1000
0001
0210
,  // measure 82
0000
0000
0010
0000
1300
0000
0000
0001
,  // measure 83
0100
0010
1000
1000
0010
0000
0020
0000
,  // measure 84
0000
0000
1000
0000
0031
0000
0000
0100
,  // measure 85
0001
1000
0010
0201
,  // measure 86
0000
0000
0000
0000
0010
0310
0000
0100
,  // measure 87
0010
0100
0001
0100
0010
0000
0000
0000
;
