#TITLE:I Don't Love Her (Sweater Beats Remix);
#SUBTITLE:;
#ARTIST:Luxar;
#TITLETRANSLIT:;
#SUBTITLETRANSLIT:;
#ARTISTTRANSLIT:;
#GENRE:;
#CREDIT:;
#BANNER:;
#BACKGROUND:;
#LYRICSPATH:;
#CDTITLE:;
#MUSIC:Luxar - I Don't Love Her (Sweater Beats Remix).mp3;
#OFFSET:-0.142000;
#SAMPLESTART:47.000000;
#SAMPLELENGTH:13.000000;
#SELECTABLE:YES;
#BPMS:0.000000=85.959999
,133.500000=63.398003
;
#STOPS:
;
#BGCHANGES:;
#KEYSOUNDS:;
#ATTACKS:;

//---------------dance-single - ----------------
#NOTES:
     dance-single:
     :
     Easy:
     5:
     0.218842,0.232477,0.079786,0.167551,0.000000,192.000000,182.000000,10.000000,21.000000,0.000000,0.000000,0.218842,0.232477,0.079786,0.167551,0.000000,192.000000,182.000000,10.000000,21.000000,0.000000,0.000000:
// measure 0
0000
0000
0010
0010
,  // measure 1
1000
0000
1000
0002
,  // measure 2
0003
0100
0010
0000
,  // measure 3
0100
0000
0001
2000
,  // measure 4
3000
0000
1000
0000
0000
0010
0000
0100
,  // measure 5
0000
0001
0000
1000
0000
0010
0200
0000
,  // measure 6
0300
0001
1000
0010
,  // measure 7
0000
0000
1000
0001
0000
0000
0001
1000
,  // measure 8
0000
0000
0100
0010
0000
0000
0010
0000
,  // measure 9
1000
1000
0001
0100
,  // measure 10
0010
0000
1000
0000
0001
1000
0000
0010
,  // measure 11
0000
0100
0001
0100
0000
0001
1000
0000
,  // measure 12
0010
0000
0100
0001
1000
0001
0000
0100
,  // measure 13
0000
0010
0000
0100
0000
1001
0000
0010
,  // measure 14
0000
0100
0000
0001
1000
0001
0000
0100
,  // measure 15
0000
0010
1000
0010
0000
0110
0000
1000
,  // measure 16
0001
0100
0000
0010
0000
1000
0000
1000
,  // measure 17
0000
1000
0000
1010
0000
1010
0000
0100
,  // measure 18
0000
0010
0000
0100
0000
0001
0000
1000
,  // measure 19
0001
0000
0000
2000
0000
3020
0000
1030
,  // measure 20
0000
0001
0000
0100
0000
0001
0000
1000
,  // measure 21
0010
0000
0100
0010
0000
0110
0000
1000
,  // measure 22
0001
1000
0000
0001
1000
0001
0000
1000
,  // measure 23
1000
0010
0000
0200
0000
0302
0000
1003
,  // measure 24
0001
1000
0000
0001
1000
0001
0000
0100
,  // measure 25
0010
0100
0000
0100
0000
0001
0000
0100
,  // measure 26
0100
0010
0000
0010
0000
1000
0001
0001
,  // measure 27
0000
1000
0000
0020
0000
0230
0000
0301
,  // measure 28
0000
1000
0000
0101
0000
0200
0300
0002
,  // measure 29
0003
2000
3000
0020
0030
0100
0000
0001
,  // measure 30
0000
0100
0010
0000
0010
0100
0000
0001
,  // measure 31
1000
0000
1000
0001
0000
1001
0000
1001
,  // measure 32
0000
0100
0000
0101
0000
0100
0000
1001
,  // measure 33
0000
0010
0000
1000
0000
0010
0000
0100
,  // measure 34
0000
0000
1000
0010
1000
0010
0000
0100
,  // measure 35
0000
0000
0001
1000
0001
1000
0000
0010
,  // measure 36
0000
0000
0100
0001
0100
0020
0030
1000
,  // measure 37
0000
0001
0000
1000
0000
0002
0000
2003
,  // measure 38
0000
3200
0000
0320
0000
0032
0003
1000
,  // measure 39
0000
0010
0000
0100
0001
0200
0300
0010
,  // measure 40
0000
0100
0000
0010
0100
0020
0030
0100
,  // measure 41
0000
0001
0000
1000
0100
0010
0000
0000
;

//---------------dance-single - ----------------
#NOTES:
     dance-single:
     :
     Medium:
     8:
     0.315725,0.298899,0.127658,0.119679,0.115690,277.000000,261.000000,16.000000,15.000000,0.000000,0.000000,0.315725,0.298899,0.127658,0.119679,0.115690,277.000000,261.000000,16.000000,15.000000,0.000000,0.000000:
0000
0000
1000
0010
,
0100
0000
0001
1000
,
0010
0000
0100
0010
0100
0010
0000
0010
,
0100
0000
0000
1000
0001
0000
1001
0000
,
1000
0000
0010
0000
0000
0100
0001
0010
,
0000
0010
0001
1000
0000
0000
0011
0000
,
0100
0000
0010
0000
0100
0001
0100
0000
,
0100
0010
0100
0000
1000
0000
0001
0000
,
0020
0000
1000
0000
1030
0000
0001
0010
,
1000
0000
0000
0000
0010
0000
0000
0000
0001
0000
0100
0000
0001
0000
0000
1000
,
0000
0000
0001
0000
0100
0000
0010
0000
1000
0000
1001
0000
0000
0001
0000
0010
,
0000
0100
0000
0000
0010
0000
0100
0000
0000
0000
0101
0000
0010
0000
0000
1000
,
0000
0000
0010
0000
0000
0001
0000
0000
1000
0000
0010
0000
1000
0000
0010
0000
,
0000
0100
0000
0001
0000
0100
0000
0000
0010
0000
0100
0000
0000
0000
0001
0000
,
1000
0000
0001
1000
0001
0100
0000
0001
,
0010
0000
0010
1000
0100
0010
0000
1000
,
0000
0001
0000
1000
0010
0100
0000
0101
,
0000
0010
0000
1100
0000
1001
0000
0001
,
0100
0010
0100
0010
0100
0010
0100
0000
0000
0000
0001
0000
0000
0000
0100
0000
,
0100
0010
0000
0000
0100
0000
0002
0000
0003
0000
0002
0000
0003
0000
1000
0000
,
0001
0010
0001
0010
0001
0010
0001
0000
0000
0000
1000
0000
0010
0000
0100
0000
,
0100
0001
0000
0000
0000
0000
0100
0000
0001
0000
0101
0000
0000
0000
0010
0000
,
1000
0100
1000
0100
1000
0100
1000
0000
0000
0000
0001
0000
0000
0000
0100
0000
,
0001
0100
0000
0000
0010
0000
0200
0000
0000
0000
0302
0000
0000
0000
1003
0000
,
0001
0100
0001
0100
0001
0100
0001
0000
0000
0000
0010
0000
0000
0000
1000
0000
,
0001
0010
0000
0000
0010
0000
0001
0000
0100
0000
0110
0000
0000
0000
0001
0000
,
1000
0001
0100
0010
0010
0010
0100
0001
,
0100
0001
1000
0010
0010
0020
1000
1030
,
1000
1000
0010
0110
0000
0001
0100
0010
,
1000
0010
0100
0010
0000
0001
0000
0100
,
0000
0010
0100
0000
0010
0100
0000
0100
,
0001
0000
1000
0010
0100
0101
0000
0001
,
0010
0001
1000
0010
0100
0110
0000
1001
,
0010
0000
0100
0000
1000
0000
0000
0100
0000
0000
0010
0000
0000
0000
0110
0000
,
0100
0010
0001
1000
0100
0011
0000
1000
,
0001
1000
0010
0200
0000
0320
0000
1030
,
0100
0000
0010
0000
0001
0000
0001
1000
0001
0000
2000
0000
3000
0000
0001
0000
,
0010
0000
0100
0000
1000
0000
0010
0100
0000
0000
2002
0000
3003
0000
0100
0000
,
0010
0100
0020
1000
0100
1030
0000
0001
,
1000
0000
0010
0000
0100
0000
0010
0000
1000
0001
2000
0000
3000
0000
0100
0000
,
0010
0001
0100
0010
0100
0002
0003
1000
,
1000
0001
1000
0100
0200
0300
0000
0000
;

//---------------dance-single - ----------------
#NOTES:
     dance-single:
     :
     Hard:
     11:
     0.460480,0.481559,0.438824,0.478717,0.371006,404.000000,349.000000,55.000000,60.000000,0.000000,0.000000,0.460480,0.481559,0.438824,0.478717,0.371006,404.000000,349.000000,55.000000,60.000000,0.000000,0.000000:
0000
0000
0000
0100
1000
0110
0010
1000
,
0101
0000
0000
0000
0000
0010
0010
0000
0002
0000
0000
0000
2003
0000
0000
0000
,
3000
0000
0100
0000
0100
0001
0100
0001
0010
0001
1000
0000
0010
0010
0000
0100
,
0000
0011
0000
0000
1000
0010
1000
0000
0002
0000
0000
0003
2000
0000
0010
3000
,
0100
0000
0000
0000
0000
0000
0010
0000
0000
0000
0000
0000
0100
0000
0000
0000
0000
0000
0010
0000
0000
0000
0000
0000
0000
0000
0000
1000
0000
0000
0001
0000
0000
1000
0000
0000
0001
0000
0000
0100
0000
0000
0000
0000
0000
0000
0010
0000
,
0000
0000
0100
0000
0000
0001
0000
0000
0010
0000
0000
0000
1000
0000
0000
0000
0000
0000
0012
0000
0000
0000
0000
0000
,
0103
0000
0000
0000
0010
0100
0000
0000
0100
0001
0001
0010
0100
1000
0000
0000
,
0000
0100
0010
0100
0010
0001
0000
0000
1000
0000
0000
0000
0001
0000
1000
0000
,
0020
0000
1000
0000
1030
0001
0100
0010
,
2000
0000
3000
0000
0110
0000
1001
0000
0001
1000
0100
0000
0001
0000
0000
1000
,
0000
1000
0002
0003
0100
0001
0000
0000
0001
1000
2002
0000
3003
0001
0000
0110
,
0000
1000
0000
0000
0010
0000
0110
0000
0010
0000
0101
0000
0010
0000
0000
1100
,
0000
0100
0010
0000
0001
1000
0000
0000
1000
0010
1000
0000
0001
0100
0000
1000
,
0000
0010
0000
0001
0000
0202
0000
0303
0100
0000
0110
0000
0000
1000
0001
0000
,
0100
0010
0000
0010
0100
0000
0010
0000
1000
0000
1010
0000
0000
0100
0001
0100
,
0010
1000
0000
0000
0010
0000
1000
0100
1000
0100
2000
0000
3000
0000
1000
1000
,
0100
0000
0002
0000
1003
0000
1010
0000
0010
0000
0102
0000
0003
1000
0002
0000
,
0003
0000
0020
0000
0000
0030
1000
0000
1000
0020
0000
0000
0130
0000
1001
0000
,
0100
0010
0100
0000
0101
0000
1000
0001
1000
0000
0001
1000
0001
0000
0011
0000
,
0100
0001
0100
0000
1001
0000
0220
0000
0330
0000
2000
0000
3010
0100
0001
0000
,
0010
0001
1000
0000
1010
0000
0001
0100
0010
0000
1000
0010
1000
0000
0101
0000
,
0100
0000
0000
0001
0000
0000
0010
0000
0000
0000
0000
0000
1100
0000
0000
0000
0000
0000
0110
0000
0000
0000
0000
0000
0000
0000
0000
0000
1000
0000
0001
0000
0000
0000
0000
0000
0000
0000
0000
0000
0000
0000
0110
0000
0000
0000
0000
0000
,
1000
0001
0100
0000
0110
0000
0010
0100
0001
0000
0100
0001
0010
0000
0011
0000
,
1000
0010
0100
0000
1100
0000
0202
0000
0003
0000
0302
0000
1003
0000
1100
0000
,
0010
0001
1000
0000
0101
0000
0100
0010
1000
0000
0010
1000
0001
0000
1001
0000
,
0001
1000
0001
0000
0110
0000
0011
0000
1001
0000
1100
0000
0001
0100
0010
0000
,
1000
0001
0100
0010
0100
0110
0100
0001
,
1000
0000
0100
0000
1000
0000
2002
0000
3003
0000
0120
0000
1030
0000
0001
0010
,
0001
0010
0001
0000
0010
0000
0110
0000
1001
0000
0101
0000
0010
0000
0110
0000
,
1000
0000
0010
0000
0100
0010
0100
0000
0001
0000
0001
0000
0000
0000
0110
0000
,
0000
0000
0010
0000
0100
0001
0100
0000
0010
0000
0101
0000
0010
0100
0010
0000
,
0001
0010
1000
0000
1000
0001
0100
0000
0100
0000
0202
0000
0303
0000
0001
0000
,
0020
0000
0032
0000
1003
0000
0100
0000
0010
0100
0020
0000
0030
0000
1000
0000
,
0010
0000
0100
0000
1000
0000
0100
0010
0000
0010
0110
0000
0100
0000
0010
0000
,
0100
0000
0010
0010
0000
0000
1000
0000
0110
0000
0220
0000
0330
0000
2000
0000
,
3001
0000
1000
0010
0000
0000
0200
0000
0001
0000
0320
0000
2030
3000
1010
0000
,
0200
0000
0301
0100
0000
0000
0001
1000
0001
0000
2200
0000
3300
0001
1000
0000
,
0020
0000
1030
0001
0000
0000
0010
0200
0300
0000
2002
0000
3003
0000
0200
0000
,
0301
0002
0203
0320
0230
0020
0330
0001
,
1000
0000
0010
0200
0000
0000
0310
1000
0001
1000
0002
0000
0023
0000
0230
0000
,
2300
0000
3001
0100
0000
0000
0010
1000
0100
0000
0022
0000
0033
0000
1010
0000
,
1000
0000
0001
1000
0000
0000
0020
0200
0000
0000
0330
0000
0000
0000
0000
0000
;

//---------------dance-single - ----------------
#NOTES:
     dance-single:
     :
     Beginner:
     2:
     0.096883,0.149001,0.047872,0.023936,0.000000,85.000000,79.000000,6.000000,3.000000,0.000000,0.000000,0.096883,0.149001,0.047872,0.023936,0.000000,85.000000,79.000000,6.000000,3.000000,0.000000,0.000000:
0000
0000
0000
0000
,
0000
0000
0000
0000
0000
0000
0000
1000
,
0000
0000
0000
1000
0000
0000
0000
1000
,
0000
0000
0000
0001
0000
0000
0000
0001
,
0000
0000
0000
0001
0000
0000
0000
1000
,
0000
0000
0000
0000
0000
0000
0000
0001
,
0000
0000
0000
1000
0000
0000
0000
0001
,
0000
0000
0000
1000
0000
0000
0000
1000
,
0000
0000
0000
0001
0000
0000
0000
0000
,
0000
0000
0000
0100
0000
0100
0000
0000
,
0000
0000
0000
0010
0000
0000
0000
0100
,
0000
0000
0000
0010
0000
0010
0000
0000
,
0000
0000
0000
0010
0000
0000
0000
0100
,
0000
0000
0000
0100
0000
0000
0000
0010
,
0000
0000
0000
0010
0000
0000
0000
1000
,
0000
0000
0000
1000
0000
0000
0000
0001
,
0000
0000
0000
0001
0000
0000
0000
1000
,
0000
0000
0000
0000
0000
1001
0000
0000
,
0000
0000
0000
1000
0000
0000
0000
0001
,
0000
0000
0000
1000
0000
1000
0000
0000
,
0000
0000
0000
0001
0000
0000
0000
0100
,
0000
0000
0000
0001
0000
0001
0000
0000
,
0000
0000
0000
1000
0000
0000
0000
0010
,
0000
0000
0000
0100
0000
0100
0000
0000
,
0000
0000
0000
0010
0000
0000
0000
0100
,
0000
0000
0000
0000
0000
0001
0000
0000
,
0000
0001
0000
0000
0000
1000
0000
0000
,
0000
1000
0000
0000
0000
0001
0000
0000
,
0000
0001
0000
0000
0000
1001
0000
0000
,
0000
0000
0000
0000
0000
0100
0000
0000
,
0000
0000
0000
0000
0000
0110
0000
0000
,
0000
0000
0000
0000
0000
0100
0000
0000
,
0000
0000
0000
0000
0000
0001
0000
0000
,
0000
0001
0000
0000
0000
0000
0000
0000
,
0100
0000
0010
0000
0000
0010
0000
0000
,
0100
0000
0000
0010
0000
0200
0000
0300
,
0001
0000
1000
0000
0000
1001
0000
0000
,
0001
0000
1000
0000
0000
1001
0000
0000
,
0000
0200
0000
0000
0300
0010
0000
0000
,
1000
0000
0010
0000
0000
0200
0000
0300
,
0001
0000
1000
0000
0000
1001
0000
0000
,
0100
0100
0100
0000
;
