#TITLE:I Do;
#SUBTITLE:;
#ARTIST:FDM;
#TITLETRANSLIT:;
#SUBTITLETRANSLIT:;
#ARTISTTRANSLIT:;
#GENRE:;
#CREDIT:;
#BANNER:;
#BACKGROUND:;
#LYRICSPATH:;
#CDTITLE:;
#MUSIC:FDM - I Do-HOT-RnB.ogg;
#OFFSET:-0.154000;
#SAMPLESTART:31.941000;
#SAMPLELENGTH:18.400000;
#SELECTABLE:YES;
#BPMS:0.000000=117.000000
;
#STOPS:
;
#BGCHANGES:;
#KEYSOUNDS:;
#ATTACKS:;

//---------------dance-single - ----------------
#NOTES:
     dance-single:
     :
     Beginner:
     2:
     0.098006,0.119680,0.000000,0.113084,0.000000,91.000000,91.000000,0.000000,15.000000,0.000000,0.000000,0.098006,0.119680,0.000000,0.113084,0.000000,91.000000,91.000000,0.000000,15.000000,0.000000,0.000000:
0000
0000
0000
0000
,
0000
0000
0000
0000
,
1000
0000
0000
0000
,
0001
0000
0000
0000
,
0100
0000
0001
0000
,
2000
0000
3000
0000
,
0001
0000
0100
0000
,
0020
0000
0030
0000
,
1000
0000
0001
0000
,
1000
0000
0001
0000
,
1000
0000
0001
0000
,
0200
0000
0300
0000
,
0001
0000
1000
0000
,
0010
0000
1000
0000
,
0001
0000
0010
0000
,
0001
0000
0010
0000
,
0100
0000
1000
0000
,
0001
0000
0000
0000
,
0001
0000
1000
0000
,
0010
0000
0000
0000
,
2000
0000
3000
0000
,
0002
0000
0003
0000
,
1000
0000
0100
0000
,
1000
0000
0000
0000
,
0002
0000
0003
0000
,
0200
0000
0300
0000
,
0001
0000
0010
0000
,
0001
0000
0000
0000
,
2000
0000
3000
0000
,
0001
0000
0100
0000
,
0002
0000
0003
0000
,
1000
0000
0010
0000
,
0200
0000
0300
0000
,
0001
0000
1000
0000
,
0001
0000
0100
0000
,
0001
0000
1000
0000
,
0002
0000
0003
0000
,
0100
0000
0001
0000
,
1000
0000
0001
0000
,
0001
0000
1000
0000
,
0001
0000
0001
0000
,
0001
0000
0000
0000
,
1000
0000
1000
0000
,
1000
0000
0000
0000
,
0002
0000
0000
0000
,
0003
0000
0000
0000
,
1000
0000
0000
0000
,
1000
0000
0001
0000
,
0200
0000
0300
0000
,
0001
0000
0100
0000
,
0010
0000
0000
0000
,
1000
0000
0100
0000
,
0010
0000
0000
0000
,
0001
0000
0000
0000
,
1000
0000
0000
0000
,
0002
0000
0003
0000
,
1000
0000
0000
0000
,
1000
0000
0000
0000
,
0001
0000
0000
0000
,
0001
0000
1000
0000
,
0010
0000
1000
0000
,
0001
0000
0100
0000
,
0001
0000
1000
0000
,
0002
0000
0003
0000
;

//---------------dance-single - ----------------
#NOTES:
     dance-single:
     :
     Easy:
     4:
     0.157240,0.192996,0.060311,0.135701,0.000000,146.000000,138.000000,8.000000,18.000000,0.000000,0.000000,0.157240,0.192996,0.060311,0.135701,0.000000,146.000000,138.000000,8.000000,18.000000,0.000000,0.000000:
0000
0000
0000
0000
,
0000
0000
0000
0000
,
1000
0000
0100
0000
,
0010
0000
0000
0000
,
0001
0000
0100
0000
,
0010
0000
1000
0001
,
1000
0000
0010
0000
,
0200
0000
0301
0000
,
1000
0000
0010
0000
,
0100
0000
0010
0000
,
1000
0001
0100
0000
,
0100
0001
1000
0000
,
0002
0000
1003
0000
,
2000
0000
3100
0000
,
0020
0000
0130
0000
,
0001
0000
0001
0000
,
1000
0100
1000
0000
,
0010
0100
0001
0000
,
0001
1000
0001
0000
,
1000
1000
1000
0000
,
0002
0000
1003
0000
,
1000
1000
0100
0000
,
0200
0000
0310
0000
,
0010
0001
0001
0000
,
1000
0010
0010
0000
,
0100
0100
0001
0000
,
0002
0000
1003
0000
,
0020
0000
0130
0000
,
2002
0000
3003
0000
,
0001
0001
1001
0000
,
1000
0000
0001
0000
,
0100
0100
0110
0000
,
0001
0000
1000
0000
,
0010
0010
0110
0000
,
0001
0000
1000
0000
,
0100
0000
0020
0000
,
0032
0000
1003
0000
,
0010
0000
0010
0000
,
1000
0000
1000
0000
,
0001
0000
0001
0000
,
0100
0000
0010
0000
,
1000
0000
0001
0000
,
0200
0000
0300
0000
,
0010
0000
0010
0000
,
2002
0000
0000
0000
,
0000
0000
3003
0000
,
0101
0000
0001
0000
,
2001
0000
0000
0000
,
3001
0000
0100
0000
,
0010
0100
0010
0000
,
1000
0001
1000
0000
,
0001
0000
0001
0000
,
0100
0000
1001
0000
,
0001
0000
1000
0000
,
0010
0010
0010
0000
,
2000
0000
3001
0000
,
0100
0100
0100
0000
,
0001
0000
1000
0000
,
0001
0010
0001
0000
,
1000
0100
1000
0000
,
0001
0001
1000
0000
,
0010
0000
0100
0000
,
0001
1000
0001
0000
,
0200
0000
0000
0000
,
0300
0000
0000
0000
;

//---------------dance-single - ----------------
#NOTES:
     dance-single:
     :
     Medium:
     8:
     0.316635,0.337744,0.248784,0.188473,0.000000,294.000000,261.000000,33.000000,25.000000,0.000000,0.000000,0.316635,0.337744,0.248784,0.188473,0.000000,294.000000,261.000000,33.000000,25.000000,0.000000,0.000000:
0000
0000
0000
0000
,
0000
0000
0000
0000
,
1000
0001
1000
0001
1000
0000
0000
0100
,
0010
0000
0010
0000
,
0001
0100
0010
1000
0010
0000
0010
1000
,
0001
0010
0100
0100
,
1000
0010
0100
0000
0001
0000
0100
0001
,
0100
0000
0100
0000
0001
1000
0000
1000
,
0001
1000
1001
0000
,
0100
0000
0001
0100
0000
0002
0000
0003
,
1000
0000
0010
0100
0010
0000
1000
0010
,
0100
0010
0020
0030
,
1001
0000
0100
0000
0001
0000
1000
0010
,
0100
0010
2000
0010
,
3100
0001
0010
0100
,
1000
0001
0200
0320
,
1030
0100
1010
0100
,
0011
0000
0001
0000
1100
0000
0001
0100
,
0001
0000
1000
0100
1000
0000
0001
1000
,
0010
0000
0010
1000
0001
0000
2000
0000
,
3001
0000
1000
0010
0100
0000
0100
0001
,
0000
1000
0001
1000
0001
0000
0100
0010
,
2000
0001
3001
0010
,
0100
1000
0002
0000
0003
0000
1000
0001
,
1000
0000
0010
0100
0010
0000
1000
0001
,
0000
0001
0100
0001
1000
0000
0001
0000
,
0200
0010
0301
1000
,
2002
3003
0202
0303
,
2001
0000
3001
1000
,
1001
1001
0100
0000
,
0101
0101
0100
0000
,
1000
0010
1000
0000
0001
0010
0001
0010
,
0002
0000
1003
1000
,
0110
1001
0001
0000
,
1000
0000
0100
0010
0100
0000
0010
0000
,
0002
0000
1003
0001
,
0100
0000
0001
1000
0001
1000
0000
0001
,
0000
0001
1000
0000
1001
0000
0001
1000
,
0001
0000
1000
0100
0010
0000
0010
0000
,
0001
1000
0100
2000
0000
0000
3001
0000
,
1001
0000
1000
0000
0010
0100
0000
0001
,
0000
1000
0002
0000
0003
0000
0000
0000
,
1001
0000
0100
0001
0100
0000
0001
0010
,
0100
0000
0010
0000
0001
0000
0100
0010
,
2000
0000
3020
0000
,
2030
0000
3010
0100
,
1001
0000
0110
0000
,
0002
1000
0103
0001
,
1010
0100
0001
0100
,
1000
0100
0001
1000
,
1010
1010
0001
0000
,
1000
0000
0001
0100
0001
0000
1000
0000
,
0010
0000
1000
0100
0010
0000
0001
0100
,
0001
0100
0001
0000
1000
0000
0010
0000
,
2001
0000
3001
0100
,
1001
1001
0100
0010
,
1100
1100
0010
0000
,
1000
0000
0010
0100
0001
0000
0000
0000
,
1000
0000
0010
0100
0010
0000
0000
0000
,
1000
1000
0001
0001
,
1100
1100
0001
0000
,
0011
0011
1000
0000
,
0110
0110
0200
0001
,
0302
0000
0000
0000
,
0003
0000
0000
0000
;

//---------------dance-single - ----------------
#NOTES:
     dance-single:
     :
     Hard:
     10:
     0.406025,0.410117,0.226168,0.188473,0.030156,377.000000,347.000000,30.000000,25.000000,0.000000,0.000000,0.406025,0.410117,0.226168,0.188473,0.030156,377.000000,347.000000,30.000000,25.000000,0.000000,0.000000:
// measure 0
0000
0000
0000
0000
,  // measure 1
0000
0000
0000
0000
,  // measure 2
1001
1001
1000
0000
,  // measure 3
0100
0000
0010
0000
,  // measure 4
1000
0100
0010
0001
0010
0100
0010
0001
,  // measure 5
1000
0000
0010
0000
0100
0010
0100
0010
,  // measure 6
1000
0010
0010
0000
1000
0001
0100
0001
,  // measure 7
0020
0000
0130
0000
0100
1000
0001
0010
,  // measure 8
0001
1000
1001
0200
,  // measure 9
0310
0100
0001
2000
0000
3002
0000
0003
,  // measure 10
1000
0100
0010
0100
0010
0001
1000
0001
,  // measure 11
0100
0000
0010
0100
0010
1000
0100
1000
,  // measure 12
1001
0000
0100
0000
0001
0000
1000
0010
,  // measure 13
0100
0000
0101
0000
0001
0000
1000
0010
,  // measure 14
0100
0001
0011
1000
,  // measure 15
0110
0001
2010
3002
,  // measure 16
0203
0000
0310
0100
0010
0000
1000
0100
,  // measure 17
0000
0010
0001
1000
1100
0000
0001
0010
,  // measure 18
0110
0000
1000
0100
0011
0000
0001
1000
,  // measure 19
0100
0100
0010
0002
,  // measure 20
1000
0000
1003
0100
0001
0000
0100
1000
,  // measure 21
0000
1000
0100
0010
0001
0000
0100
0001
,  // measure 22
1000
0001
0100
0001
0100
0010
0000
0010
,  // measure 23
1000
0100
0020
0000
0031
0000
1000
0001
,  // measure 24
0100
0000
0001
0010
0110
0000
1000
0001
,  // measure 25
0010
0000
0001
0010
1000
0000
0001
0100
,  // measure 26
1000
0100
0010
0000
0001
0100
0010
0000
,  // measure 27
2000
3001
0210
0310
,  // measure 28
1001
0000
0001
0100
0000
0010
1000
0000
,  // measure 29
0011
0000
0000
0001
0010
0000
0000
0000
0100
0000
0000
0000
1000
0000
0100
0000
,  // measure 30
1100
0000
0011
0000
0100
0000
0001
0100
,  // measure 31
1000
0000
0100
0001
1000
0001
0010
0010
,  // measure 32
0001
0000
0001
1000
0100
0001
1000
0000
,  // measure 33
0110
0000
0001
0100
0000
0100
0001
0000
,  // measure 34
1000
0000
0000
0010
0100
0000
0000
0001
0200
0000
0000
0000
0310
0000
0000
0000
,  // measure 35
2020
0000
3030
0000
0001
0000
0100
0001
,  // measure 36
0100
0000
0001
1000
0001
1000
0000
0100
,  // measure 37
0000
0001
1000
0000
0010
0000
0001
0100
,  // measure 38
0001
1000
0010
0100
0000
0010
0100
0001
,  // measure 39
0010
1000
0001
0200
0000
0000
1300
0000
,  // measure 40
0001
1000
0001
0001
0100
0010
1000
0001
,  // measure 41
0000
0000
0001
0000
2000
0000
0000
0000
3001
0000
0000
0000
0000
0200
0000
0000
,  // measure 42
0000
0310
0100
0002
0000
0000
1003
0010
,  // measure 43
1000
0000
0001
0010
0001
0010
0100
0010
,  // measure 44
0200
0000
1300
0100
0010
0000
0001
0100
,  // measure 45
0010
0000
1000
0100
0010
0001
0100
0010
,  // measure 46
1010
0000
0101
0000
,  // measure 47
2010
0000
3001
0100
0001
0000
1000
0010
,  // measure 48
1010
0000
0100
0001
0100
0000
0100
1000
,  // measure 49
0100
0001
0100
0010
1000
0100
0000
0100
,  // measure 50
0010
0001
1000
0100
0001
0100
1000
0001
,  // measure 51
0110
0000
1000
0001
0101
0000
0001
0000
,  // measure 52
2000
0000
0000
0000
0000
0000
3010
0000
0000
0100
0000
0000
0001
0000
0000
0000
0000
0000
1000
0000
0010
0000
1000
0000
,  // measure 53
0010
0100
0001
1000
0200
0000
0310
0000
,  // measure 54
0001
1000
0001
0100
0010
0000
0100
0000
,  // measure 55
1001
0000
0001
0100
0000
0100
0010
0000
,  // measure 56
1100
0000
0000
0100
0020
0000
0000
0000
0031
0000
0000
0000
0001
0000
0000
0000
,  // measure 57
1000
0000
0010
0100
0000
0010
1000
0000
,  // measure 58
0001
0010
0001
0000
0010
0100
1000
0100
,  // measure 59
0010
0000
0000
0001
1000
0000
0000
0000
0001
0000
0100
0000
0010
0000
0000
0000
,  // measure 60
1000
1000
0100
0010
0001
0010
1000
0000
,  // measure 61
0011
0000
0001
0100
0010
0000
1000
0000
,  // measure 62
0101
0000
0011
0000
0001
1000
0001
0000
,  // measure 63
2000
0000
3020
0000
,  // measure 64
0030
0000
0000
0000
;
