#VERSION:0.83;
#TITLE:Hydro - Galactica;
#SUBTITLE:;
#ARTIST:Third Electric;
#TITLETRANSLIT:;
#SUBTITLETRANSLIT:;
#ARTISTTRANSLIT:;
#GENRE:Techno;
#ORIGIN:;
#CREDIT:;
#BANNER:;
#BACKGROUND:;
#PREVIEWVID:;
#JACKET:;
#CDIMAGE:;
#DISCIMAGE:;
#LYRICSPATH:;
#CDTITLE:;
#MUSIC:3_RD_Electric_-_Hydro_-_Galactica.mp3.ogg;
#OFFSET:-0.056000;
#SAMPLESTART:42.511002;
#SAMPLELENGTH:19.000000;
#SELECTABLE:YES;
#BPMS:0.000=129.986;
#STOPS:;
#DELAYS:;
#WARPS:;
#TIMESIGNATURES:0.000=4=4;
#TICKCOUNTS:0.000=4;
#COMBOS:0.000=1;
#SPEEDS:0.000=1.000=0.000=0;
#SCROLLS:0.000=1.000;
#FAKES:;
#LABELS:0.000=Song Start;
#BGCHANGES:;
#KEYSOUNDS:;
#ATTACKS:
;

//---------------dance-single - ----------------
#NOTEDATA:;
#CHARTNAME:;
#STEPSTYPE:dance-single;
#DESCRIPTION:;
#CHARTSTYLE:;
#DIFFICULTY:Beginner;
#METER:3;
#RADARVALUES:0.169138,0.207438,0.039139,0.048924,0.000000,121.000000,117.000000,4.000000,5.000000,0.000000,0.000000,0.000000,0.000000,0.000000,0.169138,0.207438,0.039139,0.048924,0.000000,121.000000,117.000000,4.000000,5.000000,0.000000,0.000000,0.000000,0.000000,0.000000;
#CREDIT:;
#NOTES:
0000
0000
0000
0000
,
0000
0000
0000
0000
,
2000
0000
3002
0000
,
1003
0000
0010
0000
,
0100
0000
0001
0000
,
1000
0000
0010
0000
,
1000
0000
0001
0000
,
0101
0000
1000
0000
,
0001
0000
1000
0000
,
0010
0000
0100
0000
,
1001
0000
0001
0000
,
2000
0000
0000
0000
,
3001
0000
0100
0000
,
0001
0100
0001
0000
,
1000
0100
1000
0000
,
1000
0010
1000
0000
,
0001
0100
0001
0000
,
1000
0001
1000
0000
,
0001
1000
0001
0000
,
1001
0000
0100
0000
,
0010
0000
1000
0000
,
0001
0000
1000
0001
,
1000
0000
0001
0000
,
0100
0000
0001
0000
,
1000
0000
0001
0000
,
1000
0001
1000
0001
,
1000
0000
0001
0000
,
1000
0010
1000
0010
,
1000
0000
0001
0000
,
0100
0001
0100
0001
,
0100
0000
0001
0000
,
1000
1000
1000
0000
,
0001
0001
0001
0000
,
1000
0100
0010
0000
,
0001
0010
0001
0000
,
1000
0000
0001
0000
,
0100
0000
0001
0000
,
1001
0000
1000
0000
,
0010
0000
0100
0000
,
0001
0000
0001
0000
,
0100
0000
1000
0000
,
0001
0000
0100
0000
,
0010
0000
1000
0000
,
0002
0000
0000
0000
,
2003
0000
0000
0000
,
3001
0000
0000
0000
,
0001
0000
1000
0000
,
0001
0000
0100
0000
,
0001
0000
1000
0000
,
0010
0000
0100
0000
,
0010
0000
0000
0000
,
1000
0000
0001
0000
,
1000
0001
1000
0001
,
1000
0000
0000
0000
;

//---------------dance-single - ----------------
#NOTEDATA:;
#CHARTNAME:;
#STEPSTYPE:dance-single;
#DESCRIPTION:;
#CHARTSTYLE:;
#DIFFICULTY:Easy;
#METER:5;
#RADARVALUES:0.222255,0.259298,0.088063,0.039139,0.000000,159.000000,150.000000,9.000000,4.000000,0.000000,0.000000,0.000000,0.000000,0.000000,0.222255,0.259298,0.088063,0.039139,0.000000,159.000000,150.000000,9.000000,4.000000,0.000000,0.000000,0.000000,0.000000,0.000000;
#CREDIT:;
#NOTES:
0000
0000
0000
0000
,
0000
0000
0000
0000
,
0210
0000
0001
0000
,
0301
1000
0010
0100
,
1001
0001
0100
0100
,
0001
0010
0010
0001
,
1000
0001
0001
1000
,
1001
0010
0100
0010
,
0100
0001
1000
0001
,
1000
0010
0100
0010
,
1000
0001
0010
0001
,
0100
0001
0001
0000
,
1000
0100
0100
0000
,
0011
0001
1000
0000
,
1000
0010
0100
0000
,
0101
0001
0100
0000
,
0100
0001
1000
0000
,
0001
0001
1000
0000
,
1000
0001
0001
0000
,
0101
0001
1000
0000
,
0010
1000
0001
0000
,
1000
0100
0010
0000
,
0010
0001
1000
0000
,
0001
0000
0100
0000
,
0010
0000
1000
0000
,
0001
1000
0001
0000
,
1000
0000
0001
0000
,
2000
0000
3001
0000
,
0002
0000
0103
0000
,
0001
0000
1000
0000
,
0001
1000
0001
0000
,
1000
1000
1000
0100
,
1000
0010
0100
0001
,
0100
0100
0010
0010
,
1000
0001
1000
0001
,
1001
0000
0001
0100
,
0001
0000
1000
0000
,
0110
0000
0010
1000
,
0001
0000
0001
0000
,
1000
0010
0100
0000
,
0101
0000
0001
0010
,
0100
0000
0010
0001
,
2000
0000
3001
0001
,
0001
0000
0000
0000
,
0100
0000
0000
0000
,
0010
0010
0010
0000
,
1000
0000
0001
0000
,
1000
1000
0100
0010
,
0001
0000
1000
0000
,
0001
0000
1000
0000
,
1000
0000
0010
0000
,
0100
0000
0001
0000
,
1000
0001
0100
0010
,
1000
0000
0000
0000
;

//---------------dance-single - ----------------
#NOTEDATA:;
#CHARTNAME:;
#STEPSTYPE:dance-single;
#DESCRIPTION:;
#CHARTSTYLE:;
#DIFFICULTY:Medium;
#METER:9;
#RADARVALUES:0.364834,0.388947,0.097848,0.088063,0.088063,261.000000,251.000000,10.000000,9.000000,0.000000,0.000000,0.000000,0.000000,0.000000,0.364834,0.388947,0.097848,0.088063,0.088063,261.000000,251.000000,10.000000,9.000000,0.000000,0.000000,0.000000,0.000000,0.000000;
#CREDIT:;
#NOTES:
0000
0000
0000
0000
,
0000
0000
0000
0000
,
1000
0001
0100
0000
0100
0001
1000
0000
,
0110
0000
0010
0000
0001
0000
1000
0001
,
1000
0000
0001
0000
0100
0000
0100
0001
,
1000
0000
0010
0100
0001
0000
1000
0100
,
0010
0000
0010
0000
0001
0000
1000
0100
,
1000
0000
0001
0000
0100
0000
0100
0001
,
1000
0000
0010
0100
0001
0000
0100
0100
,
0010
0000
0010
1000
0001
0000
1000
0000
,
1001
0001
0100
0001
,
1000
0000
0001
0100
0001
0000
0000
0000
,
1000
0000
0010
1000
0010
0000
0000
0000
,
0100
0000
0001
0000
0000
0001
0000
0000
1000
0000
0000
1000
0000
0000
0010
0000
,
0200
0001
0301
1000
,
1010
0000
0010
0000
0100
0000
0001
1000
,
0001
1000
1000
0001
,
0100
0000
0001
0000
0000
1000
0000
0000
0001
0000
0000
1000
0000
0000
0001
0000
,
2000
0010
3001
0100
,
1001
0010
0100
1000
,
1001
0000
0100
0010
0100
0000
0010
0000
,
1000
0001
0100
0001
,
2000
0100
3010
0100
,
0102
0000
0000
0000
1003
0000
0010
0100
,
0010
0000
1000
0001
1000
0000
0001
0000
,
0200
0000
0000
0000
0310
0000
0100
0001
,
0100
0010
1000
0001
,
2000
0100
3001
0010
,
0110
0000
1000
0000
0001
0000
0100
0001
,
0100
0000
0001
0000
0000
1000
0000
0000
0001
0000
0000
1000
0000
0000
0001
0000
,
0100
0010
0100
0010
,
1001
0000
1000
0010
,
0100
0000
0001
0100
,
0001
0000
0000
1000
0001
0000
0000
0001
1000
0000
0000
0000
0010
0000
0000
0000
,
0100
0000
0000
0001
1000
0000
0000
0001
0100
0000
0000
0000
0010
0000
0010
0000
,
0010
0000
0000
0000
1000
0000
0000
0001
0100
0000
0001
0000
1000
0000
0000
0010
,
0100
0000
0001
0000
1000
0000
0000
0001
0010
0000
0000
0000
0001
0000
0000
0000
,
1001
0000
0000
0000
1000
0000
0000
0100
1000
0000
0001
0000
0100
0000
0000
0001
,
0010
0100
1000
0000
0010
0000
0100
0010
,
1000
0000
0001
0100
0001
0000
1000
0000
,
0010
0000
0100
0000
0010
0000
0000
0000
0100
0000
0000
0000
0001
0000
0000
1000
,
0001
0000
0000
0000
0100
0000
0000
0010
0100
0000
0000
0000
0001
0000
0000
1000
,
0002
0000
1003
0010
,
0100
0000
0100
0000
0010
0010
0010
0000
,
0100
0000
0001
0000
0100
0100
0100
0000
,
0002
1000
0100
0000
,
1003
0010
0100
0000
,
0011
0000
0001
0000
1000
0000
0010
0100
,
0001
0000
1000
0001
1000
0000
0001
0000
,
0100
0010
0000
0100
0010
1000
0000
0001
,
0100
0001
0000
1000
0100
0010
0000
0001
,
1000
0001
0000
1000
0010
1000
0000
0001
,
0200
0001
0010
0001
,
0301
0000
0000
0000
;

//---------------dance-single - ----------------
#NOTEDATA:;
#CHARTNAME:;
#STEPSTYPE:dance-single;
#DESCRIPTION:;
#CHARTSTYLE:;
#DIFFICULTY:Hard;
#METER:12;
#RADARVALUES:0.540961,0.622315,0.166342,0.107633,0.352254,387.000000,370.000000,17.000000,11.000000,0.000000,0.000000,0.000000,0.000000,0.000000,0.540961,0.622315,0.166342,0.107633,0.352254,387.000000,370.000000,17.000000,11.000000,0.000000,0.000000,0.000000,0.000000,0.000000;
#CREDIT:;
#NOTES:
0000
0000
0000
0000
,
0000
0000
0000
0000
,
1001
0100
0010
1000
0001
0001
1000
1000
,
0001
0100
0001
1000
0010
0100
0001
1000
,
1010
0100
0001
1000
0001
0100
0100
0010
,
0110
0000
0001
0000
1000
0000
0001
0100
0001
0000
1000
0000
0010
0000
0100
0000
,
0101
0000
0001
0000
1000
0000
0010
0100
0010
0000
1000
0001
1000
0001
1000
0001
,
1000
0000
0001
0000
0100
0000
0010
0000
1000
0000
0001
0100
0001
0000
1000
0000
,
0110
0000
0100
0000
0001
0000
1000
0100
1000
0000
0001
0000
0100
0000
0010
0000
,
1001
0000
1000
0001
0100
0000
0100
0001
,
1000
0000
0010
0001
0010
0000
0100
0001
,
1000
0000
0000
0000
0001
0000
0000
0100
0000
0000
0100
0000
0001
1000
0001
0000
,
1000
0000
0000
0000
0010
0000
0000
0100
0000
0000
0001
0000
1000
0010
0100
0000
,
0001
0000
1000
0000
0000
0001
0000
1000
0001
0000
0000
1000
0000
0000
0001
0000
,
0100
0000
0010
0100
0000
0010
0000
2000
0000
0000
0000
0000
3001
0000
0000
0000
,
1000
0000
0001
0000
0000
1000
0000
0001
1000
0000
0000
0010
0000
0000
0010
0000
,
0100
0000
0001
0100
0000
0001
0000
0200
0000
0000
0000
0000
0310
0000
0000
0000
,
1000
0000
0010
0000
0000
0100
0000
0001
1000
0000
0000
0001
0000
0100
0001
0000
,
1000
0000
0100
0010
0000
0001
0000
2000
0000
0000
0000
0000
3010
0000
0000
0000
,
0110
0000
0000
0000
0001
0000
1000
0000
0001
0000
0100
0001
0100
0000
0010
0000
,
1010
0000
0000
0000
0100
0000
0001
0000
1000
0000
0010
0100
0010
0000
1000
0000
,
0001
0000
0100
0001
0000
0100
0000
0002
0000
0000
0000
0000
1003
0000
0010
0000
,
0110
0000
0001
0010
0100
0000
1100
0100
,
0020
0000
0001
0000
0031
0000
1000
0100
,
0010
0000
0001
0010
0001
0000
1000
0000
0100
0000
1000
0010
0100
0000
0001
0000
,
0101
0000
0000
0000
0001
0000
0100
0000
0010
0000
1000
0001
0100
0000
0010
0000
,
1000
0000
0001
0100
0000
0001
0000
0200
0000
0000
0000
0000
0301
0000
0000
0000
,
2010
0000
0001
0000
3001
0000
0100
0010
,
0100
0000
0001
1000
0001
0000
1000
0010
,
0100
0000
0001
0000
0000
0100
0000
0001
1000
0000
0000
0001
0000
0001
1000
0000
,
0010
0000
0100
0010
0000
0100
0000
0020
0000
0000
0000
0000
2030
0000
0000
0000
,
3001
0000
0100
0000
0001
1000
0000
0001
0000
1000
0001
1000
0001
0000
0000
0000
,
0100
0000
0010
0100
0000
0001
0000
1000
0000
0001
1000
0001
1000
0000
0000
0000
,
0110
0000
0000
0000
0010
0000
0000
0000
0100
0000
0010
0000
0100
0010
0100
0000
,
0001
1000
0001
0000
1000
0100
1000
0000
0001
0000
0001
0000
0001
0000
0001
0000
,
1000
0000
0100
0000
1000
0000
0001
0010
0001
0000
0000
0000
1000
0000
0010
0000
,
0100
0000
0001
0000
1000
0000
0010
0100
0001
0000
1000
0100
1000
0000
0000
0000
,
0101
0000
0001
0000
1000
0000
0001
0010
0001
0000
0000
0000
0100
0000
0000
0000
,
0110
0000
0010
0000
1000
0000
0001
0100
0001
0000
0100
0000
0001
0000
1000
0000
,
0010
0000
0100
0000
0001
0000
1000
0100
0010
0000
0000
0000
0001
0000
0000
0000
,
1010
0000
0010
0000
1000
0000
0001
0100
0001
0000
0000
0000
1000
0000
0001
0000
,
0101
0001
0010
0100
1000
0010
0010
0100
,
0100
0000
0001
0100
0001
0000
0000
0000
2000
0000
0000
0000
3010
0000
0100
0000
,
0010
0000
1000
0000
,
0001
0000
0100
0000
,
0010
0000
1000
0000
0001
0000
0100
0001
0100
0000
0000
0000
0001
0000
1000
0000
,
0010
0000
0000
0000
0010
0000
1000
0001
0100
0000
0000
0000
0001
0000
0010
0000
,
0100
0000
0000
0000
0100
0000
1000
0001
1000
0000
0000
0000
0001
0000
0100
0000
,
0010
0000
0000
0000
0010
0000
1000
0100
0010
0000
0000
0000
0001
0000
1000
0000
,
0001
0000
1000
0010
0100
0010
0100
0001
,
1000
0000
0010
0100
0001
0100
0001
1000
,
0100
0000
0010
0001
0010
1000
0010
0001
,
0100
0000
0010
0000
2000
0000
3001
0100
,
0001
0000
0000
0000
;

//---------------dance-single - ----------------
#NOTEDATA:;
#CHARTNAME:;
#STEPSTYPE:dance-single;
#DESCRIPTION:;
#CHARTSTYLE:;
#DIFFICULTY:Challenge;
#METER:15;
#RADARVALUES:0.791174,0.855684,0.019570,0.068494,0.993160,566.000000,564.000000,2.000000,7.000000,0.000000,0.000000,0.000000,0.000000,0.000000,0.791174,0.855684,0.019570,0.068494,0.993160,566.000000,564.000000,2.000000,7.000000,0.000000,0.000000,0.000000,0.000000,0.000000;
#CREDIT:;
#NOTES:
// measure 0
0000
0000
0000
0000
,  // measure 1
0000
0000
0000
0000
,  // measure 2
1000
0001
1000
0001
0100
0010
0100
0010
1000
0100
1000
0100
0010
0000
0010
0001
,  // measure 3
1000
0000
0001
0000
0100
0000
0001
0100
0010
0000
1000
0000
0001
0000
0100
0010
,  // measure 4
1000
0000
0001
0000
0100
0000
0010
1000
0001
0000
1000
0001
1000
0001
1000
0000
,  // measure 5
0001
0000
0100
0000
0010
0000
1000
0000
0001
0000
0001
0100
0010
1000
0010
0000
,  // measure 6
1000
0000
0001
0010
0001
0010
0001
0000
1000
0100
0010
0001
1000
0100
1000
0000
,  // measure 7
0001
0000
0100
0010
0100
0010
0100
0000
0001
0000
1000
0001
0100
0001
1000
0001
,  // measure 8
0100
0000
0010
0000
0010
0000
0100
0000
0100
0000
0001
0010
0001
0010
0100
1000
,  // measure 9
0001
0000
0100
0000
0100
0000
0010
0000
0010
0000
1000
0001
1000
0010
0100
0001
,  // measure 10
1000
0000
0001
0000
0001
0000
1000
0000
0001
1000
0001
1000
0001
1000
0001
1000
,  // measure 11
0001
0000
0100
0010
0100
0001
0000
0001
0000
1000
0010
0100
0010
1000
0001
0100
,  // measure 12
0001
0100
0001
0010
0001
0010
0000
0001
0000
1000
0100
0010
0001
1000
0100
1000
,  // measure 13
0001
0000
0100
0000
0001
0100
0000
0001
0100
0000
0000
0010
0000
0000
1000
0000
,  // measure 14
0001
0010
0001
0010
0000
0001
0000
2000
0000
0000
0000
0000
3010
0000
0100
0000
,  // measure 15
0101
0000
0001
0000
0000
1000
0000
0000
0001
0000
0100
0001
0000
0000
0001
0000
,  // measure 16
1000
0000
0010
0100
0000
0001
0000
2000
0000
0000
0000
0000
3001
0100
0001
0100
,  // measure 17
0001
0000
1000
0000
0000
0001
0000
0000
0100
0000
0010
0100
0000
0100
0001
0000
,  // measure 18
1000
0000
0001
1000
0000
0001
0000
0200
0000
0000
0000
0000
0310
0000
0100
0000
,  // measure 19
0001
0000
0000
0000
1000
0000
0010
0000
1000
0001
0100
0001
0100
0001
0100
0000
,  // measure 20
0001
0000
1000
0000
0010
0000
0000
0000
1000
0001
0010
0001
1000
0000
0001
0000
,  // measure 21
0100
0010
0100
0010
0100
0001
0100
0001
0100
0010
1000
0010
1000
0010
1000
0001
,  // measure 22
0100
0010
0100
0001
0010
0001
0010
0001
1000
0100
1000
0100
1000
0001
0010
0001
,  // measure 23
2000
0000
0000
0000
0001
0000
0000
0000
3010
0000
0100
0000
0001
0100
0010
0000
,  // measure 24
1001
0000
0000
0000
0100
0000
0010
0100
0010
0000
1000
0000
0001
0100
0001
0000
,  // measure 25
2000
0000
0000
0000
0100
0000
0000
0000
3001
0000
0100
0001
0100
0000
0001
0000
,  // measure 26
1000
0000
0001
0100
0000
0001
0000
1000
0000
0000
0001
0000
0100
0010
0100
0000
,  // measure 27
0020
0000
0000
0000
0100
0000
0000
0000
1030
0000
0001
0000
0100
0010
0100
0000
,  // measure 28
0020
0000
0000
0000
1000
0000
0000
0000
0130
0000
0001
0000
1000
0010
0100
0010
,  // measure 29
1000
0000
0001
0000
0000
0001
0000
0000
1000
0000
0000
0001
0000
0100
0001
0000
,  // measure 30
1000
0100
0010
0001
0010
0100
1000
0001
0100
0010
0100
0001
0100
0001
0100
0001
,  // measure 31
1000
0000
0001
0100
0001
0100
0000
0001
0000
1000
0001
1000
0001
0100
0010
0100
,  // measure 32
0001
1000
0001
1000
0001
1000
0000
0001
0010
0100
1000
0001
0100
0010
0100
0010
,  // measure 33
0100
0000
0001
1000
0001
0100
0001
1000
0000
0010
0100
0001
1000
0100
0010
0000
,  // measure 34
0001
0010
0001
0010
0001
0010
0001
0010
0001
1000
0100
1000
0100
1000
0100
1000
,  // measure 35
0100
0000
1000
0000
0001
0000
0100
0010
0100
0000
0001
0000
1000
0000
0001
0000
,  // measure 36
0100
0000
0001
0000
0001
0000
1000
0010
1000
0000
0001
0100
0001
0000
0100
0000
,  // measure 37
0010
0100
0010
0000
1000
0000
0001
0010
0100
0000
1000
0000
0100
0000
0010
0000
,  // measure 38
0001
0010
0100
0000
1000
0000
0010
0100
0001
0000
0100
0000
0001
0010
0100
0000
,  // measure 39
1000
0001
0100
0000
0001
0000
1000
0010
0100
0000
0010
0000
0001
0000
0010
0000
,  // measure 40
1000
0100
0010
0000
0001
0000
0001
1000
0100
0000
0000
0000
0010
0000
0001
0000
,  // measure 41
1000
0000
0100
0000
0010
0000
0001
0100
0010
0000
1000
0000
0001
0100
0001
0000
,  // measure 42
1000
0100
1000
0100
0010
0001
0010
0001
1000
0100
0010
0001
0100
0010
0100
0001
,  // measure 43
1000
0001
1000
0100
0010
0001
0100
0000
0001
0010
0001
0000
1000
0100
1000
0100
,  // measure 44
0010
0001
0010
0001
0010
0001
0010
0000
0100
1000
0001
0000
0001
0010
0001
1000
,  // measure 45
0001
0000
1000
0000
0010
0000
0100
0001
1000
0000
0010
0100
0001
0100
0001
0000
,  // measure 46
1000
0000
0100
0010
0001
0010
0100
0000
1000
0000
0001
0100
0001
0100
0010
0000
,  // measure 47
1000
0000
0001
0010
0100
0000
1000
0100
0010
0001
0010
0100
0010
0000
0100
0000
,  // measure 48
1000
0000
0010
1000
0001
1000
0010
0000
1000
0000
0100
1000
0001
1000
0100
0000
,  // measure 49
1000
0000
0100
0000
0010
0000
0001
0010
0001
0000
1000
0100
1000
0000
0010
0000
,  // measure 50
0100
0000
0001
0010
0100
0000
1000
0000
0001
0000
0100
0010
1000
0000
0001
0100
,  // measure 51
0010
0000
0100
0001
0100
0000
0001
0000
1000
0000
0001
0000
0100
0000
0010
0000
,  // measure 52
0100
0010
1000
0001
0100
0010
1000
0001
1000
0100
1000
0001
0010
0000
0001
0010
,  // measure 53
0001
0000
0000
0000
;
