#TITLE:Hikari;
#SUBTITLE:;
#ARTIST:Nazca;
#TITLETRANSLIT:;
#SUBTITLETRANSLIT:;
#ARTISTTRANSLIT:;
#GENRE:;
#CREDIT:from pop n music 13;
#BANNER:Nazca - Hikari.png;
#BACKGROUND:;
#LYRICSPATH:;
#CDTITLE:;
#MUSIC:Nazca - Hikari.ogg;
#OFFSET:-0.152000;
#SAMPLESTART:70.000000;
#SAMPLELENGTH:12.000000;
#SELECTABLE:YES;
#BPMS:0.000000=134.000000
;
#STOPS:
;
#BGCHANGES:;
#KEYSOUNDS:;
#ATTACKS:;

//---------------dance-single - ----------------
#NOTES:
     dance-single:
     :
     Beginner:
     2:
     0.072560,0.103222,0.024577,0.040961,0.000000,62.000000,59.000000,3.000000,5.000000,0.000000,0.000000,0.072560,0.103222,0.024577,0.040961,0.000000,62.000000,59.000000,3.000000,5.000000,0.000000,0.000000:
0000
0000
0000
0000
,
0000
0000
0000
0000
,
0000
0000
0000
0000
,
1000
0000
0000
0000
,
0001
0000
0000
0000
,
1001
0000
0000
0000
,
1000
0000
0000
0000
,
0001
0000
0000
0000
,
0010
0000
0000
0000
,
0100
0000
0000
0000
,
1000
0000
0000
0000
,
0001
0000
0000
0000
,
0100
0000
0000
0000
,
0010
0000
0000
0000
,
0010
0000
0000
0000
,
0100
0000
0000
0000
,
0001
0000
0000
0000
,
1000
0000
0000
0000
,
0001
0000
0000
0000
,
1000
0000
0000
0000
,
0001
0000
0000
0000
,
2000
0000
3000
0000
,
0000
0000
0000
0000
,
0001
0000
0000
0000
,
0001
0000
0000
0000
,
0010
0000
0000
0000
,
0010
0000
0000
0000
,
0100
0000
0000
0000
,
0100
0000
0000
0000
,
2000
0000
3000
0000
,
0001
0000
0000
0000
,
1000
0000
0000
0000
,
1000
0000
0000
0000
,
0100
0000
0000
0000
,
0100
0000
0000
0000
,
0010
0000
0000
0000
,
0010
0000
0000
0000
,
0001
0000
0000
0000
,
0001
0000
0000
0000
,
2000
0000
3000
0000
,
0001
0000
0000
0000
,
0002
0000
0003
0000
,
1000
0000
0000
0000
,
0100
0000
0000
0000
,
0010
0000
0000
0000
,
0001
0000
0000
0000
,
1000
0000
0000
0000
,
1001
0000
0000
0000
,
0001
0000
0000
0000
,
0001
0000
0000
0000
,
0010
0000
0000
0000
,
0010
0000
0000
0000
,
0001
0000
0000
0000
,
0001
0000
0000
0000
,
0020
0000
0000
0000
,
0030
0000
0000
0000
,
0100
0000
0000
0000
,
0100
0000
0000
0000
,
0001
0000
0000
0000
,
1000
0000
0000
0000
,
1001
0000
0000
0000
,
1000
0000
0000
0000
,
0001
0000
0000
0000
,
1000
0000
0000
0000
;

//---------------dance-single - ----------------
#NOTES:
     dance-single:
     :
     Easy:
     4:
     0.208317,0.235014,0.090114,0.049153,0.000000,178.000000,167.000000,11.000000,6.000000,0.000000,0.000000,0.208317,0.235014,0.090114,0.049153,0.000000,178.000000,167.000000,11.000000,6.000000,0.000000,0.000000:
0000
0000
0000
0000
,
0000
0000
0000
0000
,
0000
0000
0000
0000
,
0100
0001
1000
0001
,
0100
0010
0010
1000
,
0100
1000
0000
0001
,
0010
0001
0000
1000
,
0001
1000
0001
0100
,
0010
0000
0100
0100
,
0110
0000
0010
0010
,
0100
0000
0100
0001
,
0001
0000
1000
0100
,
0100
0000
0010
0000
,
0001
0000
1000
0001
,
0100
0100
0001
0001
,
2000
0000
3000
0000
,
0001
0010
0001
0000
,
1001
0000
1000
0100
,
0010
0000
0001
0000
,
0010
0001
0010
0000
,
0100
0000
1000
0000
,
1001
0000
0001
1000
,
0001
1000
0100
0100
,
0100
0000
1000
0000
,
0001
0000
0011
0000
,
1001
0000
1000
0000
,
0001
0000
0100
0000
,
0110
0000
0010
0000
,
0100
0000
0010
0000
,
1000
0000
0001
0000
,
1000
0001
0001
0001
,
1000
0100
1000
0001
,
0010
0001
0000
0000
,
1000
0100
1000
0001
,
0010
0001
0100
0001
,
0200
0000
0300
0000
,
0001
0000
0010
0000
,
0100
0100
0100
0000
,
2000
0000
3001
0000
,
0001
0100
0001
0100
,
0000
0001
0000
1000
,
0100
0010
0100
0010
,
0000
0000
0001
0000
,
1000
0000
0001
0000
,
1001
0000
0110
0000
,
1000
0100
1000
0000
,
1000
0010
1000
0000
,
1001
0000
0001
0010
,
0001
0000
0001
0100
,
0001
0000
0100
0000
,
0002
0000
0003
0000
,
1000
0010
0100
0010
,
0010
0000
2000
3000
,
0001
0001
0001
0010
,
0002
0000
0000
0000
,
1003
0000
0000
0000
,
0110
0010
0010
0100
,
0100
0000
0001
0000
,
1001
0000
1000
0001
,
0001
1000
0001
0100
,
0010
0000
1000
0001
,
1000
0000
0100
0010
,
1000
0001
0100
0000
,
0010
0000
0100
0100
;

//---------------dance-single - ----------------
#NOTES:
     dance-single:
     :
     Medium:
     8:
     0.335881,0.392459,0.114691,0.081922,0.000000,287.000000,273.000000,14.000000,10.000000,0.000000,0.000000,0.335881,0.392459,0.114691,0.081922,0.000000,287.000000,273.000000,14.000000,10.000000,0.000000,0.000000:
0000
0000
0000
0000
,
0000
0000
0000
0000
,
0000
0000
0000
0000
,
0110
0000
0010
1000
0010
0000
0100
0001
,
0100
0000
0010
1000
0010
0100
0010
0000
,
0110
0000
0100
0001
0100
0000
0001
0010
,
0001
0000
1000
0100
1000
0000
0010
0100
,
0010
0000
0010
1000
0010
0000
0010
0100
,
0010
1000
0010
0000
0100
0000
0101
0000
,
1010
0000
1000
0000
0100
0010
0001
0000
,
1000
0000
0001
0000
1000
0100
1000
0000
,
0001
0000
0011
0000
0001
0100
0001
0000
,
0100
0000
0001
0100
0001
0100
0001
0000
,
1000
0000
1100
0000
1000
0100
1000
0000
,
0001
0000
0010
0000
0001
0010
0100
0000
,
2000
0000
3000
0001
,
0000
0100
0020
0030
,
0100
0000
0001
0000
1000
0100
0001
0000
,
0100
0000
1000
0000
0100
0010
0001
0000
,
1000
0000
0010
0000
1000
0100
0001
0000
,
1000
0000
0001
0000
0100
0010
0001
0000
,
2000
0000
3001
0001
,
0002
0000
1003
0000
,
0100
0000
0000
0010
0100
0010
0100
0000
,
0001
0000
1000
0001
1000
0000
0001
1000
,
0001
0000
0000
0100
0001
0100
0001
0000
,
1000
0000
0001
0010
0001
0000
0001
0100
,
0001
0000
0000
0100
0010
0100
0010
0000
,
0100
0000
0000
0010
0100
0010
0100
0000
,
0002
0000
0003
0000
,
1000
1001
1000
0001
,
2000
3100
0010
0001
,
0100
0001
0100
0000
0001
0100
0001
0000
,
1000
0010
0100
0001
,
1000
1100
0010
0011
,
0012
0003
0010
0000
,
0001
0000
1000
0100
1000
0000
0010
0100
,
0020
0000
0000
0000
0030
0000
0000
0200
,
0000
0000
0310
0010
,
0110
0100
0001
0100
,
0010
0000
1000
0000
0001
0100
0001
0010
,
0001
1000
0000
0001
,
1000
0100
0010
0001
,
1000
0000
0001
0100
,
0001
0000
0100
0000
,
0010
0100
0010
0000
0100
0010
0100
0000
,
0010
0000
0100
0000
0010
0100
0010
0100
,
0010
0000
0100
0000
,
0001
0000
0000
0000
1000
0001
1000
0001
,
1000
0000
0001
0000
0010
0000
0001
0100
,
0001
0000
0100
0001
0100
0000
0001
1000
,
0001
1000
1000
0001
,
0001
0010
0100
1000
,
0100
0100
0010
0010
,
0002
0000
0003
0000
,
1000
0000
0000
0010
,
0110
0000
0001
0000
1000
0100
1000
0001
,
1000
0000
0001
0000
0100
0010
0100
0001
,
0010
0000
1001
0000
1000
0100
1000
0000
,
0001
0100
0001
0000
0010
0001
0010
0000
,
0101
0001
1000
0100
,
0010
0000
0001
0000
1000
0100
1000
0000
,
1000
0100
0010
0000
0010
0100
0010
0000
,
0001
0000
1000
0000
0001
1000
0001
1000
;

//---------------dance-single - ----------------
#NOTES:
     dance-single:
     :
     Hard:
     12:
     0.484511,0.523278,0.180229,0.221190,0.167941,414.000000,392.000000,22.000000,27.000000,0.000000,0.000000,0.484511,0.523278,0.180229,0.221190,0.167941,414.000000,392.000000,22.000000,27.000000,0.000000,0.000000:
// measure 0
0000
0000
0000
0000
,  // measure 1
0000
0000
0000
0000
,  // measure 2
0000
0000
0000
0000
,  // measure 3
1100
0100
1000
0001
0100
0010
0100
0001
,  // measure 4
0010
0000
0100
0000
1000
0000
0001
0000
0001
0000
1000
0000
1000
0000
0010
0100
,  // measure 5
0010
0100
0001
0100
0010
0000
1000
0010
,  // measure 6
0100
1000
0100
0001
0010
0100
1000
0001
,  // measure 7
0200
0000
0301
1000
0001
0100
0001
1000
,  // measure 8
0200
0000
0000
0000
1300
0000
0100
0000
0010
0000
0100
0010
0100
0010
0001
0000
,  // measure 9
0010
0002
0000
0003
1000
0001
0001
0100
,  // measure 10
0010
0000
0000
0100
0000
0000
0010
0000
0100
0000
0000
0010
0000
0000
1000
0000
,  // measure 11
0001
0000
0000
0010
0000
0000
0100
0000
1000
0000
0100
0000
1000
0000
0100
0000
,  // measure 12
0010
0000
0000
0001
0000
0000
1000
0000
0001
0000
0000
1000
0000
0000
0100
0000
,  // measure 13
0001
1000
0010
0100
0010
0001
1000
0010
,  // measure 14
0101
0000
0000
0001
0000
0000
1000
0000
0010
0000
0000
0100
0000
0000
0010
0000
,  // measure 15
2020
0000
0030
0000
3001
0000
0100
0101
,  // measure 16
0000
0000
0001
0000
0100
0000
0010
0000
0100
0010
0100
0000
0000
0000
0001
1000
,  // measure 17
0001
0000
0000
0010
0000
0000
0100
0000
1000
0000
0000
0100
0010
0000
0001
0000
,  // measure 18
0000
0100
1000
0100
0001
0100
0101
0000
,  // measure 19
0010
0000
0001
0000
1000
0000
0001
0000
0100
0000
0000
0010
0000
0000
0010
0000
,  // measure 20
0100
0001
0010
0100
1000
0100
0001
1000
,  // measure 21
0010
0100
0001
0000
0001
0000
1000
0100
,  // measure 22
1000
0000
0000
0000
0101
0000
0000
0000
0001
0000
0010
0000
0100
0010
0100
0000
,  // measure 23
1000
0000
0000
0001
0000
0000
0001
0000
0010
0000
0000
0100
0000
0000
0100
0000
,  // measure 24
1000
0000
0000
0010
0000
0000
1000
0000
1000
0000
0010
0000
1001
0000
0000
0000
,  // measure 25
0110
0000
0000
0100
0000
0000
0001
0000
0100
0000
0000
0001
0000
0000
0100
0000
,  // measure 26
0010
0000
0000
0100
0000
0000
0010
0000
0200
0000
0300
0000
0001
1000
0001
0000
,  // measure 27
1000
0000
0000
0010
0000
0000
0100
0000
0101
0000
0000
0010
0000
0000
0100
0000
,  // measure 28
0020
0000
0030
1000
0000
0000
0100
0000
0100
0000
0000
0100
0000
0000
0010
0000
,  // measure 29
0200
0000
0300
1100
0000
0000
0010
0001
,  // measure 30
0200
0010
1000
0310
,  // measure 31
0010
0000
0000
1000
0100
0000
0010
0000
0001
0000
0000
0100
0001
0000
1000
0000
,  // measure 32
0001
0000
0000
0010
0000
0000
0100
0000
0000
0000
1000
0000
1000
0000
0100
0000
,  // measure 33
0010
0000
0000
0001
1000
0000
0020
0000
0030
0000
0100
0000
0000
0000
0010
0000
,  // measure 34
0110
0000
0000
0100
0000
0000
0010
0000
1000
0000
0000
0010
0000
0000
1000
0001
,  // measure 35
2000
3000
0001
0100
0001
0100
1000
0100
,  // measure 36
0001
0002
0003
0010
0100
1000
0001
0100
,  // measure 37
0010
0000
0100
0001
0100
0000
0010
1000
,  // measure 38
0010
0000
0100
0000
0100
0001
0000
0000
0001
0000
0010
0001
0010
0001
0010
0000
,  // measure 39
0001
0100
0001
0100
1000
0100
0001
0022
,  // measure 40
0033
0010
0100
0010
0001
0010
0100
1000
,  // measure 41
0002
0000
0103
0001
0010
0000
0100
2200
,  // measure 42
3300
0000
0000
0000
0100
0000
0010
0000
0001
0000
0000
1000
0100
0000
0010
0000
,  // measure 43
0002
0000
0003
0000
1000
0000
0010
0000
0100
0000
0000
0100
0000
0000
0010
0000
,  // measure 44
0110
0000
0000
0010
0000
0000
0200
0000
0020
0000
0000
0000
0330
0000
0000
0000
,  // measure 45
0010
1000
0001
0010
0100
0100
1000
0001
,  // measure 46
0101
0000
0110
0000
1000
0100
0010
0001
,  // measure 47
0002
0000
1003
0001
0100
0000
0010
1000
,  // measure 48
0001
0000
1000
0100
0010
0100
0001
0100
,  // measure 49
0010
0100
0020
0000
0031
0000
1000
0002
,  // measure 50
0000
0000
0003
0000
0100
0000
0010
0000
0100
0000
0000
0000
0010
0000
0000
0100
,  // measure 51
0010
0100
0001
1000
,  // measure 52
0001
0100
0001
0000
0200
0000
0301
0000
,  // measure 53
0020
1000
1030
0000
0100
0010
0001
0000
,  // measure 54
0201
0000
0301
0000
,  // measure 55
0100
0010
0100
0000
0010
0000
1000
0000
,  // measure 56
1010
0000
1000
0000
0001
0010
0001
0100
,  // measure 57
0001
0000
1000
0100
0010
0001
0010
0100
,  // measure 58
1000
0000
0001
0100
0010
0100
1000
0100
,  // measure 59
0001
0100
0001
0000
1000
1000
0002
0003
,  // measure 60
1001
0000
1000
0100
1000
0000
0001
0010
,  // measure 61
0001
0100
0001
0000
1000
0100
1010
0000
,  // measure 62
0001
0010
0100
0010
0001
0100
1000
0001
,  // measure 63
0010
1000
0100
0000
0010
0010
0011
0011
;
