#VERSION:0.83;
#TITLE:Hey Little Boy, I Gave U My Heart;
#SUBTITLE:;
#ARTIST:Simon Le Grec;
#TITLETRANSLIT:;
#SUBTITLETRANSLIT:;
#ARTISTTRANSLIT:;
#GENRE:;
#ORIGIN:;
#CREDIT:;
#BANNER:;
#BACKGROUND:;
#PREVIEWVID:;
#JACKET:;
#CDIMAGE:;
#DISCIMAGE:;
#LYRICSPATH:;
#CDTITLE:;
#MUSIC:Simon-Le-Grec-Hey-Little-Boy_-I-Gave-You-My-Heart.ogg;
#OFFSET:-0.087000;
#SAMPLESTART:41.817001;
#SAMPLELENGTH:17.100000;
#SELECTABLE:YES;
#BPMS:0.000=184.000;
#STOPS:;
#DELAYS:;
#WARPS:;
#TIMESIGNATURES:0.000=4=4;
#TICKCOUNTS:0.000=4;
#COMBOS:0.000=1;
#SPEEDS:0.000=1.000=0.000=0;
#SCROLLS:0.000=1.000;
#FAKES:;
#LABELS:0.000=Song Start;
#BGCHANGES:;
#KEYSOUNDS:;
#ATTACKS:
;

//---------------dance-single - ----------------
#NOTEDATA:;
#CHARTNAME:;
#STEPSTYPE:dance-single;
#DESCRIPTION:;
#CHARTSTYLE:;
#DIFFICULTY:Beginner;
#METER:3;
#RADARVALUES:0.116857,0.184049,0.102249,0.020450,0.000000,80.000000,70.000000,10.000000,2.000000,0.000000,0.000000,0.000000,0.000000,0.000000,0.116857,0.184049,0.102249,0.020450,0.000000,80.000000,70.000000,10.000000,2.000000,0.000000,0.000000,0.000000,0.000000,0.000000;
#CREDIT:;
#NOTES:
0000
0000
0000
0000
,
0000
0000
0000
0000
,
0000
0000
0000
0000
,
0000
0000
0000
0000
,
0000
0000
0000
0000
,
0000
0000
0000
0000
,
0000
0000
0000
0000
,
0000
0000
0000
0000
,
1001
0000
0000
0000
,
0000
0000
0000
0000
,
0110
0000
0000
0000
,
0000
0000
0000
0000
,
1001
0000
0000
0000
,
0000
0000
0000
0000
,
1100
0000
0000
0000
,
0000
0000
0000
0000
,
0001
0000
0000
0000
,
0001
0000
0000
0000
,
1000
0000
0000
0000
,
1000
0000
0000
0000
,
0010
0000
0000
0000
,
0010
0000
0000
0000
,
0100
0000
0000
0000
,
0001
0000
0000
0000
,
1001
0000
0000
0000
,
0000
0000
0000
0000
,
0110
0000
0000
0000
,
0000
0000
0000
0000
,
1000
0000
0000
0000
,
0001
0000
0000
0000
,
1000
0000
0000
0000
,
0000
0000
0000
0000
,
1001
0000
0000
0000
,
1000
0000
0001
0000
,
1000
0000
0000
0000
,
0001
0000
0000
0000
,
0101
0000
0000
0000
,
0001
0000
0100
0000
,
0001
0000
0000
0000
,
0000
0000
0000
0000
,
1010
0000
0000
0000
,
1000
0000
0010
0000
,
1000
0000
0000
0000
,
0000
0000
0000
0000
,
0101
0000
0000
0000
,
0001
0000
1000
0000
,
0001
0000
0000
0000
,
1000
0000
0000
0000
,
0001
0000
0000
0000
,
2000
0000
0000
0000
,
3001
0000
0000
0000
,
0100
0000
0000
0000
,
0001
0000
0000
0000
,
2000
0000
0000
0000
,
3010
0000
0000
0000
,
0100
0000
0000
0000
,
0001
0000
1000
0000
,
0001
0000
0000
0000
,
0100
0000
0010
0000
,
1000
0000
0000
0000
,
0010
0000
1000
0000
,
0001
0000
0000
0000
,
1000
0000
1000
0000
,
1000
0000
1000
0000
,
0001
0000
0000
0000
,
0100
0000
0010
0000
,
0100
0000
0000
0000
,
0001
0000
0001
0000
,
0001
0000
0000
0000
,
1000
0000
0001
0000
,
1000
0000
0001
0000
,
0100
0000
0010
0000
,
0100
0000
0000
0000
;

//---------------dance-single - ----------------
#NOTEDATA:;
#CHARTNAME:;
#STEPSTYPE:dance-single;
#DESCRIPTION:;
#CHARTSTYLE:;
#DIFFICULTY:Easy;
#METER:5;
#RADARVALUES:0.241017,0.294479,0.194274,0.071575,0.000000,165.000000,146.000000,19.000000,7.000000,0.000000,0.000000,0.000000,0.000000,0.000000,0.241017,0.294479,0.194274,0.071575,0.000000,165.000000,146.000000,19.000000,7.000000,0.000000,0.000000,0.000000,0.000000,0.000000;
#CREDIT:;
#NOTES:
0000
0000
0000
0000
,
0000
0000
0000
0000
,
0000
0000
0000
0000
,
0000
0000
0000
0000
,
2000
0000
0000
0000
,
3000
0000
0000
0000
,
0002
0000
0000
0000
,
0003
0000
0000
0000
,
1001
0000
0001
0000
,
0100
0000
0110
0000
,
1000
0000
0001
0000
,
0100
0000
0001
0000
,
1001
0000
1000
0000
,
0100
0000
0010
0000
,
0011
0000
0001
0000
,
0100
0000
0010
0000
,
1000
0000
0001
0000
,
0100
0000
0100
0000
,
0001
0000
1000
0000
,
0001
0000
0100
0000
,
0110
0000
0010
0000
,
1000
0000
0001
0000
,
0201
0000
0301
0000
,
1000
0000
0001
0000
,
1000
0000
0001
0100
,
0001
0000
1000
0000
,
1001
0000
1000
0010
,
1000
0000
0010
0000
,
1001
0000
0100
0001
,
1000
0000
0001
0010
,
0100
0000
1000
0000
,
0001
1000
0001
0000
,
0110
0000
0001
0000
,
1000
0100
1000
0010
,
1000
0000
0002
0000
,
0000
0003
0100
0000
,
0110
0000
0010
0000
,
0100
0001
0100
0001
,
0010
0000
0001
0000
,
1000
0000
0010
0000
,
0101
0000
0001
0000
,
1000
0001
1000
0001
,
0100
0000
0001
0000
,
0010
0000
0100
0000
,
1100
0000
1000
0000
,
0001
0100
0001
1000
,
0001
0000
1000
0000
,
0010
0000
0001
0000
,
0010
0000
1000
0000
,
0200
0000
0310
0000
,
0001
0000
1000
0000
,
0001
0000
1000
0000
,
1001
0000
0001
0000
,
0200
0000
0310
0000
,
1000
0000
1001
0000
,
0000
0000
0100
0000
,
1001
0000
0010
0000
,
1000
0000
0001
0000
,
0100
0000
0101
0000
,
0000
0000
0001
0000
,
1000
0000
0010
0000
,
1000
0100
1000
0000
,
0001
0100
0001
0000
,
1000
0010
1000
0000
,
1001
0000
1000
0000
,
0001
0100
0001
0100
,
0010
0000
1000
0000
,
0001
0000
0100
0000
,
0110
0000
0010
0000
,
1000
0000
0001
0000
,
2001
0000
3001
0000
,
0100
0000
0010
0000
,
0100
0000
0000
0000
;

//---------------dance-single - ----------------
#NOTEDATA:;
#CHARTNAME:;
#STEPSTYPE:dance-single;
#DESCRIPTION:;
#CHARTSTYLE:;
#DIFFICULTY:Medium;
#METER:7;
#RADARVALUES:0.295063,0.367459,0.163599,0.143149,0.000000,202.000000,186.000000,16.000000,14.000000,0.000000,0.000000,0.000000,0.000000,0.000000,0.295063,0.367459,0.163599,0.143149,0.000000,202.000000,186.000000,16.000000,14.000000,0.000000,0.000000,0.000000,0.000000,0.000000;
#CREDIT:;
#NOTES:
0000
0000
0000
0000
,
0000
0000
0000
0000
,
0000
0000
0000
0000
,
0000
0000
0000
0000
,
2000
0000
0000
0000
,
0000
0000
0000
0000
,
3002
0000
0000
0000
,
0000
0000
0000
0000
,
1003
0000
0000
0000
0001
0000
0100
0001
,
0000
0100
0110
0000
,
0010
0000
1000
0000
0001
0000
1000
0001
,
0000
0100
0110
0000
,
0001
0000
1000
0000
0100
0000
0010
0001
,
0000
1000
1001
0000
,
0001
0000
0100
0000
0100
0000
0010
0100
,
0000
0001
1001
0000
,
0201
0000
0000
0000
0301
0000
0000
1000
,
0000
0000
0000
0000
0001
0000
1000
0001
,
0000
0000
0000
0000
0010
0000
0000
0100
,
0000
1000
0001
0000
,
1100
0000
0000
0000
0001
0000
0000
0100
,
0000
0000
0000
0000
0001
0000
0100
0001
,
0000
0000
1000
0000
,
0010
0000
0000
0100
0000
0000
0002
0000
,
0000
0000
0003
0000
1000
0000
0000
0001
,
0000
1000
0000
0000
0001
0000
0000
0000
,
1001
0000
0000
0000
1000
0000
0000
0001
,
0000
1000
0000
0000
0001
0000
0000
0000
,
0100
0000
0010
0000
0100
0000
0000
0010
,
0000
0000
1000
0000
,
0001
0010
0100
0000
,
1000
0100
0010
0000
,
0001
0000
1000
0000
,
0001
0100
0010
1000
,
0002
0000
1003
0001
,
0100
0100
0001
1000
,
0001
0000
0000
1000
0000
0000
0000
0000
,
0010
0100
0010
1000
,
0020
0000
0230
0000
,
0301
1000
0001
1000
,
1010
0000
0000
1000
0000
0000
0000
0000
,
0001
0010
0100
1000
,
0001
0000
0000
0100
0000
0000
0020
0000
,
0000
0000
1030
0000
,
1001
0000
0000
1000
0000
0000
0000
0000
,
0001
1000
0010
0100
,
0002
0000
2003
0000
,
3010
0100
0010
0000
,
1000
0001
0100
0000
,
0020
0030
1001
0000
,
0110
0000
0010
0000
,
1000
0001
1001
0000
,
0100
0010
1010
0000
,
1000
0000
0001
0100
,
0001
0000
1001
0000
,
0100
0100
0010
0100
,
0001
0000
1000
0000
0001
0000
0000
1000
,
0000
0001
1000
0000
0001
0000
0000
0200
,
0000
0300
0010
0000
,
1000
0100
1000
0000
0000
0000
0000
0000
,
0001
0000
0110
1000
,
0002
0000
1003
0000
,
0001
0100
0010
0000
,
1000
0001
1000
0000
0001
0000
0000
0000
,
0101
0000
0001
0000
,
1000
0100
0010
0001
,
1000
0000
0001
0100
,
0020
0000
1030
0000
,
0001
0001
0100
0010
,
1000
0000
0001
0000
,
1000
0100
1000
0000
0100
0000
0000
1000
,
0000
0001
0000
0000
1000
0000
0000
0001
;

//---------------dance-single - ----------------
#NOTEDATA:;
#CHARTNAME:;
#STEPSTYPE:dance-single;
#DESCRIPTION:;
#CHARTSTYLE:;
#DIFFICULTY:Hard;
#METER:9;
#RADARVALUES:0.387087,0.440951,0.071575,0.255624,0.000000,265.000000,258.000000,7.000000,25.000000,0.000000,0.000000,0.000000,0.000000,0.000000,0.387087,0.440951,0.071575,0.255624,0.000000,265.000000,258.000000,7.000000,25.000000,0.000000,0.000000,0.000000,0.000000,0.000000;
#CREDIT:;
#NOTES:
// measure 0
0000
0000
0000
0000
,  // measure 1
0000
0000
0000
0000
,  // measure 2
0000
0000
0000
0000
,  // measure 3
0000
0000
0000
0000
,  // measure 4
2000
0000
0000
0000
,  // measure 5
0000
0000
0000
0000
,  // measure 6
3002
0000
0000
0000
,  // measure 7
0203
0000
0000
0300
,  // measure 8
1010
0000
1000
0000
0001
0000
0100
0001
,  // measure 9
0000
0000
0001
0000
1001
0000
0000
1000
,  // measure 10
0100
0000
0010
0000
0001
0000
0010
0100
,  // measure 11
0000
0000
1000
0000
1001
0000
0000
0001
,  // measure 12
0100
0000
0010
0000
1000
0000
0001
1000
,  // measure 13
0000
0000
1000
0000
1010
0000
0000
0100
,  // measure 14
0010
0000
0100
0000
0001
0000
1000
0010
,  // measure 15
0000
0000
0100
0000
0001
1000
0000
1000
,  // measure 16
0002
0000
0003
0000
0100
0000
0010
0100
,  // measure 17
0000
0000
0001
0000
1000
0000
1000
0010
,  // measure 18
0000
0000
0100
0000
0001
0000
0100
0001
,  // measure 19
0000
0000
0001
0000
1000
0000
0000
0100
,  // measure 20
0010
0000
0001
0000
1000
0000
0010
1000
,  // measure 21
0000
0000
0001
0000
0100
0000
0010
1000
,  // measure 22
0000
0000
0001
0000
0100
0000
0001
0100
,  // measure 23
0001
0000
0000
1000
0000
0000
0001
0000
,  // measure 24
1001
0000
0000
0000
1000
0100
0010
0001
,  // measure 25
1000
0002
0000
0000
0203
0000
0300
0000
,  // measure 26
0010
0000
0100
0000
0001
0010
0100
0010
,  // measure 27
0100
2000
0000
0000
3002
0000
0003
0000
,  // measure 28
0100
0000
0010
0000
0010
0000
1000
0001
,  // measure 29
0000
0000
0001
1000
0001
0000
1000
0000
,  // measure 30
0010
0000
0100
0000
,  // measure 31
0001
0000
0100
0000
0001
0100
0000
0001
,  // measure 32
0100
0000
0000
0002
0000
0000
0003
0000
,  // measure 33
1000
0001
0100
0010
,  // measure 34
1010
0000
0000
0000
0100
0010
0000
0100
,  // measure 35
0000
0000
0001
0000
1000
0001
0000
1000
,  // measure 36
0001
0000
0000
0200
0000
0000
0300
0000
,  // measure 37
0010
1000
0001
0100
,  // measure 38
0020
0000
2030
0000
,  // measure 39
3001
0000
0100
0001
0100
0000
0001
0000
,  // measure 40
0001
1000
0000
0020
0000
0000
0030
0000
,  // measure 41
1000
0100
0010
0001
,  // measure 42
1001
0000
0000
0200
0000
0000
0320
0000
,  // measure 43
0000
0030
1000
0001
,  // measure 44
0100
0001
0000
2000
0000
0000
3000
0000
,  // measure 45
0001
0010
0100
0010
,  // measure 46
0002
0000
0000
0000
1003
0000
0100
1000
,  // measure 47
0100
0000
1000
0000
0001
0100
0000
0001
,  // measure 48
0100
0001
1000
0000
0001
0000
0000
0000
,  // measure 49
0200
0000
0000
0000
0310
0100
0010
0100
,  // measure 50
0000
0001
1000
0000
0001
0000
0000
0100
,  // measure 51
0010
0000
1000
0000
0001
0100
0001
0000
,  // measure 52
1000
0010
0100
0010
0100
0000
0000
0000
,  // measure 53
0002
0000
0000
0000
1003
0001
1000
0001
,  // measure 54
0000
1000
0010
0000
0100
0000
0000
0000
,  // measure 55
0001
0100
0001
0000
1000
0100
0000
0100
,  // measure 56
1000
0000
0001
0000
0100
0000
0000
0020
,  // measure 57
0000
0000
1030
0000
0001
0000
0100
0020
,  // measure 58
0000
0030
1000
0000
,  // measure 59
0001
0100
0010
0000
1000
0000
0000
0000
,  // measure 60
0001
0100
0001
0100
0010
0000
1000
0000
,  // measure 61
0002
0000
0000
0000
1003
0100
1000
0010
,  // measure 62
0000
1000
0010
0000
1000
0000
0000
0000
,  // measure 63
0001
0000
0100
0010
0100
0001
0000
1000
,  // measure 64
0000
0001
1000
0000
0010
0000
0000
0000
,  // measure 65
0100
0001
1000
0010
,  // measure 66
0200
0000
0301
0001
,  // measure 67
2000
0000
0000
0000
3001
0100
0000
0001
,  // measure 68
0000
1000
0100
0000
0010
0000
0001
1000
,  // measure 69
0000
0001
0100
0000
0010
1000
0000
0001
,  // measure 70
0200
0000
0000
0000
0301
0000
0000
1000
,  // measure 71
0000
0001
1000
0001
0100
0010
0000
0100
;
