#VERSION:0.83;
#TITLE:Heart of dreams;
#SUBTITLE:;
#ARTIST:Yuko Asai;
#TITLETRANSLIT:;
#SUBTITLETRANSLIT:;
#ARTISTTRANSLIT:;
#GENRE:;
#ORIGIN:;
#CREDIT:;
#BANNER:;
#BACKGROUND:;
#PREVIEWVID:;
#JACKET:;
#CDIMAGE:;
#DISCIMAGE:;
#LYRICSPATH:;
#CDTITLE:;
#MUSIC:Yuko Asai - Heart-of-dreams.ogg;
#OFFSET:-0.424000;
#SAMPLESTART:53.111000;
#SAMPLELENGTH:17.100000;
#SELECTABLE:YES;
#BPMS:0.000=112.000;
#STOPS:;
#DELAYS:;
#WARPS:;
#TIMESIGNATURES:0.000=4=4;
#TICKCOUNTS:0.000=4;
#COMBOS:0.000=1;
#SPEEDS:0.000=1.000=0.000=0;
#SCROLLS:0.000=1.000;
#FAKES:;
#LABELS:0.000=Song Start;
#BGCHANGES:;
#KEYSOUNDS:;
#ATTACKS:
;

//---------------dance-single - ----------------
#NOTEDATA:;
#CHARTNAME:;
#STEPSTYPE:dance-single;
#DESCRIPTION:;
#CHARTSTYLE:;
#DIFFICULTY:Beginner;
#METER:1;
#RADARVALUES:0.054526,0.087923,0.000000,0.027263,0.000000,42.000000,42.000000,0.000000,3.000000,0.000000,0.000000,0.000000,0.000000,0.000000,0.054526,0.087923,0.000000,0.027263,0.000000,42.000000,42.000000,0.000000,3.000000,0.000000,0.000000,0.000000,0.000000,0.000000;
#CREDIT:;
#NOTES:
0000
0000
0000
0000
,
0000
0000
0000
0000
,
0000
0000
0000
0000
,
0000
0000
0000
0000
,
0000
0000
0000
0000
,
0000
0000
0000
0000
,
0000
0000
0000
0000
,
0000
0000
0000
0000
,
0000
0000
0000
0000
,
1000
0000
0000
0000
,
0001
0000
1000
0000
,
0001
0000
0000
0000
,
1000
0000
0001
0000
,
1000
0000
0000
0000
,
0001
0000
0010
0000
,
0001
0000
0000
0000
,
0100
0000
0000
0000
,
0200
0000
0000
0000
0000
0000
0000
0300
,
0000
0000
0000
0000
,
0020
0000
0000
0000
0000
0000
0000
0030
,
0000
0000
0000
0000
,
1000
0000
0000
0000
,
1000
0000
0000
0000
,
0001
0000
0000
0000
,
0001
0000
0000
0000
,
0000
0100
0000
0000
,
0000
0000
0000
0000
,
0010
0000
0000
0000
,
0010
0000
0000
0000
,
0000
1000
0000
0000
,
0000
0001
0000
0000
,
1000
0000
0000
0000
,
0010
0000
0000
0000
,
0000
1000
0000
0000
,
0000
0001
0000
0000
,
0010
0000
0000
0000
,
0010
0000
0000
0000
,
0000
1000
0000
0000
,
0000
0001
0000
0000
,
0100
0000
0000
0000
,
0001
0000
0000
0000
,
0100
0000
0100
0000
,
0100
0000
0000
0000
,
0001
0000
0001
0000
,
0001
0000
0000
0000
,
0001
0000
0000
0000
,
1000
0000
0000
0000
,
1000
0000
0000
0000
,
0020
0000
0000
0030
0000
0000
0000
0000
;

//---------------dance-single - from pop n music 18----------------
#NOTEDATA:;
#CHARTNAME:;
#STEPSTYPE:dance-single;
#DESCRIPTION:from pop n music 18;
#CHARTSTYLE:;
#DIFFICULTY:Easy;
#METER:2;
#RADARVALUES:0.092175,0.131885,0.027263,0.018175,0.000000,71.000000,68.000000,3.000000,2.000000,0.000000,0.000000,0.000000,0.000000,0.000000,0.092175,0.131885,0.027263,0.018175,0.000000,71.000000,68.000000,3.000000,2.000000,0.000000,0.000000,0.000000,0.000000,0.000000;
#CREDIT:;
#NOTES:
0000
0000
0000
0000
,
0000
0000
0000
0000
,
0100
0000
0100
0000
,
0100
0000
0000
0000
,
0010
0000
0010
0000
,
0010
0000
0000
0000
,
1000
0000
0001
0000
,
1000
0000
0000
0000
,
0000
0000
0000
0000
,
0001
0000
0000
0000
,
0001
0000
0010
0000
,
0100
0000
0010
0000
,
0100
0000
0001
0000
,
1000
0000
0000
0000
,
0010
0000
0100
0000
,
0010
0000
0100
0000
,
0001
0000
0000
0000
2000
0000
0000
3000
,
0001
0000
0001
0000
,
0000
0000
1000
0000
,
1000
0000
0000
0000
,
0000
0000
0001
0000
,
0001
0000
0000
1000
,
0000
0000
0001
0000
,
0100
0000
0000
0100
,
0000
0000
0000
0000
,
0010
0000
0010
0000
,
0100
0000
0010
0000
,
0110
0000
0000
0000
,
0100
0000
0010
0000
,
0100
0000
0000
0000
,
0001
0000
0100
0000
,
0001
0000
0000
0000
,
0100
0000
0000
0000
,
0010
0000
0010
0000
,
0100
0000
0000
0000
,
0100
0000
0010
0000
,
0010
0000
0000
0000
,
0110
0000
0000
0000
,
0100
0000
0001
0000
,
1000
0000
1000
0000
,
0001
0000
0000
0000
,
0001
0000
0000
0000
,
0100
0000
0000
0000
,
0110
0000
0000
0000
,
0100
0000
0000
0000
,
0010
0000
0010
0000
,
0100
0000
0100
0000
,
0001
0000
1000
0000
,
0002
0000
0000
0003
0000
0000
0000
0000
;

//---------------dance-single - from pop n music 18----------------
#NOTEDATA:;
#CHARTNAME:;
#STEPSTYPE:dance-single;
#DESCRIPTION:from pop n music 18;
#CHARTSTYLE:;
#DIFFICULTY:Medium;
#METER:6;
#RADARVALUES:0.229789,0.244913,0.127228,0.027263,0.000000,177.000000,163.000000,14.000000,3.000000,0.000000,0.000000,0.000000,0.000000,0.000000,0.229789,0.244913,0.127228,0.027263,0.000000,177.000000,163.000000,14.000000,3.000000,0.000000,0.000000,0.000000,0.000000,0.000000;
#CREDIT:;
#NOTES:
0000
0000
0000
0000
,
0000
0000
0000
0000
,
0100
0010
0100
0001
,
0100
0000
0000
0001
0000
0000
1000
0000
,
0001
0100
0010
0010
,
0100
0000
0000
0010
0000
0000
1000
0000
,
0001
0001
0010
0100
,
0010
0000
0000
0002
0000
0000
0000
0000
,
0000
0003
2000
3000
,
0001
0000
0100
0000
0010
0100
0010
0000
,
0001
0000
1000
0100
0000
0100
0000
1000
,
0000
0100
0000
1000
0000
0010
0000
0001
,
0000
0100
0000
0001
0000
0000
0000
0000
,
1001
0000
0100
0010
0100
0000
0000
0000
,
0010
0000
0010
0100
0000
0100
0000
0001
,
0000
0100
0000
0001
0000
0010
0000
1000
,
0000
0000
0000
0001
,
1000
0000
1000
0000
0001
1000
0001
0000
,
1000
0100
0010
0001
,
1000
0000
1000
0000
0001
0100
0001
0000
,
1000
0100
0010
0001
,
1000
0001
1000
0000
0001
0000
0100
0010
,
0100
0001
0010
0100
,
0100
1000
0000
0110
,
0000
0000
0000
0010
,
0000
0110
0010
0010
,
0110
0000
0000
0110
0000
0000
0000
0000
,
0100
0001
0010
0100
,
1000
0000
0000
0001
0000
0000
0100
0000
,
0000
0110
0100
0100
,
0110
0000
0000
0110
0000
0000
0000
0000
,
0010
1000
0100
0010
,
0001
0000
0000
1000
0000
0000
0010
0000
,
0000
1001
0001
0001
,
1001
0000
0000
1100
0000
0000
0000
0000
,
1000
0100
0010
0100
,
0010
0000
0000
0100
0000
0000
0001
0000
,
0000
1001
1000
1000
,
1001
0000
0000
0011
0000
0000
0000
0000
,
0001
0010
0100
0010
,
0100
0000
0000
0010
0000
0000
0000
0000
,
0001
0001
1000
1000
,
0010
0100
0010
0100
0000
0000
0100
0010
,
0100
0001
1000
0001
,
1000
0000
0000
0001
0000
0000
1000
0000
,
1000
0001
0001
1000
,
0010
0100
0010
0100
0000
0000
0010
0100
,
0010
1000
0001
0100
,
0001
0000
0000
0002
0000
0000
0000
0000
,
0003
0000
0000
0000
;

//---------------dance-single - ----------------
#NOTEDATA:;
#CHARTNAME:;
#STEPSTYPE:dance-single;
#DESCRIPTION:;
#CHARTSTYLE:;
#DIFFICULTY:Hard;
#METER:9;
#RADARVALUES:0.359613,0.395655,0.054526,0.099965,0.068158,277.000000,271.000000,6.000000,11.000000,0.000000,0.000000,0.000000,0.000000,0.000000,0.359613,0.395655,0.054526,0.099965,0.068158,277.000000,271.000000,6.000000,11.000000,0.000000,0.000000,0.000000,0.000000,0.000000;
#CREDIT:;
#NOTES:
// measure 0
0000
0000
0000
0000
,  // measure 1
0000
0000
0000
0000
,  // measure 2
0110
0100
0010
0100
,  // measure 3
0010
0100
0010
0100
0000
0010
0100
0000
,  // measure 4
1001
1000
0100
0010
,  // measure 5
0001
1000
0001
1000
0000
0001
0100
0000
,  // measure 6
0011
0001
0010
0100
,  // measure 7
1000
0001
1000
0001
0000
0000
0000
0000
,  // measure 8
0200
0000
0000
0300
,  // measure 9
0010
0000
0100
0000
0010
0000
0100
0010
0000
0000
0010
0000
1000
0000
0100
0000
,  // measure 10
0010
0100
1000
0001
0000
1000
1000
0001
,  // measure 11
0000
1000
1000
0010
0000
0100
0000
0001
,  // measure 12
0010
0100
1000
0010
0100
0010
0100
0001
,  // measure 13
0010
0000
0100
0000
1000
0000
0001
0100
0000
0000
0001
0000
0000
0000
1000
0000
,  // measure 14
0100
0010
0001
1000
0000
1000
0001
1000
,  // measure 15
0000
0001
1000
0010
0000
0010
0000
0200
,  // measure 16
0000
0000
0310
0100
,  // measure 17
0001
1000
0010
0000
0100
0010
0000
0100
,  // measure 18
0010
0000
0100
0000
0010
0000
0000
0100
0000
0000
0001
0000
0100
0000
0010
0000
,  // measure 19
2000
0010
0010
3100
,  // measure 20
0100
1000
0100
0010
0001
0010
0001
1000
,  // measure 21
0001
0100
0010
0100
0000
0001
1000
0010
,  // measure 22
0100
0001
0000
0001
1000
0010
0100
0010
,  // measure 23
1000
0000
0001
0001
0000
1000
1000
0000
,  // measure 24
0000
0000
0000
0000
0010
0000
0000
0000
0000
0000
0100
0000
0010
0000
0000
0200
,  // measure 25
0000
0000
0001
0000
0301
1000
0010
0200
,  // measure 26
0000
0000
0301
0000
1000
0000
0001
0000
0000
1000
0001
0000
0000
0000
0000
0000
,  // measure 27
1000
0000
0001
0000
1000
0000
0100
1000
0000
0000
0001
0000
0100
0000
0001
0000
,  // measure 28
0010
0000
0001
0000
0100
0000
0010
0000
0000
0000
0010
0000
0100
0000
0000
0020
,  // measure 29
0000
0000
1000
0000
1030
0100
0010
0100
,  // measure 30
0000
0000
1000
0000
0100
0000
0010
0000
0000
0001
1000
0000
0000
0000
0001
1000
,  // measure 31
0001
1000
0001
1000
0010
1000
0001
1000
,  // measure 32
0010
0000
0100
0000
0001
0000
0100
0000
0000
0000
0001
0000
0100
0000
0000
0002
,  // measure 33
0000
0000
0010
0000
0013
0001
1000
0010
,  // measure 34
0001
0000
0010
0000
1000
0000
0001
0000
0000
1000
0001
0000
0000
0000
0000
0000
,  // measure 35
1000
0000
0010
0000
0010
0000
0100
0001
0000
0000
0010
0000
0100
0000
1000
0000
,  // measure 36
0001
0000
1000
0000
0001
0000
0100
0000
0000
0000
0010
0000
0100
0000
0000
0020
,  // measure 37
0000
0000
1000
0000
0130
0001
0010
0200
,  // measure 38
0000
0000
1300
0000
0100
0000
1000
0000
0000
0000
0001
0000
0000
0000
1000
0001
,  // measure 39
1000
0001
0010
0001
0010
0010
0100
0100
,  // measure 40
1000
1000
0001
1001
0000
0100
0010
0200
,  // measure 41
0000
0001
0010
0001
,  // measure 42
0301
0000
1000
1001
0000
0001
0000
2000
,  // measure 43
0000
0100
0010
0100
,  // measure 44
3100
0000
0010
0001
0000
1000
0010
0010
,  // measure 45
1000
0000
0001
0010
0001
1000
0100
1000
,  // measure 46
0000
0001
1000
0001
1000
0010
0100
0000
,  // measure 47
0001
0000
0100
0000
0010
0000
0001
0000
0010
0000
0000
0000
0100
0010
0100
0000
,  // measure 48
0010
0000
0100
0110
0000
0000
0000
0000
;
