#VERSION:0.83;
#TITLE:背徳と邪悪のエピタフ;
#SUBTITLE:;
#ARTIST:96 vs Vivian;
#TITLETRANSLIT:Haitoku to jaaku no epitaph;
#SUBTITLETRANSLIT:;
#ARTISTTRANSLIT:;
#GENRE:NIGHTMARE METAL;
#ORIGIN:;
#CREDIT:from pop n music 21 Sunny Park;
#BANNER:20140730054158!SP_NIGHTMARE_METAL.png;
#BACKGROUND:;
#PREVIEWVID:;
#JACKET:;
#CDIMAGE:;
#DISCIMAGE:;
#LYRICSPATH:;
#CDTITLE:;
#MUSIC:Haitoku_to_jaaku_no_epitaph-[].ogg;
#OFFSET:-0.020000;
#SAMPLESTART:45.784000;
#SAMPLELENGTH:18.000000;
#SELECTABLE:YES;
#BPMS:0.000=133.000,
15.000=125.000,
18.000=105.000,
20.000=100.000,
21.500=96.000,
22.000=95.000,
27.500=189.922,
28.000=190.032;
#STOPS:;
#DELAYS:;
#WARPS:;
#TIMESIGNATURES:0.000=4=4;
#TICKCOUNTS:0.000=4;
#COMBOS:0.000=1;
#SPEEDS:0.000=1.000=0.000=0;
#SCROLLS:0.000=1.000;
#FAKES:;
#LABELS:0.000=Song Start;
#BGCHANGES:;
#KEYSOUNDS:;
#ATTACKS:
;

//---------------dance-single - ----------------
#NOTEDATA:;
#CHARTNAME:;
#STEPSTYPE:dance-single;
#DESCRIPTION:;
#CHARTSTYLE:;
#DIFFICULTY:Beginner;
#METER:4;
#RADARVALUES:0.202510,0.293922,0.168522,0.128870,0.000000,143.000000,126.000000,17.000000,13.000000,0.000000,0.000000,0.000000,0.000000,0.000000,0.202510,0.293922,0.168522,0.128870,0.000000,143.000000,126.000000,17.000000,13.000000,0.000000,0.000000,0.000000,0.000000,0.000000;
#CREDIT:;
#NOTES:
0000
0000
0000
0000
,
0000
0000
0000
0000
,
0000
0000
0000
0000
,
0000
0000
0000
1000
,
0000
0000
0000
1000
,
0000
0000
1000
1000
,
0000
0000
0000
0000
,
0000
0000
0000
0000
,
0001
0000
0100
0000
,
0010
0000
1000
0000
,
0001
0000
1000
0000
,
0010
0000
0010
0000
,
0101
0000
1000
0000
,
0001
0000
0100
0000
,
0001
0000
1000
0000
,
0010
0000
0010
0000
,
0100
0000
0001
0000
,
1000
0000
0001
0100
,
0001
0000
1000
0000
,
0010
0000
0010
1000
,
0010
0000
0100
0000
,
0001
0000
0001
0100
,
0001
0000
1000
0000
,
0010
0000
0100
0001
,
0100
0000
0010
0000
,
0010
0000
0100
0100
,
0100
0010
0010
0000
,
1000
0000
0001
1000
,
0001
1000
0001
0000
,
0100
0000
0010
0100
,
0010
0100
0001
0000
,
1000
0000
0001
0010
,
0001
0010
0001
0000
,
0000
0000
1001
0000
,
1001
0000
0000
0100
,
0000
0000
0110
0000
,
0110
0000
0000
0000
,
0001
0000
0011
0000
,
0011
0000
0000
0000
,
0001
0000
0000
0000
,
1000
0000
0000
0000
,
2002
0000
0000
3003
,
0001
0000
0000
0000
,
0202
0000
0000
0303
,
0001
0000
2000
0000
,
3000
0000
0001
0000
,
0002
0000
0003
0000
,
0100
0000
0100
0000
,
0001
0100
0001
0000
,
1000
0010
1000
0000
,
0001
0001
0001
0000
,
2000
0000
0000
3000
,
0001
0000
0101
0000
,
0101
0000
0000
0000
,
0002
0000
0000
0003
,
1000
0000
1000
0000
,
0100
0000
0010
0000
,
0001
0000
0000
0000
,
1000
0000
0010
0000
,
0100
0000
0001
0000
,
0200
0000
0000
0300
,
0010
0000
0010
0000
,
0100
0000
0001
0000
,
2000
0000
0000
3000
,
0002
0000
0000
0003
,
0200
0000
0000
0300
,
0010
0000
0000
0000
,
0110
0000
0000
0000
,
1001
0000
0001
0000
,
1000
0000
0000
0000
,
0000
0000
0000
0000
,
0101
0000
0000
0000
,
0101
0000
0101
0000
,
0101
0000
2000
0000
,
0000
3000
0000
0000
0000
0000
0000
0000
;

//---------------dance-single - ----------------
#NOTEDATA:;
#CHARTNAME:;
#STEPSTYPE:dance-single;
#DESCRIPTION:;
#CHARTSTYLE:;
#DIFFICULTY:Easy;
#METER:9;
#RADARVALUES:0.423429,0.509160,0.277566,0.257740,0.000000,299.000000,271.000000,28.000000,26.000000,0.000000,0.000000,0.000000,0.000000,0.000000,0.423429,0.509160,0.277566,0.257740,0.000000,299.000000,271.000000,28.000000,26.000000,0.000000,0.000000,0.000000,0.000000,0.000000;
#CREDIT:;
#NOTES:
// measure 0
0000
0000
0000
0000
,  // measure 1
0000
0000
0000
1000
,  // measure 2
1000
0000
0001
0000
,  // measure 3
1001
0000
1000
1100
,  // measure 4
0000
0000
0100
1000
0100
0000
1000
0000
,  // measure 5
0001
0100
1000
0100
,  // measure 6
0010
0002
0000
0000
,  // measure 7
0000
0000
0003
0000
,  // measure 8
0001
1000
0100
0010
,  // measure 9
0001
0000
1000
0000
1000
0001
1000
0000
,  // measure 10
0001
0010
0100
1000
,  // measure 11
0001
0000
0001
0000
1000
0000
0001
0010
,  // measure 12
0001
0100
0010
1000
,  // measure 13
0001
0100
0110
1001
,  // measure 14
0110
0001
1000
0100
,  // measure 15
0010
0100
1000
0001
,  // measure 16
0101
0200
0000
0310
,  // measure 17
1000
0000
0010
0000
0100
0001
0100
0000
,  // measure 18
0001
2000
0000
3010
,  // measure 19
0100
0000
0001
0000
1000
0001
1000
0000
,  // measure 20
0010
0200
0000
0301
,  // measure 21
0001
0000
1000
0000
0001
1000
0010
0000
,  // measure 22
0100
0020
0000
1030
,  // measure 23
0001
1000
0010
0110
,  // measure 24
0110
0200
0010
0310
,  // measure 25
0000
0000
0100
0000
0010
0100
0010
0000
,  // measure 26
0100
0001
0200
0000
0000
0000
0310
0000
,  // measure 27
0000
0000
1000
0000
0001
1000
0010
0000
,  // measure 28
0100
0010
2000
0000
0000
0000
3001
0000
,  // measure 29
0000
0000
0100
0000
0001
1000
0001
0000
,  // measure 30
1000
0100
2000
0000
0000
0000
3001
0000
,  // measure 31
0000
0000
0100
0000
0001
0100
0001
0100
,  // measure 32
0001
0000
0000
0101
0000
0101
0000
1010
,  // measure 33
0000
0001
1000
0001
,  // measure 34
0101
0000
0000
1010
0000
1010
0000
0101
,  // measure 35
0000
0001
0100
0010
,  // measure 36
0110
0000
0000
0100
0000
0010
0000
1000
,  // measure 37
0000
0001
1000
0001
,  // measure 38
1001
0000
0000
1001
0000
0110
0000
1001
,  // measure 39
0000
0100
0010
0010
,  // measure 40
1010
0000
0000
0000
0000
0000
0001
1000
,  // measure 41
0002
0000
1000
0003
,  // measure 42
0001
0100
0000
0000
0000
0000
0100
0001
,  // measure 43
0200
0000
0002
0303
,  // measure 44
0001
0100
0010
1000
,  // measure 45
1001
0001
0100
0010
,  // measure 46
0100
0010
0100
0000
0010
1000
0010
0000
,  // measure 47
0100
0001
0100
0001
0100
0000
0001
0000
,  // measure 48
2000
0000
3002
0000
,  // measure 49
1003
0010
1000
0000
0001
0100
0001
0000
,  // measure 50
0200
0000
0302
0000
,  // measure 51
1003
0010
0101
0000
,  // measure 52
0001
0010
0101
1000
,  // measure 53
0110
0100
0001
1000
,  // measure 54
0002
0000
2000
0003
,  // measure 55
3010
0100
0100
0010
,  // measure 56
0100
0000
0001
0100
0001
0000
0100
0001
,  // measure 57
0100
0000
0001
1000
0001
0000
1000
0100
,  // measure 58
0010
0000
0001
1000
0100
0000
1000
0100
,  // measure 59
0010
0000
0001
0010
0100
0000
1000
0000
,  // measure 60
2200
0000
3300
0000
,  // measure 61
0010
0001
0010
0001
,  // measure 62
0200
0320
2030
0000
,  // measure 63
3001
0100
0001
0100
,  // measure 64
0002
0100
0100
0103
,  // measure 65
0020
0000
0000
0030
,  // measure 66
1000
0000
0000
0100
0000
0000
0010
0000
,  // measure 67
0001
1000
0001
0000
1000
0100
0010
0000
,  // measure 68
0001
0010
0001
0100
0001
0000
1000
0100
,  // measure 69
2000
0000
0000
0000
,  // measure 70
0000
3000
0000
0000
,  // measure 71
0101
0000
0000
0101
0000
0001
0000
0100
,  // measure 72
0001
0000
1000
0010
0100
0001
0100
0000
,  // measure 73
0001
0100
0001
0100
0000
0000
0000
0000
;

//---------------dance-single - ----------------
#NOTEDATA:;
#CHARTNAME:;
#STEPSTYPE:dance-single;
#DESCRIPTION:;
#CHARTSTYLE:;
#DIFFICULTY:Medium;
#METER:12;
#RADARVALUES:0.608945,0.623532,0.257740,0.346957,0.000000,430.000000,404.000000,26.000000,35.000000,0.000000,0.000000,0.000000,0.000000,0.000000,0.608945,0.623532,0.257740,0.346957,0.000000,430.000000,404.000000,26.000000,35.000000,0.000000,0.000000,0.000000,0.000000,0.000000;
#CREDIT:;
#NOTES:
0000
0000
0000
0000
,
0000
0000
0000
0000
,
0000
0000
0000
0000
,
0000
0000
0000
2000
,
0000
3200
0000
0320
,
0000
0031
2001
3002
,
0000
0000
0000
0000
,
0003
0000
0000
0000
,
0100
0010
0110
1000
,
1001
0010
0001
1000
,
0100
0010
0001
0100
0010
0000
0100
0010
,
0100
0001
1000
0001
1000
1000
0001
0000
,
0110
0000
0010
1000
0100
0010
0100
0010
,
0001
0000
0001
0010
0100
0010
0100
1000
,
1001
0000
0001
0010
0001
0000
0100
0010
,
1000
0000
0001
0100
0001
0200
0000
0300
,
0001
0010
0002
0000
0103
0010
0100
0010
,
0000
0100
0010
1000
0001
0100
0010
0100
,
0001
1000
0002
0000
1003
0010
1000
0010
,
0000
0010
1000
0100
0001
0100
1000
0001
,
0100
0010
0200
0000
0310
0100
0010
0100
,
0000
0010
1000
1000
0001
0100
0010
0100
,
0001
1000
0020
0000
1030
0100
1000
0100
,
0000
0100
1000
0100
0010
0002
0000
0003
,
1000
0100
1000
0100
0010
0001
0010
0001
,
0000
0001
0010
0100
1000
0010
0100
0000
,
0010
1000
0010
0100
0001
1000
0100
1000
,
0000
0100
0010
0100
1000
0001
0010
0001
,
0100
0010
0100
0010
0100
0010
0100
0100
,
0000
0010
1000
0100
1000
0100
0010
0100
,
1000
0100
0010
0100
1000
0100
0010
0001
,
0000
1000
0001
1000
0001
0100
0010
0100
,
0110
0000
0100
0110
0000
0101
0000
1010
,
0000
0010
1000
0000
0100
0010
0001
0000
,
1001
0001
0100
0010
1000
0100
0000
0011
,
0000
0001
0010
0001
0110
0000
0101
0000
,
0100
0001
0100
0010
0000
0110
0000
0011
,
0000
1000
0001
0000
0101
0000
1010
0000
,
1000
0010
0100
0010
0100
0001
0010
1000
,
0010
0001
1000
0000
0001
0100
0010
0100
,
0110
0000
0110
0000
0100
0010
1000
0010
,
2000
3100
0020
0031
1000
0001
1000
0001
,
0100
0101
0000
0000
0001
1000
0010
0100
,
0220
0000
0330
0000
0002
0000
1003
0010
,
0100
0010
1000
0001
0201
0000
0301
0010
,
0001
1000
0100
0010
0001
0001
1000
0010
,
0200
0310
0100
0010
0200
0310
1000
0001
,
2000
3010
0100
0001
0010
0100
0010
0001
,
2000
0000
3001
0100
,
0010
0100
1000
0000
0100
0001
0100
0000
,
0010
1000
0100
0000
0100
0010
0001
0000
,
0001
1000
0100
0001
0100
1000
0100
0010
,
0002
0000
2003
0000
3020
0000
0130
0010
,
0100
0000
0010
0100
0010
0000
1000
0010
,
1000
0000
0001
0100
0001
0000
1000
0010
,
0200
0000
0301
0010
0100
0010
0001
0000
,
2000
0100
0000
0010
0000
0001
3000
0010
,
0100
0020
0000
1000
0000
0100
0030
1000
,
0200
0010
0000
0001
0000
0010
0300
0001
,
0100
0020
0000
1000
0000
0100
0030
0001
,
1000
0010
0100
0001
1000
0100
0010
0001
,
0100
0010
0100
0000
0001
1000
0001
1000
,
0010
0100
0020
0000
1030
0100
1000
0000
,
0001
0100
0001
0000
0200
0000
0010
0000
,
0320
0000
0000
0000
1000
0000
1030
0001
,
0100
0001
1000
0001
0100
0000
0010
0000
,
0110
0000
0100
0010
0000
0010
1000
0001
,
0100
0001
0001
0000
1000
0100
0010
0100
,
0010
0000
0002
0000
0103
0010
0100
0010
,
0200
0000
0000
0000
,
0000
0300
0000
0000
,
0110
0000
0001
1000
0000
1001
0000
0100
,
0010
0000
0100
0000
0101
0000
0001
0010
,
0100
1000
0001
2000
0000
0000
0000
0000
,
3000
0000
0000
0000
;

//---------------dance-single - ----------------
#NOTEDATA:;
#CHARTNAME:;
#STEPSTYPE:dance-single;
#DESCRIPTION:;
#CHARTSTYLE:;
#DIFFICULTY:Hard;
#METER:17;
#RADARVALUES:1.013965,1.104067,0.426262,0.307305,0.802958,716.000000,673.000000,43.000000,31.000000,0.000000,0.000000,0.000000,0.000000,0.000000,1.013965,1.104067,0.426262,0.307305,0.802958,716.000000,673.000000,43.000000,31.000000,0.000000,0.000000,0.000000,0.000000,0.000000;
#CREDIT:;
#NOTES:
0000
0000
0000
0000
,
0000
0000
0000
0000
,
0200
0000
0000
0010
0300
0000
0010
0000
1000
0000
0001
0000
1001
0000
0100
0000
,
0020
0000
0000
0100
0030
0000
0100
0000
0001
0000
0010
0000
0100
0000
1000
0000
,
0100
0010
0001
1000
0010
0100
2000
0000
,
3100
0010
0011
0001
1100
0100
0020
0000
,
0000
0000
0000
0000
,
0000
0000
0030
0000
,
0001
0000
1000
0100
1000
0000
0010
0100
0010
0000
0100
0000
0001
0000
0001
0000
,
0100
0000
0010
0000
0010
0000
1000
0000
1000
0000
0001
0000
0001
0000
0100
0010
,
0100
0000
0010
0100
0010
0000
1000
0100
0010
0000
0100
0010
0001
0000
1000
0100
,
1000
0000
0001
0000
0001
0000
0010
0000
0010
0000
0100
0000
0100
0000
1000
0100
,
1000
0001
0011
0100
1100
0000
0100
0010
,
0011
0000
0001
0010
0100
0000
1000
0100
0010
0000
0010
0001
0100
0000
0001
0000
,
1001
0100
0101
0000
0010
0100
1001
0100
,
0010
0000
0100
0010
0100
0000
0001
0000
0001
0010
0200
0000
0000
0000
0000
0000
,
1300
0000
0100
0010
0100
0000
0010
0000
0001
0000
1000
0010
0100
0000
0010
0000
,
1000
0000
0001
0000
0001
0000
0100
0010
0100
0010
0100
0000
0010
0000
0100
0000
,
0001
0100
0010
0000
0100
0000
0010
0000
0001
0000
0010
0000
0100
0000
0001
0100
,
0001
0000
1000
0000
1000
0000
0010
0000
0100
0010
0100
0000
0001
0000
0001
0000
,
1000
0010
0100
0010
0100
0000
0001
0000
1000
0000
1100
0000
0010
0000
0011
0000
,
0000
0000
0001
0000
1000
0000
0010
0000
0100
0010
1000
0010
0100
0000
0001
0000
,
0100
0001
0100
0000
0001
0000
1000
0000
0100
0000
0010
0000
0001
0000
1100
0000
,
1100
0000
0010
0000
0001
0000
0100
0000
0001
0000
2000
0000
0000
0000
3001
0100
,
0001
0000
0100
0000
0010
0000
0100
0000
0001
1000
0001
0000
0100
0000
0010
0000
,
0100
0000
0001
0000
0001
0000
1000
0000
0100
1000
0010
0000
0100
0000
0010
0100
,
0010
0100
0010
0000
0100
0000
0001
0000
0010
0001
0010
0000
0001
0000
1000
0000
,
1100
0000
0010
0000
0011
0000
1000
0000
0100
0010
0001
0000
0010
0000
0001
0010
,
0100
1000
0100
0000
0010
0000
0001
0010
0001
0000
1000
0000
0100
0000
0001
0000
,
0100
0000
1000
0000
0010
0000
0100
0000
0010
0100
0001
0000
0010
0000
0010
0000
,
0010
0100
1000
0000
0001
0100
0001
0000
0200
0000
0010
0000
0310
0000
0200
0000
,
0001
0301
2000
0010
3001
0100
0001
1001
,
0101
0000
0000
0000
0100
0000
0010
1000
0010
0000
0100
0001
0100
0000
0011
0000
,
0010
0001
1000
0010
0110
0100
0020
0000
,
1030
0000
0100
1000
0100
0000
0010
0001
0010
0000
0100
1000
0100
0000
0010
0000
,
0011
0100
0010
0001
0100
0010
0200
0000
,
0310
0000
0100
0010
0100
0000
0001
1000
0001
0000
0100
0010
1000
0000
0001
0100
,
0001
0000
1000
0000
0010
0100
0010
0100
0001
0000
1000
0000
0100
1000
0100
0010
,
0001
0000
0100
0010
0100
0010
0100
0001
1000
0000
1010
0000
0000
0000
0101
0000
,
0010
0000
0000
0000
0001
0100
0010
0100
0001
0000
1000
0000
0010
1000
0010
0100
,
0010
0110
0000
0000
0010
0000
0100
0010
,
1000
0100
1000
0000
0001
0010
0001
0000
1000
0100
0010
0000
0001
0100
0001
0000
,
1000
1001
0000
0000
0100
0010
0100
0010
,
2002
0000
0000
3003
0200
0000
0310
0000
,
0001
0010
0001
0000
1000
0000
0100
0010
0002
0000
0000
0000
0103
0000
0010
0000
,
1000
0100
1000
0000
0001
0010
0001
0000
2000
0000
0010
0000
3010
0000
0000
0000
,
0110
0110
0101
0101
1000
0010
1000
0001
,
0100
0000
0001
0100
0010
0000
0100
0001
0010
0001
1000
0001
1000
0001
0100
0000
,
0010
0000
1000
0001
1000
0000
0010
0100
0001
0000
0010
0001
0010
0000
0001
0000
,
1000
0100
0010
0100
1000
0100
0010
0001
1000
0001
0100
0010
1000
0010
0100
0001
,
0100
0000
0001
0100
0010
0100
0010
0000
0100
0010
0100
0010
1000
0000
0010
0100
,
0001
0000
1000
0100
0010
0001
1000
0100
0010
0000
0001
0000
0101
0000
0010
0000
,
0101
0000
0001
0000
1000
0010
0100
0010
2000
0000
3001
0000
0100
0000
0010
0000
,
0020
0000
1030
0010
0100
0010
1000
0000
0001
0100
0010
0100
0001
0000
0000
0000
,
2000
0000
3100
0000
0100
0000
0010
0001
0020
0000
0031
0000
1000
0000
0010
0100
,
0020
0000
1030
0000
1000
0000
0001
0100
0001
0000
2000
0000
3002
0000
0103
0000
,
0100
0000
0001
0100
0010
0100
0001
1000
0010
0000
1000
0010
0100
0010
1000
0001
,
0100
0000
0001
0010
0100
0010
0001
1000
0010
0000
1000
0100
0010
0001
0100
0010
,
0100
0000
0001
0010
0001
0010
0100
1000
0001
0000
0001
0100
0010
1000
0100
0010
,
0001
0000
0100
0010
1000
0100
1000
0100
1000
0000
0010
0100
0010
0000
0100
0000
,
0110
0000
1000
0100
0010
0100
1000
0010
0100
0001
1000
0001
1000
0001
1000
0010
,
0100
0000
0001
0000
0001
0000
0100
0001
0100
0000
0010
0000
1000
0000
0010
1000
,
0010
0000
0100
0000
0010
0100
0010
1000
0001
0000
1000
0000
0001
0100
0001
0100
,
0001
0000
0100
0000
0010
1000
0100
0010
0001
0000
0010
0000
0100
1000
0010
0100
,
0001
1000
0100
1000
0100
0010
0001
0010
0001
0010
0001
1000
0100
0010
0001
0100
,
0020
0100
0031
0100
,
0101
0000
0101
0000
0110
0000
0110
0000
0110
0000
1100
0000
1100
0000
0010
0100
,
0010
0000
0001
0000
1000
0100
0010
0100
0010
0000
0001
0010
0001
0010
0100
0000
,
1000
0010
0100
0001
0101
0010
0110
0100
,
0020
0000
0200
0300
,
0230
0302
0203
0300
,
0010
0100
0010
0100
0001
0000
1000
0001
0100
0000
0001
0100
0010
0000
0100
0000
,
0110
0000
0001
0000
0100
0001
0100
0010
0100
0000
0001
0010
0001
0010
0100
1000
,
0001
0100
0001
0202
0000
0000
0000
0000
,
0000
0303
0000
0000
;
