#VERSION:0.83;
#TITLE:Guitar Kendo;
#SUBTITLE:;
#ARTIST:Makita Gakkyu;
#TITLETRANSLIT:;
#SUBTITLETRANSLIT:;
#ARTISTTRANSLIT:;
#GENRE:;
#ORIGIN:;
#CREDIT:;
#BANNER:Makita Gakkyu - Guitar Kendo.png;
#BACKGROUND:;
#PREVIEWVID:;
#JACKET:;
#CDIMAGE:;
#DISCIMAGE:;
#LYRICSPATH:;
#CDTITLE:;
#MUSIC:Makita Gakkyu - Guitar Kendo.ogg;
#OFFSET:-0.306000;
#SAMPLESTART:6.101000;
#SAMPLELENGTH:12.000000;
#SELECTABLE:YES;
#BPMS:0.000=175.985;
#STOPS:;
#DELAYS:;
#WARPS:;
#TIMESIGNATURES:0.000=4=4;
#TICKCOUNTS:0.000=4;
#COMBOS:0.000=1;
#SPEEDS:0.000=1.000=0.000=0;
#SCROLLS:0.000=1.000;
#FAKES:;
#LABELS:0.000=Song Start;
#BGCHANGES:;
#KEYSOUNDS:;
#ATTACKS:
;

//---------------dance-single - ----------------
#NOTEDATA:;
#CHARTNAME:;
#STEPSTYPE:dance-single;
#DESCRIPTION:;
#CHARTSTYLE:;
#DIFFICULTY:Easy;
#METER:4;
#RADARVALUES:0.133281,0.208668,0.008330,0.024990,0.000000,112.000000,111.000000,1.000000,3.000000,0.000000,0.000000,0.000000,0.000000,0.000000,0.133281,0.208668,0.008330,0.024990,0.000000,112.000000,111.000000,1.000000,3.000000,0.000000,0.000000,0.000000,0.000000,0.000000;
#CREDIT:;
#NOTES:
0000
0000
0000
0000
,
0000
0000
0000
0000
,
0000
0000
0000
0000
,
0000
0000
0000
0000
,
0000
0100
0000
0000
,
0000
0010
0000
0000
0000
0000
0000
0000
,
0000
0100
0000
0000
,
0000
0010
0000
0000
0000
0000
0000
0000
,
0000
1000
0000
0001
,
0000
0001
0100
0010
,
0000
1000
0000
0001
,
0000
1000
0010
0100
,
0000
0001
0000
1000
,
0000
0001
0100
0010
,
0000
0100
0000
0010
,
0000
0100
0000
0000
,
0000
0010
0000
0100
,
0000
0000
0000
0100
,
0000
0010
0000
0100
,
0000
0000
0000
0000
,
0000
1000
0000
0001
,
0000
0100
0000
0000
,
0000
0010
0000
0000
,
0000
0100
0000
0000
,
0000
0010
0000
0000
,
0000
0100
0000
0000
,
0000
0001
0000
0000
,
0000
1000
0000
0010
,
0000
0100
0000
0100
,
0000
0000
0000
0100
,
0100
0100
0000
0000
,
0000
0010
0000
0000
0000
0000
0000
0000
,
0000
0100
0100
0100
,
0000
0000
0000
0000
0000
0010
0000
0000
,
0000
0100
0100
0100
,
0000
0000
0000
0010
,
0000
1000
0000
0100
,
0000
0010
0000
0100
,
0000
1000
0000
0001
,
0000
1000
0000
0000
,
0000
0010
0000
0000
,
0000
0000
0000
0100
,
0000
0100
0000
0000
,
0000
0001
0000
1000
,
0000
1000
0000
0100
,
0000
0100
0000
1000
,
0000
1000
0000
0001
,
0000
0001
0000
0000
,
0000
0100
0000
0000
,
0000
0100
0000
0000
0000
0000
0100
0000
,
0100
0100
0000
0000
,
0000
0010
0000
0000
0000
0000
0010
0000
,
0010
0010
0000
0000
,
0000
1000
0000
0000
0000
0000
0000
0000
,
0000
1001
0000
0000
,
0000
0100
0000
0010
,
0000
0000
0000
0100
,
0000
0000
0000
0001
,
0000
0000
0000
1000
,
0000
0000
0000
0010
,
0000
0000
0000
0000
,
0000
0000
0000
0100
,
0000
0000
0000
0000
,
0000
0000
0000
0002
,
0000
0000
0000
0003
,
0000
0000
0000
2000
,
0000
0000
0000
3000
,
0000
0000
0000
0010
,
0000
0000
0000
0000
,
0100
0000
0000
0100
,
0000
0000
0000
0001
,
0000
0000
0001
0000
,
0000
0000
1000
0000
,
0000
1000
0000
0000
,
0001
0000
1000
0000
,
0001
0000
0100
0000
,
0010
0000
0000
0100
,
0000
0100
0000
0000
,
0000
0001
0000
0010
,
0000
0010
0000
0000
,
0000
1000
0000
1000
,
0000
0000
0000
0020
,
0000
0000
0000
0000
,
0030
0000
0100
0000
;

//---------------dance-single - ----------------
#NOTEDATA:;
#CHARTNAME:;
#STEPSTYPE:dance-single;
#DESCRIPTION:;
#CHARTSTYLE:;
#DIFFICULTY:Medium;
#METER:7;
#RADARVALUES:0.255852,0.345698,0.041650,0.058310,0.004165,215.000000,210.000000,5.000000,7.000000,0.000000,0.000000,0.000000,0.000000,0.000000,0.255852,0.345698,0.041650,0.058310,0.004165,215.000000,210.000000,5.000000,7.000000,0.000000,0.000000,0.000000,0.000000,0.000000;
#CREDIT:;
#NOTES:
// measure 0
0000
0000
0000
0000
,  // measure 1
0000
0000
0000
0000
,  // measure 2
0000
0100
0000
0100
,  // measure 3
0000
0100
0000
0000
0000
0100
0000
0000
,  // measure 4
0000
0010
1000
0001
,  // measure 5
1000
0001
0000
0000
1000
0001
0000
0000
,  // measure 6
0000
0100
0010
0100
,  // measure 7
0010
0100
0000
0000
0010
0100
0000
0000
,  // measure 8
0000
0001
1000
0010
,  // measure 9
1000
0000
0000
0001
0000
0000
0100
0000
,  // measure 10
0000
0010
0100
0001
,  // measure 11
0000
1000
0000
0000
0010
0000
0100
0000
,  // measure 12
0000
0010
0000
1000
,  // measure 13
0000
0001
0000
0000
0000
0000
1000
0000
,  // measure 14
0000
0010
0010
0010
,  // measure 15
0000
0100
0000
0000
0000
0000
0010
0000
,  // measure 16
0000
0110
0100
0000
,  // measure 17
0100
0010
0000
0000
0100
0010
0000
0000
,  // measure 18
0000
1000
0001
0100
,  // measure 19
0010
0100
0000
0000
0010
0100
0000
0000
,  // measure 20
0000
0001
0000
1001
,  // measure 21
0000
0000
0000
1000
,  // measure 22
0000
0001
0000
0100
,  // measure 23
0010
0000
0100
0010
,  // measure 24
0000
0100
0000
0010
,  // measure 25
0000
1000
0000
0000
,  // measure 26
0000
1000
0000
0001
,  // measure 27
0001
1000
1000
0010
,  // measure 28
0000
0100
0100
0001
,  // measure 29
0001
0100
0000
0000
0001
0100
0000
0000
,  // measure 30
0000
1000
1000
0010
,  // measure 31
1000
0010
0000
0000
1000
0010
0000
0000
,  // measure 32
0000
0100
0010
0100
,  // measure 33
0001
1000
0010
0001
,  // measure 34
0010
1000
0100
0010
,  // measure 35
0100
1000
0100
1100
,  // measure 36
0000
1000
0001
0100
,  // measure 37
0000
0100
0000
0000
0000
0000
0100
0000
,  // measure 38
0100
0010
0000
0100
,  // measure 39
0000
0010
0000
0000
0000
0000
0010
0000
,  // measure 40
0010
0100
0000
0001
,  // measure 41
0000
1000
0000
0000
0000
0000
0001
0000
,  // measure 42
1000
0001
0000
0100
,  // measure 43
0000
0100
0000
0000
0000
0000
0010
0000
,  // measure 44
0000
1000
0001
0001
,  // measure 45
0000
1000
0100
0100
,  // measure 46
0000
0001
0100
0100
,  // measure 47
0000
1000
0000
0010
,  // measure 48
0000
0110
0000
0110
,  // measure 49
0000
1000
0010
2000
,  // measure 50
3000
0001
0000
0001
,  // measure 51
0000
0001
0010
0002
,  // measure 52
0003
1000
0000
1000
,  // measure 53
0000
0010
0100
0020
,  // measure 54
0030
0100
0000
0010
,  // measure 55
0000
0100
0010
0100
,  // measure 56
0000
0000
0000
0010
,  // measure 57
0000
0010
0000
0000
0000
0000
0100
0000
,  // measure 58
0000
0100
0000
0001
,  // measure 59
0100
0001
0000
1000
,  // measure 60
0100
0010
0000
1000
,  // measure 61
0000
0000
0000
1000
,  // measure 62
0010
0100
0000
0010
,  // measure 63
0000
0000
0000
0001
,  // measure 64
0100
0010
0000
0010
,  // measure 65
0000
0000
0000
0100
,  // measure 66
0000
0010
0000
0100
,  // measure 67
0010
0100
0010
0100
,  // measure 68
0000
0000
0001
0000
0000
0000
0000
1000
,  // measure 69
0000
0001
0000
0001
,  // measure 70
0001
0000
0000
0000
0000
1000
0000
0000
,  // measure 71
0000
0010
0010
0010
,  // measure 72
0000
0000
0000
0100
0000
0000
0010
0000
,  // measure 73
1000
0000
0100
0000
0010
0000
0000
0001
,  // measure 74
0000
0000
1000
0002
,  // measure 75
0000
0000
1000
0000
0000
1000
0000
0000
,  // measure 76
0003
1000
0000
0200
,  // measure 77
0000
0000
0010
0000
0000
0010
0000
0000
,  // measure 78
0300
0001
0000
0002
,  // measure 79
0000
0000
0100
0000
0000
0100
0000
0000
,  // measure 80
0003
0100
0010
0100
,  // measure 81
0010
0100
0000
0010
,  // measure 82
0000
0010
0000
0000
0000
0000
0020
0000
0000
0000
0000
0000
0000
0000
0000
0000
,  // measure 83
0030
0000
0000
0000
;

//---------------dance-single - ----------------
#NOTEDATA:;
#CHARTNAME:;
#STEPSTYPE:dance-single;
#DESCRIPTION:;
#CHARTSTYLE:;
#DIFFICULTY:Hard;
#METER:11;
#RADARVALUES:0.510514,0.556449,0.091631,0.074971,0.012495,429.000000,418.000000,11.000000,9.000000,0.000000,0.000000,0.000000,0.000000,0.000000,0.510514,0.556449,0.091631,0.074971,0.012495,429.000000,418.000000,11.000000,9.000000,0.000000,0.000000,0.000000,0.000000,0.000000;
#CREDIT:;
#NOTES:
0000
0000
0000
0000
,
0000
0000
0000
0000
,
0000
0000
0100
0000
0010
0000
0100
0010
,
0000
0100
0010
0100
0000
0010
0100
0010
,
0000
0000
0110
0000
1000
0000
0100
0010
,
0001
0010
0000
0001
0000
1000
0000
0001
,
0000
1000
0001
0000
0100
0000
0010
0100
,
0010
0100
0000
0001
0000
1000
0000
0001
,
0000
0000
1000
0001
0000
0100
0001
0000
,
0100
0010
0000
0000
0010
0100
0010
0100
,
0010
0000
1000
0001
1000
0001
0100
0000
,
0001
0100
0000
0000
0010
0100
0010
0100
,
0010
0000
1000
0001
0000
0100
0000
0010
,
0000
0100
0000
0000
0010
1000
0010
0000
,
1000
0001
0100
0001
0100
0001
2000
0000
,
0000
0000
3000
0000
0010
0000
0100
0010
,
0100
0000
0110
0000
0010
0000
1000
0100
,
0010
0100
0000
1000
0100
1000
0000
0001
,
0010
0001
0100
0000
0010
0100
0001
0100
,
0010
1000
0000
0001
1000
0001
0000
0100
,
0010
0000
0100
0010
0000
0010
0100
0000
,
0002
0000
0003
0000
1000
0000
0010
0100
,
0010
0100
0010
0000
0100
0000
0001
0000
,
0010
0000
0001
0000
1000
0010
1000
0010
,
1000
0001
0100
0010
0100
0010
0100
0010
,
0000
0110
0000
1001
0000
1000
0100
0000
,
0000
1000
0001
1000
0000
0001
0100
0001
,
0010
0100
1000
0100
0010
0001
0100
0000
,
0000
0000
0110
0000
0010
0000
0100
0010
,
0100
0010
0000
0100
0010
0100
0001
1000
,
0001
0000
1000
0000
1001
0000
1000
0100
,
1000
0000
0100
0000
0000
0000
1000
0000
0000
0100
0000
0000
1000
0000
0000
0100
,
0000
1000
0000
0000
0001
0000
0001
0100
,
0001
0100
0000
0010
0100
0010
0100
0001
,
0100
0000
0010
0100
0001
1000
0010
0100
,
0001
0100
0010
0000
0010
0000
0100
0000
,
0000
0000
0010
0000
0100
0000
0001
0010
,
0001
0010
0001
0010
0001
0000
2000
0000
,
3000
0000
0010
0000
0100
0010
0100
0001
,
0100
0010
0100
0001
1000
0100
0010
0001
,
1000
0001
1000
0000
0100
0000
0010
0001
,
0010
0001
1000
0010
1000
0100
0001
0100
,
1000
0001
0100
0010
,
0000
0100
0010
0000
0010
0000
0110
0000
,
0000
1000
0100
0000
0000
0010
0001
0000
,
0000
1000
0100
0000
0000
0001
0010
0000
,
0000
1000
0001
0000
0000
0001
1000
0000
,
0000
0010
0100
0000
0000
0000
0010
0000
,
0000
0110
1000
0001
,
0000
1000
0001
1000
0001
1000
0002
0000
,
0000
0003
1000
0000
0001
0000
0100
0000
,
0000
0020
0000
0000
0030
0000
0100
0010
,
0100
0110
0000
0010
,
0000
0100
0010
1000
0001
0100
0020
0000
,
0030
0000
0100
0000
0000
0010
0100
0010
,
0000
0100
0010
0000
0110
0000
1002
0000
,
0000
0000
0000
1000
,
1003
0010
0000
0010
1000
0010
1000
0000
,
0001
0000
0020
0000
0030
0000
0100
1000
,
0000
1000
0010
0100
0010
0100
0010
0000
,
0000
0100
0010
0100
0000
0010
0000
0100
,
0010
0100
0010
0000
0000
0100
0010
0000
,
0000
0100
0000
0001
,
0000
0000
1000
0001
1000
0001
0010
0000
,
0000
0000
0001
0000
0000
1000
0001
1000
,
0000
0001
1000
0000
0000
0010
0100
0000
,
0001
0000
1000
0100
0000
0100
1000
0000
,
0001
0010
0000
0100
0010
0000
0001
0000
,
1000
0000
0010
0100
1000
0100
0010
0100
,
0001
0100
0001
0000
1000
0000
0002
0003
,
1000
0010
1000
0100
0000
0100
1000
0010
,
0100
0001
0100
0000
0010
0100
0010
1000
,
0100
1000
0000
1000
0100
1000
0001
0010
,
0100
0000
1000
0000
1000
0100
0010
0001
,
0100
0000
0000
0000
0100
0010
0100
0000
,
0001
0000
0010
0001
0100
0010
0000
0010
,
0100
0001
0010
0001
0100
0000
0010
0000
,
1000
0001
1000
0001
1000
0001
0000
1000
,
0000
0010
0000
0010
0000
0100
0010
0000
,
0010
0100
0000
0010
0100
0010
0000
0100
,
0010
0100
0000
0010
1000
0001
1000
0000
,
0001
0001
0100
0010
,
0000
0100
0000
0000
0000
0000
0010
0000
0000
0000
0000
0000
0100
0000
0100
0000
,
0010
0000
0100
0010
0100
0000
0000
0000
;

//---------------dance-single - ----------------
#NOTEDATA:;
#CHARTNAME:;
#STEPSTYPE:dance-single;
#DESCRIPTION:;
#CHARTSTYLE:;
#DIFFICULTY:Beginner;
#METER:2;
#RADARVALUES:0.089251,0.137446,0.008330,0.024990,0.000000,75.000000,74.000000,1.000000,3.000000,0.000000,0.000000,0.000000,0.000000,0.000000,0.089251,0.137446,0.008330,0.024990,0.000000,75.000000,74.000000,1.000000,3.000000,0.000000,0.000000,0.000000,0.000000,0.000000;
#CREDIT:;
#NOTES:
0000
0000
0000
0000
,
0000
0000
0000
0000
,
0000
0000
0000
0000
,
0000
0000
0000
0000
,
0000
0000
0000
0000
,
0000
0000
0000
0000
,
0000
1000
0000
0000
,
0000
0000
0000
0001
,
0000
0001
0000
0000
,
0000
0000
0000
1000
,
0000
1000
0000
0000
,
0000
0000
0000
0001
,
0000
0001
0000
0000
,
0000
0000
0000
0100
,
0000
0100
0000
0000
,
0000
0000
0000
0000
,
0000
0010
0000
0000
,
0000
0000
0000
0100
,
0000
0100
0000
0000
,
0000
0000
0000
0001
,
0000
1000
0000
1000
,
0000
0000
0000
0000
,
0000
0001
0000
0000
,
0000
1000
0000
0000
,
0000
0001
0000
1000
,
0000
0001
0000
0000
,
0000
1000
0000
0000
,
0000
0001
0000
0000
,
0000
0100
0000
0000
,
0000
0000
0000
0010
,
0000
0010
0000
0000
,
0000
0000
0000
0000
,
0000
0100
0000
0000
,
0000
0000
0000
0010
,
0000
0010
0000
0000
,
0000
0100
0000
0100
,
0000
0100
0000
0000
,
0000
0001
0000
0000
,
0000
1000
0000
0000
,
0000
0001
0000
0000
,
0000
1000
0000
0000
,
0000
0000
0000
0001
,
0000
0001
0000
0000
,
0000
1000
0000
0000
,
0000
1000
0000
0000
,
0000
0001
0000
0000
,
0000
1000
0000
0000
,
0000
0001
0000
0000
,
0000
0100
0000
0000
,
0000
0000
0000
0010
,
0000
0010
0000
0000
,
0000
0000
0000
1000
,
0000
1000
0000
0000
,
0000
0000
0000
0001
,
0000
0001
0000
0000
,
0000
1000
0000
0001
,
0000
0000
0000
0000
,
0000
0000
0000
0100
,
0000
0000
0000
0010
,
0000
0000
0000
2000
,
0000
0000
0000
3000
,
0000
0000
0000
0002
,
0000
0000
0000
0003
,
0000
0000
0000
1001
,
0000
0000
0000
1000
,
0000
0000
0000
0001
,
0000
0000
0000
0100
,
0000
0000
0000
0010
,
0000
0000
0000
0000
,
0000
1000
0000
1000
,
0000
0000
0000
0000
,
0001
0000
0001
0000
,
0000
0000
0000
1000
,
0000
1000
0000
0000
,
0000
0000
0000
0100
,
0000
0000
0000
0000
,
0000
0100
0000
0100
,
0000
0000
0000
0000
,
0000
1000
0000
0001
,
0000
0000
0000
0000
,
0000
0001
0000
0100
,
0000
0000
0000
0020
,
0000
0000
0030
0000
;
